<?xml version="1.0" standalone="no"?>
<!DOCTYPE svg PUBLIC "-//W3C//DTD SVG 1.1//EN" "http://www.w3.org/Graphics/SVG/1.1/DTD/svg11.dtd" >
<svg xmlns="http://www.w3.org/2000/svg" xmlns:xlink="http://www.w3.org/1999/xlink" version="1.1">
<metadata></metadata>
<defs>
<font id="gt_americaExBlkIt" horiz-adv-x="1433" >
<font-face units-per-em="2048" ascent="1638" descent="-410" />
<missing-glyph horiz-adv-x="616" />
<glyph unicode="&#xfb01;" horiz-adv-x="1746" d="M70 745l49 279h217l10 51q36 206 171.5 316t363.5 110q150 0 297 -41l-54 -291q-78 23 -163 23q-81 0 -118 -30t-48 -95l-7 -43h312l-49 -279h-312l-133 -745h-452l133 745h-217zM1077 0l187 1024h450l-188 -1024h-449zM1280 1151l63 348h463l-63 -348h-463z" />
<glyph unicode="&#xfb02;" horiz-adv-x="1763" d="M70 745l49 279h217l10 51q36 206 171.5 316t363.5 110q150 0 297 -41l-54 -291q-78 23 -163 23q-81 0 -118 -30t-48 -95l-7 -43h312l-49 -279h-312l-133 -745h-452l133 745h-217zM1087 0l263 1485h450l-262 -1485h-451z" />
<glyph horiz-adv-x="0" />
<glyph horiz-adv-x="0" />
<glyph horiz-adv-x="682" />
<glyph unicode="&#xd;" horiz-adv-x="0" />
<glyph unicode=" "  horiz-adv-x="616" />
<glyph unicode="&#x09;" horiz-adv-x="616" />
<glyph unicode="&#xa0;" horiz-adv-x="616" />
<glyph unicode="!" horiz-adv-x="772" d="M59 0l66 367h475l-65 -367h-476zM199 526l112 959h496l-227 -959h-381z" />
<glyph unicode="&#x22;" horiz-adv-x="1128" d="M197 737l71 717h414l-180 -717h-305zM707 737l71 717h414l-180 -717h-305z" />
<glyph unicode="#" horiz-adv-x="1558" d="M49 324v272h277l43 229h-238v275h289l59 315h326l-60 -315h259l59 315h326l-60 -315h238v-275h-289l-43 -229h262v-272h-313l-60 -324h-325l59 324h-258l-59 -324h-326l59 324h-225zM651 596h258l43 229h-258z" />
<glyph unicode="$" horiz-adv-x="1482" d="M-86 250l319 231q141 -175 381 -205l54 308l-76 10q-98 15 -177 44t-143.5 76.5t-100.5 120t-36 164.5q0 69 19 130.5t67.5 123t124 106t198 72.5t279.5 29l31 178h147l-32 -184q377 -28 561 -223l-281 -240q-134 140 -331 168l-48 -268l142 -21q426 -68 426 -395 q0 -76 -20.5 -145t-72.5 -136.5t-132.5 -116.5t-210 -80t-295.5 -32l-33 -184h-148l33 190q-210 18 -376.5 88t-268.5 191zM543 1044q0 -49 39.5 -79t144.5 -52l45 256q-118 -3 -173.5 -33t-55.5 -92zM760 270q260 9 260 154q0 56 -41.5 86.5t-134.5 48.5l-33 4z" />
<glyph unicode="%" horiz-adv-x="2334" d="M119 1026q0 85 31 163.5t93 144.5t168 105.5t242 39.5q66 0 127.5 -9t125.5 -34.5t111 -64t77 -103.5t30 -148q0 -85 -31 -163t-93 -143.5t-168 -104.5t-242 -39q-66 0 -127.5 9t-125.5 33.5t-111 63t-77 103t-30 147.5zM285 -29l1550 1524h293l-1548 -1524h-295z M449 1036q0 -77 43 -109t106 -32q51 0 90.5 20.5t61 53.5t32.5 69t11 72q0 77 -42.5 109t-105.5 32q-51 0 -90.5 -20.5t-61.5 -53.5t-33 -69t-11 -72zM1284 328q0 68 19 131.5t61 122t102.5 102.5t151.5 70t201 26q66 0 127.5 -9t125.5 -34t111 -63.5t77 -103.5t30 -148 q0 -68 -19 -131.5t-61 -122t-102.5 -102t-151.5 -69.5t-201 -26q-66 0 -127.5 9t-125.5 34t-111 63.5t-77 103t-30 147.5zM1614 338q0 -77 43 -109t106 -32q51 0 90.5 20.5t61 53.5t32.5 69t11 72q0 77 -42.5 109t-105.5 32q-51 0 -90.5 -20.5t-61.5 -53.5t-33 -69t-11 -72z " />
<glyph unicode="&#x26;" horiz-adv-x="1687" d="M-4 379q0 275 377 414q-103 143 -103 297q0 59 14.5 114t53.5 112t99 98.5t158 68t224 26.5q71 0 138.5 -9t139 -32.5t125 -60.5t87.5 -97.5t34 -138.5q0 -285 -423 -428l241 -237q94 137 152 342l313 -68q-87 -291 -233 -473q53 -24 110 -24q72 0 117 18l-51 -291 q-89 -41 -197 -41q-147 0 -266 103q-208 -113 -490 -113q-74 0 -141.5 7.5t-140.5 24.5t-131.5 48.5t-106 76.5t-74 112t-26.5 151zM459 442q0 -101 69.5 -148.5t180.5 -47.5q95 0 182 33l-340 331q-92 -63 -92 -168zM664 1108q0 -103 86 -197q64 19 109 46.5t66.5 58.5 t30.5 57.5t9 52.5q0 79 -41.5 113.5t-102.5 34.5q-45 0 -77.5 -15.5t-49 -41t-23.5 -52.5t-7 -57z" />
<glyph unicode="'" horiz-adv-x="618" d="M197 737l71 717h414l-180 -717h-305z" />
<glyph unicode="(" horiz-adv-x="851" d="M133 516q0 116 18 224t47.5 196t75 172.5t93 150t109.5 132t116 115.5t121 104l288 -203q-85 -77 -139.5 -132.5t-120.5 -141.5t-104 -167.5t-64 -194.5t-26 -239q0 -156 41.5 -314t144.5 -368l-356 -143q-244 397 -244 809z" />
<glyph unicode=")" horiz-adv-x="851" d="M-98 -90q59 54 100 93.5t92.5 97t86 107t70.5 116.5t57 134t34.5 151t13.5 175q0 156 -41.5 314t-144.5 368l356 144q244 -397 244 -809q0 -116 -18 -224t-47.5 -196t-75 -172.5t-93 -150t-109.5 -132t-116 -115.5t-121 -104z" />
<glyph unicode="*" horiz-adv-x="892" d="M102 1061l146 289l239 -170l-32 293h319l-129 -293l293 170l45 -291l-317 -23l215 -202l-281 -181l-74 293l-174 -293l-229 183l291 200z" />
<glyph unicode="+" horiz-adv-x="1284" d="M86 541l47 264h418l63 362h285l-63 -362h417l-47 -264h-418l-67 -383h-285l68 383h-418z" />
<glyph unicode="," horiz-adv-x="638" d="M8 -178q184 22 211 155l4 23h-211l72 403h434l-74 -411q-14 -76 -50 -136t-79 -95.5t-96.5 -59.5t-95 -34t-82.5 -13z" />
<glyph unicode="-" horiz-adv-x="1030" d="M63 399l60 340h864l-59 -340h-865z" />
<glyph unicode="." horiz-adv-x="653" d="M12 0l68 387h448l-67 -387h-449z" />
<glyph unicode="/" horiz-adv-x="1302" d="M-51 -240l1052 1796h404l-1053 -1796h-403z" />
<glyph unicode="0" horiz-adv-x="1622" d="M90 612q0 81 11.5 161t39.5 165t70 160t107 142.5t146.5 116t193.5 77t243 28.5q106 0 201 -17.5t188.5 -63.5t161 -117.5t109 -187.5t41.5 -265q0 -81 -11.5 -161t-39.5 -165t-70 -160t-107 -142.5t-146.5 -116t-193.5 -77t-243 -28.5q-106 0 -201 17.5t-188.5 63.5 t-161 117.5t-109 187.5t-41.5 265zM559 588q0 -157 64 -227t165 -70q63 0 116 26t90 70.5t65 100t44 118t24 120t8 110.5q0 157 -65 227t-167 70q-63 0 -116 -26t-89 -71t-64 -100t-44 -117.5t-23.5 -120t-7.5 -110.5z" />
<glyph unicode="1" horiz-adv-x="1030" d="M86 803l68 387h79q149 0 241.5 55.5t154.5 177.5h375l-250 -1423h-453l154 879q-31 -35 -101 -55.5t-147 -20.5h-121z" />
<glyph unicode="2" horiz-adv-x="1476" d="M-23 0l54 303q513 211 717 340q128 74 185.5 150.5t57.5 169.5q0 167 -182 167q-58 0 -100.5 -18.5t-65.5 -50.5t-34.5 -65.5t-14.5 -73.5q0 -40 6 -70l-457 41q-4 41 -2 78q2 46 12.5 90.5t34.5 94.5t59.5 93t91.5 83t126.5 68t168.5 45t214 17q93 0 176.5 -10.5 t169.5 -40t148 -76t101.5 -124t39.5 -177.5q0 -159 -88 -278t-244 -219q-172 -109 -424 -199h649l-59 -338h-1340z" />
<glyph unicode="3" horiz-adv-x="1470" d="M25 459l469 39q2 -65 22 -109t55 -66t72 -31t84 -9q90 0 139 44t49 113q0 140 -223 140h-94l47 268h129q221 0 221 158q0 51 -29 84t-67.5 44t-87.5 11q-214 0 -240 -217l-450 45q32 225 211.5 357t492.5 132q62 0 118.5 -3.5t124 -14.5t124.5 -28.5t111.5 -47.5 t92 -69.5t60.5 -96.5t23 -127q0 -82 -34 -150t-91.5 -112.5t-128 -71t-148.5 -34.5q150 -19 233 -91.5t83 -199.5q0 -92 -41.5 -173.5t-121 -144.5t-206 -100t-285.5 -37q-91 0 -172.5 9t-164.5 30t-149.5 59t-119 91.5t-80.5 132t-28 176.5z" />
<glyph unicode="4" horiz-adv-x="1525" d="M-20 283l51 288l911 852h481l-147 -833h250l-56 -307h-249l-50 -283h-448l49 283h-792zM442 590h398l75 360q23 115 33 146h-6q-51 -74 -129 -146l-244 -254q-78 -75 -127 -106z" />
<glyph unicode="5" horiz-adv-x="1452" d="M27 385l448 61q13 -84 73 -122.5t142 -38.5q51 0 92.5 13.5t67 35t43 50.5t24.5 58.5t7 61.5q0 86 -54.5 133t-144.5 47q-160 0 -225 -133l-394 35l240 837h1102l-57 -329h-779l-77 -254q56 74 152.5 106.5t207.5 32.5q65 0 128.5 -11t131.5 -41t119 -77t84 -126t33 -181 q0 -79 -17.5 -153.5t-66.5 -154.5t-124 -139t-201 -97t-288 -38q-73 0 -143 8t-145 25.5t-138 50.5t-115.5 78t-85.5 112t-40 150z" />
<glyph unicode="6" horiz-adv-x="1513" d="M90 598q0 125 23.5 241.5t83.5 232t151 200t237 137.5t330 53q79 0 152.5 -9.5t153.5 -36.5t141 -69t106.5 -113.5t57.5 -164.5l-451 -55q-14 73 -64.5 104t-119.5 29q-64 -1 -118 -23.5t-93 -63t-67.5 -89.5t-47.5 -109q138 109 363 109q89 0 166 -15t144.5 -49t115 -86 t75 -130t27.5 -177q0 -114 -46 -214t-131.5 -176t-218 -119.5t-294.5 -43.5q-103 0 -194.5 17t-182 62t-155 114.5t-104.5 183.5t-40 260zM530 561q16 -282 226 -282q124 0 184.5 64t60.5 159q0 172 -206 172q-161 0 -265 -113z" />
<glyph unicode="7" horiz-adv-x="1294" d="M127 1073l61 350h1244l-60 -331q-301 -189 -469 -430.5t-211 -579.5l-10 -82h-492l7 43q38 302 230.5 572.5t504.5 457.5h-805z" />
<glyph unicode="8" horiz-adv-x="1519" d="M20 358q0 126 89 219t268 128q-201 106 -201 315q0 68 22.5 131t73.5 120t126 99t188.5 67t253.5 25q94 0 184.5 -11.5t181 -39t158.5 -69.5t110 -109t42 -150q0 -109 -74 -188.5t-230 -114.5q120 -48 182 -128.5t62 -207.5q0 -76 -23 -144t-77 -131t-136 -108.5 t-208.5 -72.5t-286.5 -27q-98 0 -192.5 12t-189 42t-165 74t-114.5 113.5t-44 155.5zM502 432q0 -88 65.5 -129t175.5 -41q124 0 184 48.5t60 117.5q0 63 -52.5 100.5t-176.5 65.5l-111 27q-72 -30 -108.5 -79.5t-36.5 -109.5zM629 1032q0 -65 46.5 -95.5t147.5 -53.5 l125 -27q109 53 109 166q0 48 -21 82t-56 50t-68 22t-70 6q-117 0 -165 -43.5t-48 -106.5z" />
<glyph unicode="9" horiz-adv-x="1521" d="M59 367l451 55q7 -52 45.5 -85.5t82 -44.5t89.5 -11q116 0 189.5 81.5t109.5 210.5q-146 -84 -328 -84q-80 0 -157.5 15.5t-152 51t-130 87t-89.5 130t-34 173.5q0 50 9.5 98.5t33 100.5t59 97t90 86t123 70.5t163 46.5t204.5 17q72 0 137 -7t135.5 -26t128.5 -49 t112 -80t90.5 -114.5t58.5 -157t22 -203.5q0 -46 -3 -92.5t-14 -111.5t-28.5 -125t-49 -128t-73 -125t-103.5 -110t-137.5 -90.5t-178.5 -59.5t-222 -22q-89 0 -170.5 12t-162.5 41.5t-142.5 74t-104 116t-53.5 162.5zM588 958q0 -84 58 -128t155 -44q152 0 270 103 q3 272 -244 272q-65 0 -113.5 -18.5t-74.5 -49t-38.5 -64.5t-12.5 -71z" />
<glyph unicode=":" horiz-adv-x="653" d="M12 0l68 387h448l-67 -387h-449zM125 637l68 387h448l-68 -387h-448z" />
<glyph unicode=";" horiz-adv-x="659" d="M25 -178q185 22 211 155l4 23h-211l71 403h435l-74 -411q-14 -76 -50 -136t-79 -95.5t-96.5 -59.5t-95.5 -34t-83 -13zM125 637l68 387h448l-68 -387h-448z" />
<glyph unicode="&#x3c;" horiz-adv-x="1544" d="M299 535l47 266l1127 407l-52 -311l-766 -244l680 -243l-53 -283z" />
<glyph unicode="=" horiz-adv-x="1259" d="M53 352l45 248h1096l-45 -248h-1096zM123 748l45 247h1096l-45 -247h-1096z" />
<glyph unicode="&#x3e;" horiz-adv-x="1544" d="M127 127l51 311l766 244l-680 244l53 282l983 -407l-47 -266z" />
<glyph unicode="?" horiz-adv-x="1411" d="M129 1044q0 74 22.5 140.5t75.5 126.5t131.5 103.5t198 69t268.5 25.5q95 0 180.5 -10.5t172.5 -39.5t149.5 -73.5t101.5 -118.5t39 -169q0 -131 -73 -217t-230 -164l-143 -66q-71 -36 -97 -68t-34 -81l-8 -43h-428l12 76q14 97 60.5 156.5t150.5 105.5l168 73 q81 37 115 82t34 105q0 78 -55 112.5t-139 34.5q-127 0 -184.5 -55.5t-57.5 -147.5q0 -47 6 -71l-426 33q-10 38 -10 81zM354 0l66 367h473l-66 -367h-473z" />
<glyph unicode="@" horiz-adv-x="1888" d="M51 506q0 132 34 252.5t109 230t185 189.5t273 127t362 47q108 0 207 -14.5t196.5 -46t177 -85.5t140.5 -128t95 -179t34 -233q0 -88 -16 -166t-51 -147.5t-88 -119.5t-131 -79t-175 -29q-131 0 -205.5 49t-89.5 137q-129 -190 -385 -190q-143 0 -233.5 64.5t-90.5 187.5 q0 54 20 100t65 87.5t127 69.5t196 36l301 22l6 47q14 121 -113 121q-69 0 -104.5 -35.5t-40.5 -81.5h-367q9 46 30.5 90t63.5 89t97.5 78.5t139.5 55t184 21.5q82 0 151 -13t129.5 -45t99.5 -81t55.5 -126t2.5 -175l-29 -205q-8 -62 11.5 -94.5t76.5 -32.5q56 0 96 31 t60.5 84t29.5 109.5t9 119.5q0 137 -42 240.5t-107 164t-157 98t-178.5 50t-185.5 12.5q-151 0 -275.5 -28.5t-210.5 -80t-148.5 -117t-98 -145t-52 -158t-16.5 -161.5q0 -131 37.5 -233.5t98.5 -167t146 -106.5t173 -59t186 -17q225 0 412 69l35 -131q-197 -84 -434 -84 q-137 0 -257 24.5t-226 79.5t-181.5 137t-119.5 203t-44 271zM780 422q0 -80 105 -80q73 0 126.5 41t65.5 115l8 43l-170 -11q-71 -4 -103 -35.5t-32 -72.5z" />
<glyph unicode="A" horiz-adv-x="1777" d="M-74 0l840 1454h580l325 -1454h-461l-49 289h-579l-150 -289h-506zM739 588h369l-49 289q-25 125 -31 280h-6q-43 -120 -133 -280z" />
<glyph unicode="B" horiz-adv-x="1658" d="M49 0l256 1454h891q103 0 185.5 -18t149.5 -56.5t103.5 -106t36.5 -159.5q0 -154 -99.5 -246.5t-258.5 -117.5q123 -14 199.5 -93.5t76.5 -220.5q0 -67 -18.5 -127.5t-63 -118t-113 -99t-176 -66.5t-243.5 -25h-926zM569 303h314q217 0 217 166q0 74 -43.5 103.5 t-132.5 29.5h-301zM672 881h305q186 0 186 149q0 121 -151 121h-291z" />
<glyph unicode="C" horiz-adv-x="1720" d="M76 645q0 121 29.5 237.5t99 228.5t171.5 196.5t259.5 136t351.5 51.5q153 0 283 -32t235 -95.5t172 -168t86 -241.5l-491 -90q-43 267 -303 267q-91 0 -163 -31.5t-116 -80.5t-72.5 -114t-39.5 -127t-11 -125q0 -97 26.5 -165.5t74 -104t99.5 -50.5t116 -15 q266 0 338 264l462 -109q-204 -518 -817 -518q-171 0 -311.5 39.5t-249 120t-169 214.5t-60.5 312z" />
<glyph unicode="D" horiz-adv-x="1761" d="M49 0l256 1454h682q134 0 248 -21.5t212.5 -70t167.5 -121t108.5 -180.5t39.5 -244q0 -129 -34 -246.5t-109.5 -222.5t-185 -181.5t-270.5 -121.5t-357 -45h-758zM571 319h230q103 0 186 29t135 76t87 110.5t49 127.5t14 131q0 91 -26.5 160t-71.5 107t-98 56.5 t-113 18.5h-246z" />
<glyph unicode="E" horiz-adv-x="1490" d="M49 0l256 1454h1243l-55 -326h-776l-43 -235h741l-53 -309h-741l-48 -258h791l-57 -326h-1258z" />
<glyph unicode="F" horiz-adv-x="1431" d="M49 0l256 1454h1243l-57 -336h-776l-43 -246h739l-57 -327h-742l-96 -545h-467z" />
<glyph unicode="G" horiz-adv-x="1751" d="M72 608q0 129 29.5 251t99.5 239t173 204t262 140t355 53t355.5 -50t269 -156t139.5 -255l-489 -88q-38 213 -291 213q-88 0 -159 -31.5t-117.5 -82.5t-77.5 -119.5t-44.5 -140t-13.5 -146.5q0 -181 83 -263.5t241 -82.5q148 0 233.5 63.5t108.5 157.5l6 23h-387l53 301 h819l-147 -838h-342l24 217q-63 -119 -196.5 -188.5t-331.5 -69.5q-146 0 -265 41t-206.5 120.5t-135.5 203.5t-48 284z" />
<glyph unicode="H" horiz-adv-x="1775" d="M49 0l256 1454h467l-96 -553h563l96 553h469l-256 -1454h-469l101 567h-564l-100 -567h-467z" />
<glyph unicode="I" horiz-adv-x="745" d="M49 0l256 1454h467l-256 -1454h-467z" />
<glyph unicode="J" horiz-adv-x="960" d="M-61 8l63 357q93 -19 168 -19q106 0 158 49.5t67 139.5l162 919h467l-182 -1020q-79 -459 -596 -459q-82 0 -170 10t-137 23z" />
<glyph unicode="K" horiz-adv-x="1708" d="M49 0l256 1454h467l-98 -559l620 559h541l-653 -580l415 -874h-518l-262 580l-235 -207l-66 -373h-467z" />
<glyph unicode="L" horiz-adv-x="1347" d="M49 0l256 1454h467l-190 -1085h702l-65 -369h-1170z" />
<glyph unicode="M" horiz-adv-x="2150" d="M49 0l256 1454h643l88 -774q10 -83 10 -143q0 -26 -2 -48h5q17 64 77 195l351 770h700l-256 -1454h-428l154 868q20 115 55 228h-6q-52 -126 -90 -197l-432 -899h-406l-117 897q-16 92 -20 197h-6q-3 -110 -25 -226l-154 -868h-397z" />
<glyph unicode="N" horiz-adv-x="1783" d="M49 0l256 1454h488l346 -694q53 -96 82 -195h6q3 19 16.5 96t20.5 115l118 678h428l-256 -1454h-460l-371 709q-64 111 -84 182h-6l-39 -219l-117 -672h-428z" />
<glyph unicode="O" horiz-adv-x="1794" d="M74 635q0 89 14.5 175t48 172t83 161t123 140.5t165 112t213 73t262.5 26.5q139 0 260 -25.5t223.5 -79t175 -132t113.5 -190.5t41 -249q0 -89 -15 -175t-48 -172t-83 -161t-123.5 -140.5t-165 -112t-213 -73t-261.5 -26.5q-139 0 -260 25.5t-223.5 79t-175 132 t-113.5 190.5t-41 249zM563 655q0 -93 26 -162t72.5 -108t102 -57.5t121.5 -18.5q90 0 163 28.5t120.5 75.5t79.5 111t45.5 132.5t13.5 142.5q0 93 -26 162t-72.5 108t-102.5 57.5t-123 18.5q-112 0 -196 -42.5t-131.5 -114.5t-70 -155.5t-22.5 -177.5z" />
<glyph unicode="P" horiz-adv-x="1599" d="M49 0l256 1454h742q91 0 171.5 -11.5t163 -42.5t141 -80t95.5 -130.5t37 -188.5q0 -66 -14.5 -128t-45 -124t-83.5 -112.5t-125 -90t-175.5 -61.5t-228.5 -22h-385l-82 -463h-467zM653 770h240q73 0 126 18.5t81.5 50t41.5 67t13 75.5q0 49 -17.5 82.5t-49 49.5t-64 22 t-74.5 6h-231z" />
<glyph unicode="Q" horiz-adv-x="1804" d="M74 635q0 89 14.5 175t48 172t83 161t123 140.5t165 112t213 73t262.5 26.5q139 0 260 -25.5t223.5 -79t175 -132t113.5 -190.5t41 -249q0 -120 -28 -234t-85.5 -220.5t-156.5 -194t-230 -139.5q89 -54 222 -54q78 0 157 13l-61 -348q-86 -13 -156 -13q-438 0 -540 330 h-31q-139 0 -260 25.5t-223.5 79t-175 132t-113.5 190.5t-41 249zM563 655q0 -93 26 -162t72.5 -108t102 -57.5t121.5 -18.5q90 0 163 28.5t120.5 75.5t79.5 111t45.5 132.5t13.5 142.5q0 93 -26 162t-72.5 108t-102.5 57.5t-123 18.5q-112 0 -196 -42.5t-131.5 -114.5 t-70 -155.5t-22.5 -177.5z" />
<glyph unicode="R" horiz-adv-x="1644" d="M49 0l256 1454h782q91 0 170 -12t153.5 -42.5t127.5 -78t85 -123t32 -172.5q0 -75 -17.5 -142t-56 -130.5t-111.5 -113.5t-174 -77l217 -563h-507l-179 508h-221l-90 -508h-467zM657 799h267q66 0 114.5 17.5t73.5 47.5t36 62t11 67q0 83 -52.5 118.5t-129.5 35.5h-258z " />
<glyph unicode="S" horiz-adv-x="1505" d="M-84 252l348 268q89 -111 216 -166t272 -55q239 0 239 127q0 48 -34.5 71t-118.5 35l-236 35q-75 12 -139 33.5t-121.5 57.5t-98 83t-64 113t-23.5 145q0 74 19.5 141.5t69 133.5t126.5 114t201.5 77.5t283.5 29.5q220 0 411.5 -55.5t315.5 -184.5l-305 -270 q-154 182 -444 182h-9q-111 -2 -164 -29t-53 -85q0 -43 35.5 -67.5t130.5 -41.5l248 -41q209 -36 323.5 -138.5t114.5 -289.5q0 -82 -21 -154t-73.5 -140t-133.5 -116t-210 -77t-295 -29q-281 0 -490 72t-321 221z" />
<glyph unicode="T" d="M117 1092l63 362h1405l-63 -362h-469l-193 -1092h-467l193 1092h-469z" />
<glyph unicode="U" horiz-adv-x="1691" d="M117 490q0 86 16 190l137 774h467l-143 -811q-8 -46 -8 -86q0 -38 8 -70q16 -65 55.5 -98.5t85.5 -48t101 -14.5q70 0 125 23t90 64t56 87.5t32 103.5l147 850h469l-160 -903q-17 -97 -50 -179.5t-94 -160.5t-145 -132t-209 -87t-280 -33q-79 0 -151 8.5t-143 26.5 t-129 47t-110 71t-86.5 97t-57.5 125t-23 156z" />
<glyph unicode="V" horiz-adv-x="1691" d="M162 1454h491l138 -876q13 -92 13 -159q0 -13 -1 -26h8q19 68 76 185l446 876h529l-826 -1454h-559z" />
<glyph unicode="W" horiz-adv-x="2379" d="M197 1454h465l38 -817q1 -26 1 -49q0 -58 -7 -101h8q18 73 54 150l352 817h481l64 -817q4 -45 3.5 -82.5t-3.5 -67.5h8q13 63 47 150l328 817h479l-666 -1454h-512l-53 868q-2 20 -2 43q0 41 6 90h-10q-12 -59 -41 -133l-363 -868h-524z" />
<glyph unicode="X" horiz-adv-x="1718" d="M-84 0l694 745l-420 709h523l184 -358q31 -55 39 -97h6q20 36 74 97l303 358h539l-664 -723l428 -731h-526l-193 358q-45 76 -51 113h-4q-16 -30 -88 -111l-299 -360h-545z" />
<glyph unicode="Y" horiz-adv-x="1581" d="M147 1454h484l174 -510q22 -59 22 -104h4q18 47 62 104l360 510h512l-745 -965l-84 -489h-469l84 489z" />
<glyph unicode="Z" horiz-adv-x="1515" d="M-6 0l53 305l901 815h-729l60 334h1306l-53 -305l-897 -817h786l-59 -332h-1368z" />
<glyph unicode="[" horiz-adv-x="837" d="M6 -240l318 1796h675l-51 -286h-266l-215 -1223h266l-51 -287h-676z" />
<glyph unicode="\" horiz-adv-x="1937" d="M266 1556h404l1052 -1796h-403z" />
<glyph unicode="]" horiz-adv-x="835" d="M-111 -240l52 287h266l215 1223h-266l51 286h676l-318 -1796h-676z" />
<glyph unicode="^" horiz-adv-x="1101" d="M113 915l428 537h352l240 -537h-324l-115 299l-223 -299h-358z" />
<glyph unicode="_" horiz-adv-x="1177" d="M-160 -393l41 229h1178l-43 -229h-1176z" />
<glyph unicode="`" horiz-adv-x="1228" d="M88 1487h414l342 -332h-342z" />
<glyph unicode="a" d="M12 266q0 157 123 244q129 93 418 108l338 17l6 39q2 12 2 22q1 45 -31 70q-38 31 -118 31q-158 0 -177 -123h-458q15 84 57.5 151t116.5 119.5t191.5 81.5t271.5 29q324 1 474 -123q116 -95 115 -265q0 -50 -10 -106l-51 -293q-27 -167 -27 -252v-16h-440q0 83 14 160 q-45 -90 -154.5 -140.5t-252.5 -50.5q-87 0 -159.5 17.5t-129 52.5t-88 93t-31.5 134zM481 317q0 -96 148 -96q91 0 153.5 43t75.5 125l10 62l-188 -9q-199 -11 -199 -125z" />
<glyph unicode="b" horiz-adv-x="1519" d="M45 0l262 1485h451l-105 -590q138 160 375 160q65 0 125.5 -13t121.5 -45.5t105.5 -82t72.5 -129.5t28 -181q0 -84 -18 -168t-61.5 -169.5t-107.5 -150.5t-166 -106t-227 -41q-141 0 -243 47.5t-152 135.5l-49 -152h-412zM565 504q-6 -28 -6 -54q0 -68 40 -122 q56 -76 161 -76q62 0 112 31t79.5 79.5t45 103t15.5 107.5q0 105 -55.5 153t-139.5 48q-92 0 -154.5 -54t-80.5 -136z" />
<glyph unicode="c" horiz-adv-x="1398" d="M37 459q0 72 16 141t49 137t90.5 124.5t134 100.5t185.5 68.5t240 24.5q121 0 226 -21t195 -64.5t148.5 -118.5t73.5 -175l-457 -78q-35 154 -193 154q-53 0 -95.5 -17t-69 -44.5t-44.5 -64.5t-25 -74t-7 -77q0 -107 53 -153t139 -46q94 0 146 46.5t67 117.5l430 -86 q-55 -173 -225 -279t-440 -106q-61 0 -120 6t-123.5 21t-120 38.5t-107 62.5t-87.5 88.5t-57.5 119.5t-21.5 154z" />
<glyph unicode="d" horiz-adv-x="1521" d="M41 430q0 90 20.5 177t66.5 168.5t112 143.5t165.5 99t219.5 37q139 0 235.5 -44.5t140.5 -123.5l105 598h453l-263 -1485h-434l31 178q-59 -96 -161.5 -152.5t-235.5 -56.5q-65 0 -126.5 13.5t-122 47t-105.5 84.5t-73 132.5t-28 183.5zM512 459q0 -207 186 -207 q96 0 155.5 59.5t76.5 143.5l14 82q7 36 7 66q0 73 -39 113q-55 58 -154 58q-64 0 -113.5 -29.5t-77.5 -77.5t-41.5 -101t-13.5 -107z" />
<glyph unicode="e" horiz-adv-x="1382" d="M37 459q0 86 22 167.5t74.5 160.5t130.5 137.5t200 94.5t273 36q91 0 173.5 -13t163 -45.5t139 -82.5t94.5 -130t36 -182q0 -96 -24 -182h-850q11 -85 81 -124.5t163 -39.5q162 0 243 119l306 -148q-180 -258 -578 -258q-74 0 -144.5 9t-145.5 29.5t-137.5 58 t-112.5 89.5t-78.5 130t-28.5 174zM477 639h445q6 9 6 35q0 64 -57 103.5t-152 39.5q-104 0 -165 -48.5t-77 -129.5z" />
<glyph unicode="f" horiz-adv-x="1042" d="M70 745l49 279h217l10 51q36 206 171.5 316t363.5 110q150 0 297 -41l-54 -291q-78 23 -163 23q-81 0 -118 -30t-48 -95l-7 -43h312l-49 -279h-312l-133 -745h-452l133 745h-217z" />
<glyph unicode="g" horiz-adv-x="1449" d="M-84 -201q0 72 54.5 116.5t174.5 61.5q-147 59 -147 201q0 92 66 157.5t221 100.5q-166 81 -166 246q0 54 17.5 104t63 100t115 86.5t182 59.5t255.5 23q207 0 346 -43q36 99 116 149.5t195 50.5q74 0 133 -16l-49 -270q-76 26 -158 26q-57 0 -92 -12q103 -80 103 -209 q0 -54 -17.5 -104t-62.5 -100t-114.5 -86t-182 -58.5t-256.5 -22.5q-186 0 -320 35q-20 -17 -20 -47q0 -31 26 -45.5t93 -15.5l387 -4q84 -1 145 -7t121 -24.5t96.5 -49.5t59 -84t22.5 -126q0 -422 -821 -422q-134 0 -236 11t-183.5 36.5t-124 71t-42.5 110.5zM254 -111 q0 -39 25.5 -64.5t76 -37.5t103.5 -16t131 -4q102 0 171 7.5t103.5 22.5t48 32t13.5 40q0 36 -25.5 49.5t-83.5 15.5l-399 5q-60 0 -146 8q-18 -24 -18 -58zM563 692q0 -71 45.5 -102t114.5 -31q52 0 89 15t56 40.5t27 52t8 56.5q0 71 -46 102t-116 31q-51 0 -87.5 -15 t-55.5 -40.5t-27 -52t-8 -56.5z" />
<glyph unicode="h" horiz-adv-x="1521" d="M45 0l262 1485h451l-111 -637q145 209 400 209q56 0 106 -9t102.5 -35.5t89.5 -67.5t61 -110.5t24 -160.5q0 -62 -19 -187l-86 -487h-453l89 485q10 58 10 90q0 162 -162 162q-46 0 -82 -14.5t-59.5 -37t-42 -58.5t-28.5 -72t-19 -84l-82 -471h-451z" />
<glyph unicode="i" horiz-adv-x="704" d="M35 0l186 1024h451l-189 -1024h-448zM238 1151l63 348h463l-64 -348h-462z" />
<glyph unicode="j" horiz-adv-x="727" d="M-238 -389l54 305q47 -14 104 -14q71 0 104 39.5t46 117.5l174 965h450l-182 -1018q-13 -72 -35 -131t-62.5 -115t-96 -94t-140 -61t-190.5 -23q-134 0 -226 29zM260 1151l64 348h462l-63 -348h-463z" />
<glyph unicode="k" horiz-adv-x="1497" d="M45 0l262 1485h451l-142 -797l416 336h531l-504 -414l332 -610h-469l-201 391l-180 -141l-45 -250h-451z" />
<glyph unicode="l" horiz-adv-x="720" d="M45 0l262 1485h451l-262 -1485h-451z" />
<glyph unicode="m" horiz-adv-x="2203" d="M35 0l180 1024h438l-35 -203q122 234 381 234q128 0 226 -58t127 -174q141 232 399 232q51 0 97 -8t96.5 -32.5t87 -63t60.5 -106t24 -155.5q0 -48 -15 -147l-94 -543h-451l89 500q8 41 8 80q0 149 -131 149q-45 0 -78.5 -20t-55 -59.5t-35 -82.5t-24.5 -104l-82 -463 h-450l88 500q8 41 8 80q0 149 -131 149q-44 0 -78 -20t-56 -59t-36 -83t-25 -104l-82 -463h-450z" />
<glyph unicode="n" horiz-adv-x="1511" d="M35 0l180 1024h438l-35 -199q51 73 101.5 119.5t131.5 78.5t185 32q383 0 383 -389q0 -89 -20 -189l-84 -477h-453l80 434q16 78 16 129q0 172 -161 172q-47 0 -84 -16t-60.5 -40.5t-41.5 -63t-28 -75t-18 -85.5l-80 -455h-450z" />
<glyph unicode="o" horiz-adv-x="1439" d="M37 459q0 92 25 176.5t81 161.5t138.5 134t205 90.5t271.5 33.5q64 0 124 -6t125.5 -21.5t121 -39t107 -62.5t87.5 -88.5t57 -119.5t21 -153q0 -92 -25 -176.5t-81 -161.5t-138.5 -134t-205 -90.5t-271.5 -33.5q-74 0 -144 9t-145 29t-136.5 57t-111.5 89t-78 130.5 t-28 175.5zM494 453q0 -106 56 -153.5t142 -47.5q64 0 114.5 31t79.5 80t43.5 102.5t14.5 105.5q0 106 -55 153.5t-141 47.5q-65 0 -116 -31t-80 -80t-43.5 -102.5t-14.5 -105.5z" />
<glyph unicode="p" horiz-adv-x="1513" d="M-35 -399l252 1423h438l-28 -154q121 185 401 185q61 0 119.5 -12.5t119 -45t105 -82.5t73 -131.5t28.5 -185.5q0 -82 -18 -165t-62 -167.5t-109 -149.5t-168 -106t-229 -41q-282 0 -377 162l-94 -530h-451zM559 504q-7 -30 -7 -57q0 -65 39 -119q56 -76 161 -76 q62 0 112 31t79.5 79.5t45 103t15.5 107.5q0 105 -55.5 153t-139.5 48q-91 0 -153.5 -54t-80.5 -136z" />
<glyph unicode="q" horiz-adv-x="1511" d="M41 430q0 90 20.5 177t66.5 168.5t112.5 143.5t166.5 99t220 37q146 0 246.5 -49.5t146.5 -135.5l49 154h408l-252 -1423h-451l96 555q-48 -83 -147 -135t-227 -52q-65 0 -126.5 13.5t-122 47t-105.5 84.5t-73 132.5t-28 183.5zM512 459q0 -207 186 -207q103 0 163.5 65 t72.5 154l12 80q3 24 3 45q0 80 -42 124q-53 54 -147 54q-66 0 -116 -29.5t-77.5 -78t-41 -101t-13.5 -106.5z" />
<glyph unicode="r" horiz-adv-x="1038" d="M35 0l180 1024h410l-58 -315q22 64 54 119.5t80.5 108t119 82.5t154.5 30q62 0 121 -19l-68 -403q-70 24 -166 24q-124 0 -196 -51q-88 -65 -117 -235l-64 -365h-450z" />
<glyph unicode="s" horiz-adv-x="1239" d="M-66 166l236 229q92 -67 218.5 -104t260.5 -37q73 0 104 12t31 41q0 23 -19 33t-71 18l-239 29q-103 15 -174.5 42.5t-111 67.5t-56.5 86.5t-17 106.5q0 81 30.5 145.5t96 115t177 77.5t264.5 27q362 0 612 -148l-221 -237q-85 53 -202 81.5t-243 28.5q-65 0 -89.5 -9.5 t-24.5 -35.5q0 -19 18 -30.5t66 -18.5l254 -35q187 -30 266.5 -100t79.5 -199q0 -62 -16 -114.5t-57.5 -103.5t-106.5 -86.5t-170 -57t-242 -21.5q-219 0 -388 53t-266 144z" />
<glyph unicode="t" horiz-adv-x="1042" d="M39 745l49 279h221l39 229l479 164l-67 -393h319l-49 -279h-319l-43 -247q-5 -27 -4 -50q0 -58 30 -88q44 -42 144 -41q65 0 116 11l-55 -326q-133 -29 -253 -29h-15q-47 1 -86.5 4.5t-81 12t-75 21.5t-65 34t-54 48.5t-39.5 64.5q-16 38 -24 84q-6 38 -7 86q1 9 1 19 q2 59 13 128l45 268h-219z" />
<glyph unicode="u" horiz-adv-x="1497" d="M84 313q0 65 29 234l86 477h450l-78 -434q-18 -102 -18 -144q0 -157 145 -157q50 0 87.5 15t60.5 37t40.5 62t26.5 75t19 91l80 455h452l-182 -1024h-436l35 203q-118 -234 -408 -234q-389 0 -389 344z" />
<glyph unicode="v" horiz-adv-x="1378" d="M82 1024h461l84 -535q9 -54 16 -141h8q30 77 66 141l272 535h488l-627 -1024h-502z" />
<glyph unicode="w" horiz-adv-x="1943" d="M111 1024h426l24 -553q2 -20 1.5 -46t-1.5 -58h4q10 44 37 104l252 553h401l56 -553q4 -27 4 -58q0 -22 -2 -46h4q11 39 35 104l219 553h442l-504 -1024h-442l-61 504q-7 39 -7 74q0 18 2 34l-8 2q-7 -29 -39 -104l-243 -510h-457z" />
<glyph unicode="x" horiz-adv-x="1435" d="M-84 0l526 532l-327 492h497l97 -168q32 -62 39 -104h4q20 41 75 104l150 168h504l-492 -487l348 -537h-495l-121 195q-35 60 -43 102h-4q-19 -35 -78 -102l-184 -195h-496z" />
<glyph unicode="y" horiz-adv-x="1366" d="M-82 -381l55 318q90 -37 213 -37q55 0 107 18t80 59l8 21l-299 1026h479l84 -545q14 -82 14 -125v-10h9q33 89 53 131l264 549h479l-639 -1081q-56 -96 -115 -163.5t-114.5 -107t-123.5 -61.5t-127 -28.5t-140 -6.5q-150 0 -287 43z" />
<glyph unicode="z" horiz-adv-x="1226" d="M-39 0l43 256l655 485h-544l51 283h1079l-43 -250l-641 -487h582l-49 -287h-1133z" />
<glyph unicode="{" horiz-adv-x="870" d="M43 543l47 262q80 2 122.5 20.5t61.5 53t31 102.5l43 246q55 329 443 329h239l-51 -294h-94q-125 0 -148 -136l-24 -145q-23 -129 -86.5 -203t-198.5 -102q125 -32 161 -110.5t11 -209.5l-33 -182q-12 -74 16 -96.5t89 -22.5h98l-53 -295h-139q-46 0 -85 2.5t-79.5 8.5 t-73 16.5t-63 26.5t-53 38t-40 52.5t-26 68t-8.5 86t10 105.5l35 194q18 100 -11 141t-141 44z" />
<glyph unicode="|" horiz-adv-x="520" d="M2 -240l317 1796h250l-317 -1796h-250z" />
<glyph unicode="}" horiz-adv-x="868" d="M-109 -240l52 295h94q124 0 147 135l25 146q23 129 86.5 203t198.5 102q-125 32 -161 110.5t-11 209.5l32 182q12 74 -16 96.5t-88 22.5h-98l53 294h139q46 0 85 -2.5t79.5 -8.5t73 -16t63 -26.5t53 -38.5t40 -52t26 -67.5t8.5 -86t-10 -105.5l-35 -195 q-12 -62 -5.5 -102.5t43.5 -60t114 -21.5l-48 -262q-80 -2 -122.5 -20.5t-61.5 -53t-31 -102.5l-43 -246q-55 -330 -442 -330h-240z" />
<glyph unicode="~" horiz-adv-x="1427" d="M104 463q54 158 164.5 240.5t247.5 82.5q62 0 114 -15t88 -37t69 -43.5t71.5 -36.5t79.5 -15q62 0 108.5 37.5t71.5 103.5l230 -61q-54 -158 -165 -241t-249 -83q-62 0 -114 15t-87.5 37t-68.5 44t-71.5 37t-80.5 15q-61 0 -107.5 -38t-70.5 -104z" />
<glyph unicode="&#xa1;" horiz-adv-x="772" d="M-6 -297l227 959h381l-113 -959h-495zM201 821l65 367h475l-65 -367h-475z" />
<glyph unicode="&#xa2;" horiz-adv-x="1386" d="M37 455q0 89 22.5 171.5t76 161t133 136.5t201.5 93.5t273 37.5l29 162h135l-28 -168q99 -10 181 -36.5t149 -72t109.5 -115.5t55.5 -161l-387 -62q-28 147 -156 184l-96 -540q174 20 215 194l377 -73q-53 -176 -219 -285t-422 -113l-33 -188h-135l35 194q-78 7 -147 25 t-138.5 54.5t-119 88.5t-80.5 132t-31 180zM438 487q0 -194 164 -235l96 543q-70 -6 -122.5 -35t-81.5 -73t-42.5 -93.5t-13.5 -106.5z" />
<glyph unicode="&#xa3;" horiz-adv-x="1552" d="M-45 205q174 42 259 142.5t85 277.5v4h-199l35 190h158v58q0 83 18 160.5t65 156t118.5 136t187.5 94t264 36.5q276 0 438 -103.5t179 -303.5l-437 -78q-13 102 -60 142t-130 40q-57 0 -98.5 -19t-63.5 -45.5t-34.5 -67.5t-15.5 -73t-3 -73v-60h387l-35 -190h-350 q-7 -119 -77 -205.5t-179 -124.5q103 25 205 25q57 0 139 -14.5t125 -14.5q71 0 117.5 42t60.5 116l412 -54q-12 -67 -39.5 -129t-75 -117.5t-109.5 -96.5t-147 -65t-184 -24q-89 0 -245.5 28t-319.5 28q-164 0 -410 -39z" />
<glyph unicode="&#xa4;" horiz-adv-x="1323" d="M43 236l133 118q-51 91 -51 221q0 208 113 349l-105 137l215 176l121 -156q109 33 223 33q177 0 312 -70l161 142l154 -176l-150 -131q48 -88 48 -213q0 -194 -103 -334l115 -148l-215 -176l-125 158q-106 -39 -240 -39q-174 0 -303 66l-151 -134zM430 598 q0 -93 68 -141.5t155 -48.5q67 0 119 21.5t81 57t43.5 75.5t14.5 81q0 64 -35.5 109t-84 63.5t-103.5 18.5q-67 0 -119 -22t-81 -57.5t-43.5 -75.5t-14.5 -81z" />
<glyph unicode="&#xa5;" horiz-adv-x="1587" d="M80 207l26 153h435l20 113h-434l27 154h395l-408 796h488l157 -356q41 -105 54 -193h6q39 75 125 193l289 356h505l-688 -796h406l-27 -154h-444l-21 -113h445l-27 -153h-444l-35 -207h-453l37 207h-434z" />
<glyph unicode="&#xa6;" horiz-adv-x="520" d="M2 -240l139 785h250l-139 -785h-250zM184 793l135 763h250l-135 -763h-250z" />
<glyph unicode="&#xa7;" horiz-adv-x="1210" d="M-135 -29l246 230q69 -69 172 -106.5t223 -37.5q168 0 168 78q0 30 -25 45.5t-94 30.5l-258 53q-295 72 -295 279q0 214 244 305q-107 82 -107 225q0 55 15.5 106.5t56.5 104.5t105 92t170.5 63.5t242.5 24.5q349 0 567 -137l-229 -235q-154 106 -352 106 q-154 0 -154 -76q0 -24 19.5 -38t64.5 -23l262 -49q307 -64 307 -289q0 -205 -200 -313q88 -82 88 -228q0 -56 -13.5 -106.5t-54.5 -106t-107 -95t-180 -65.5t-264 -26q-413 0 -618 188zM397 651q0 -39 27 -60.5t92 -35.5l246 -47q67 33 67 96q0 36 -26 56t-103 40l-213 52 q-90 -33 -90 -101z" />
<glyph unicode="&#xa8;" horiz-adv-x="1228" d="M94 1155l56 315h378l-55 -315h-379zM655 1155l56 315h379l-56 -315h-379z" />
<glyph unicode="&#xa9;" horiz-adv-x="1761" d="M78 672q0 76 12.5 153t42.5 159t75 155.5t115 139.5t157.5 114t207 76t258.5 28q113 0 223 -23t218 -77.5t189.5 -134.5t132 -204t50.5 -276q0 -76 -12.5 -153t-42.5 -159t-75 -155.5t-114.5 -139.5t-157 -114t-207 -76t-259.5 -28q-79 0 -158 12t-159.5 38t-152.5 65.5 t-135.5 97.5t-109 130t-72 167t-26.5 205zM233 676q0 -119 39 -218t103.5 -165.5t150 -112.5t176.5 -67t185 -21q161 0 289.5 46.5t206 118t129 165.5t71 181.5t19.5 174.5q0 119 -38.5 218t-103 165.5t-149.5 112.5t-176 67t-185 21q-116 0 -216 -24t-172 -65t-129.5 -97.5 t-94 -118t-61 -129.5t-34.5 -130t-10 -122zM418 686q0 71 16 137t55 129.5t97 110.5t148.5 75.5t203.5 28.5q184 0 311 -76t148 -229l-314 -63q-21 141 -151 141q-55 0 -96 -22t-63.5 -58.5t-33 -77t-10.5 -84.5q0 -94 45.5 -135t116.5 -41q141 0 172 148l289 -68 q-40 -141 -162.5 -226t-312.5 -85q-64 0 -122.5 9.5t-122 36t-109 69t-75.5 114.5t-30 166z" />
<glyph unicode="&#xaa;" horiz-adv-x="1124" d="M131 829q0 113 99.5 182t314.5 79l231 8l4 32q3 31 -20.5 48.5t-69.5 17.5q-89 0 -100 -68h-383q11 58 41 105t85.5 87t146.5 62.5t212 22.5q251 0 368 -93t85 -276l-39 -221q-22 -132 -19 -180h-368q0 45 10 110q-29 -62 -109.5 -97.5t-183.5 -35.5q-135 0 -220 53.5 t-85 163.5zM524 872q0 -55 94 -55q119 0 134 90l8 47l-107 -4q-67 -3 -98 -24.5t-31 -53.5z" />
<glyph unicode="&#xab;" horiz-adv-x="1476" d="M39 567l479 420h402l-492 -432l317 -418h-387zM649 567l479 420h402l-492 -432l318 -418h-387z" />
<glyph unicode="&#xac;" horiz-adv-x="1525" d="M240 557l43 248h1060l-98 -565h-262l55 317h-798z" />
<glyph unicode="&#xad;" horiz-adv-x="1030" d="M63 399l60 340h864l-59 -340h-865z" />
<glyph unicode="&#xae;" horiz-adv-x="1761" d="M78 672q0 76 12.5 153t42.5 159t75 155.5t115 139.5t157.5 114t207 76t258.5 28q113 0 223 -23t218 -77.5t189.5 -134.5t132 -204t50.5 -276q0 -76 -12.5 -153t-42.5 -159t-75 -155.5t-114.5 -139.5t-157 -114t-207 -76t-259.5 -28q-79 0 -158 12t-159.5 38t-152.5 65.5 t-135.5 97.5t-109 130t-72 167t-26.5 205zM233 676q0 -119 39 -218t103.5 -165.5t150 -112.5t176.5 -67t185 -21q161 0 289.5 46.5t206 118t129 165.5t71 181.5t19.5 174.5q0 119 -38.5 218t-103 165.5t-149.5 112.5t-176 67t-185 21q-116 0 -216 -24t-172 -65t-129.5 -97.5 t-94 -118t-61 -129.5t-34.5 -130t-10 -122zM455 317l147 834h445q71 0 130 -13t109 -41t78.5 -80t28.5 -124q0 -88 -57 -163.5t-185 -102.5l137 -310h-303l-100 279h-97l-49 -279h-284zM819 772h137q68 0 102 32t34 75q0 50 -28 68t-79 18h-131z" />
<glyph unicode="&#xaf;" horiz-adv-x="1228" d="M111 1192l43 240h878l-43 -240h-878z" />
<glyph unicode="&#xb0;" horiz-adv-x="966" d="M117 985q0 67 18.5 134.5t59 130.5t96.5 111.5t138 77.5t177 29q85 0 161 -23t136.5 -67.5t96.5 -116.5t36 -163q0 -85 -31 -168.5t-89 -155t-154.5 -116t-214.5 -44.5q-115 0 -210 39t-157.5 125t-62.5 207zM350 997q0 -86 56 -132t143 -46q64 0 115 25.5t80 65.5 t44 84.5t15 88.5q0 87 -55 133t-144 46q-64 0 -115 -25t-80 -65.5t-44 -85t-15 -89.5z" />
<glyph unicode="&#xb1;" horiz-adv-x="1576" d="M133 0l43 248h1127l-43 -248h-1127zM238 586l47 262h417l56 307h282l-53 -307h424l-47 -262h-424l-51 -291h-285l51 291h-417z" />
<glyph unicode="&#xb4;" horiz-adv-x="1228" d="M94 1155l342 332h414l-414 -332h-342z" />
<glyph unicode="&#xb5;" horiz-adv-x="1519" d="M-35 -399l254 1423h453l-78 -434q-19 -108 -19 -144q0 -157 146 -157q50 0 87.5 15t60.5 37t40 62.5t26 75t19 90.5l80 455h453l-182 -1024h-437l35 203q-118 -234 -407 -234q-38 0 -54 2l-67 -370h-410z" />
<glyph unicode="&#xb6;" horiz-adv-x="1624" d="M207 1026q0 46 6 86.5t24 87.5t47 85t78.5 74.5t115 61t160 39.5t210.5 15h805l-33 -191h-168l-262 -1487h-211l262 1487h-246l-262 -1487h-211l156 871q-60 0 -118 7.5t-124 31.5t-115 61.5t-81.5 104t-32.5 153.5z" />
<glyph unicode="&#xb7;" horiz-adv-x="653" d="M98 489l68 388h448l-67 -388h-449z" />
<glyph unicode="&#xb8;" horiz-adv-x="1228" d="M125 -348l221 65q28 -45 96 -45q42 0 67.5 20t25.5 60q0 55 -74 55q-60 0 -84 -30l-180 37l147 194h191l-101 -114q50 34 137 34q112 0 169 -38.5t57 -110.5q0 -250 -355 -250q-249 0 -317 123z" />
<glyph unicode="&#xba;" horiz-adv-x="1171" d="M152 973q0 68 19 129.5t61.5 117t105 96.5t155.5 65t207 24q48 0 93.5 -4t96 -15t93.5 -28t83 -45.5t68.5 -65t45 -88.5t16.5 -115q0 -67 -19 -129t-62 -117.5t-106 -96.5t-156.5 -65t-207.5 -24q-69 0 -131.5 8.5t-131 32.5t-117.5 62.5t-81 105t-32 152.5zM532 965 q0 -64 34 -92.5t87 -28.5q77 0 118.5 66.5t41.5 142.5q0 64 -33 92.5t-86 28.5q-77 0 -119.5 -66.5t-42.5 -142.5z" />
<glyph unicode="&#xbb;" horiz-adv-x="1476" d="M-35 137l492 432l-318 418h387l320 -430l-479 -420h-402zM575 137l492 432l-317 418h387l319 -430l-479 -420h-402z" />
<glyph unicode="&#xbc;" horiz-adv-x="1959" d="M129 -35l1307 1524h303l-1303 -1524h-307zM152 1112l36 221h43q96 0 147 31.5t81 89.5h213l-144 -811h-249l88 485q-37 -16 -140 -16h-75zM1010 162l28 162l529 487h282l-86 -469h140l-29 -180h-139l-31 -162h-248l29 162h-475zM1296 342h224l65 285z" />
<glyph unicode="&#xbd;" horiz-adv-x="2064" d="M129 -35l1307 1524h303l-1303 -1524h-307zM152 1112l36 221h43q96 0 147 31.5t81 89.5h213l-144 -811h-249l88 485q-37 -16 -140 -16h-75zM1110 0l33 188q82 27 133 44.5t119 43t109.5 46t87 47.5t70.5 53t41.5 57.5t16.5 65.5q0 90 -116 90q-79 0 -113.5 -47.5 t-22.5 -124.5l-258 31q-18 159 98 249.5t314 90.5q71 0 134 -13t119 -40.5t89 -79t33 -121.5q0 -68 -34.5 -128t-94 -105.5t-127.5 -79t-148 -58.5h342l-34 -209h-791z" />
<glyph unicode="&#xbe;" horiz-adv-x="2232" d="M106 897l261 27q16 -62 56.5 -85.5t102.5 -23.5q70 0 98.5 22.5t28.5 53.5q0 21 -10 36.5t-22.5 22.5t-34.5 10.5t-34 4t-33 0.5h-9h-61l28 174h96q39 0 64.5 8t36 21.5t13.5 24t3 24.5q0 22 -10.5 36t-30.5 20.5t-38 8.5t-44 2q-76 0 -108.5 -31.5t-40.5 -91.5l-246 39 q18 128 121 202.5t280 74.5q388 0 388 -224q0 -80 -61 -135.5t-152 -66.5q80 -16 126 -53t46 -113q0 -48 -22 -93.5t-66.5 -84.5t-122.5 -62.5t-179 -23.5q-82 0 -153 14t-132.5 44.5t-98 86t-40.5 131.5zM401 -35l1307 1524h303l-1302 -1524h-308zM1282 162l29 162l528 487 h283l-86 -469h139l-29 -180h-139l-31 -162h-247l28 162h-475zM1569 342h223l66 285z" />
<glyph unicode="&#xbf;" horiz-adv-x="1411" d="M-29 90q0 131 73 217t230 164l144 66q71 36 97 68t34 81l8 43h428l-12 -76q-14 -97 -60.5 -156.5t-150.5 -105.5l-168 -74q-82 -37 -116 -81.5t-34 -104.5q0 -78 55.5 -112.5t139.5 -34.5q127 0 184.5 55t57.5 147q0 44 -7 72l426 -33q11 -42 11 -82q0 -74 -23 -140.5 t-75.5 -126.5t-131.5 -103.5t-198.5 -69t-268.5 -25.5q-78 0 -150.5 8t-147 25.5t-135 49t-109 75.5t-75 109t-26.5 145zM547 821l65 367h473l-65 -367h-473z" />
<glyph unicode="&#xc0;" horiz-adv-x="1777" d="M-74 0l840 1454h580l325 -1454h-461l-49 289h-579l-150 -289h-506zM584 1802h397l297 -254h-344zM739 588h369l-49 289q-25 125 -31 280h-6q-43 -120 -133 -280z" />
<glyph unicode="&#xc1;" horiz-adv-x="1777" d="M-74 0l840 1454h580l325 -1454h-461l-49 289h-579l-150 -289h-506zM739 588h369l-49 289q-25 125 -31 280h-6q-43 -120 -133 -280zM897 1548l297 254h397l-350 -254h-344z" />
<glyph unicode="&#xc2;" horiz-adv-x="1777" d="M-74 0l840 1454h580l325 -1454h-461l-49 289h-579l-150 -289h-506zM582 1548l307 254h457l217 -254h-330l-127 144l-176 -144h-348zM739 588h369l-49 289q-25 125 -31 280h-6q-43 -120 -133 -280z" />
<glyph unicode="&#xc3;" horiz-adv-x="1777" d="M-74 0l840 1454h580l325 -1454h-461l-49 289h-579l-150 -289h-506zM594 1620q101 250 328 250q65 0 120.5 -18.5t87 -41t71 -41t77.5 -18.5q49 0 82.5 26.5t54.5 88.5l191 -90q-99 -250 -328 -250q-65 0 -120.5 18.5t-87 41t-70.5 41t-74 18.5q-53 0 -83.5 -23.5 t-58.5 -93.5zM739 588h369l-49 289q-25 125 -31 280h-6q-43 -120 -133 -280z" />
<glyph unicode="&#xc4;" horiz-adv-x="1777" d="M-74 0l840 1454h580l325 -1454h-461l-49 289h-579l-150 -289h-506zM608 1548l45 254h367l-45 -254h-367zM739 588h369l-49 289q-25 125 -31 280h-6q-43 -120 -133 -280zM1169 1548l45 254h365l-45 -254h-365z" />
<glyph unicode="&#xc5;" horiz-adv-x="1777" d="M-74 0l840 1454h580l325 -1454h-461l-49 289h-579l-150 -289h-506zM739 588h369l-49 289q-25 125 -31 280h-6q-43 -120 -133 -280zM803 1769q0 122 92 198.5t233 76.5q135 0 214 -66t79 -174q0 -122 -91 -199t-232 -77q-136 0 -215.5 66t-79.5 175zM995 1769 q0 -45 28 -68.5t75 -23.5q67 0 100 35t33 92q0 44 -28 67t-75 23q-67 0 -100 -34t-33 -91z" />
<glyph unicode="&#xc6;" horiz-adv-x="2580" d="M-10 0l1194 1454h1454l-55 -326h-758l-41 -235h721l-54 -309h-722l-46 -258h771l-58 -326h-1237l51 289h-512l-219 -289h-489zM922 586h340l104 585z" />
<glyph unicode="&#xc7;" horiz-adv-x="1720" d="M76 645q0 121 29.5 237.5t99 228.5t171.5 196.5t259.5 136t351.5 51.5q153 0 283 -32t235 -95.5t172 -168t86 -241.5l-491 -90q-43 267 -303 267q-91 0 -163 -31.5t-116 -80.5t-72.5 -114t-39.5 -127t-11 -125q0 -97 26.5 -165.5t74 -104t99.5 -50.5t116 -15 q266 0 338 264l462 -109q-204 -518 -817 -518h-8l-57 -65q50 34 137 34q112 0 168.5 -38.5t56.5 -110.5q0 -250 -354 -250q-249 0 -317 123l221 65q28 -45 96 -45q42 0 67 20t25 60q0 55 -74 55q-60 0 -84 -30l-180 37l119 157q-135 20 -243.5 69t-191 129.5t-127 201.5 t-44.5 274z" />
<glyph unicode="&#xc8;" horiz-adv-x="1490" d="M49 0l256 1454h1243l-55 -326h-776l-43 -235h741l-53 -309h-741l-48 -258h791l-57 -326h-1258zM489 1802h398l297 -254h-344z" />
<glyph unicode="&#xc9;" horiz-adv-x="1490" d="M49 0l256 1454h1243l-55 -326h-776l-43 -235h741l-53 -309h-741l-48 -258h791l-57 -326h-1258zM803 1548l297 254h397l-350 -254h-344z" />
<glyph unicode="&#xca;" horiz-adv-x="1490" d="M49 0l256 1454h1243l-55 -326h-776l-43 -235h741l-53 -309h-741l-48 -258h791l-57 -326h-1258zM487 1548l308 254h456l217 -254h-329l-127 144l-176 -144h-349z" />
<glyph unicode="&#xcb;" horiz-adv-x="1490" d="M49 0l256 1454h1243l-55 -326h-776l-43 -235h741l-53 -309h-741l-48 -258h791l-57 -326h-1258zM514 1548l45 254h367l-45 -254h-367zM1075 1548l45 254h365l-45 -254h-365z" />
<glyph unicode="&#xcc;" horiz-adv-x="745" d="M49 0l256 1454h467l-256 -1454h-467zM90 1802h383l248 -254h-344z" />
<glyph unicode="&#xcd;" horiz-adv-x="745" d="M49 0l256 1454h467l-256 -1454h-467zM381 1548l248 254h383l-287 -254h-344z" />
<glyph unicode="&#xce;" horiz-adv-x="745" d="M49 0l256 1454h467l-256 -1454h-467zM203 1548l190 254h418l100 -254h-266l-53 154l-107 -154h-282z" />
<glyph unicode="&#xcf;" horiz-adv-x="745" d="M49 0l256 1454h467l-256 -1454h-467zM205 1548l45 254h315l-45 -254h-315zM594 1548l45 254h313l-45 -254h-313z" />
<glyph unicode="&#xd0;" horiz-adv-x="1761" d="M20 629l43 241h140l102 584h682q134 0 248 -21.5t212.5 -70t167.5 -121t108.5 -180.5t39.5 -244q0 -129 -34 -246.5t-109.5 -222.5t-185 -181.5t-270.5 -121.5t-357 -45h-758l111 629h-140zM571 319h230q103 0 186 29t135 76t87 110.5t49 127.5t14 131q0 91 -26.5 160 t-71.5 107t-98 56.5t-113 18.5h-246l-47 -265h329l-41 -241h-331z" />
<glyph unicode="&#xd1;" horiz-adv-x="1783" d="M49 0l256 1454h488l346 -694q53 -96 82 -195h6q3 19 16.5 96t20.5 115l118 678h428l-256 -1454h-460l-371 709q-64 111 -84 182h-6l-39 -219l-117 -672h-428zM604 1620q101 250 328 250q65 0 120.5 -18.5t87 -41t71 -41t77.5 -18.5q49 0 82.5 26.5t54.5 88.5l191 -90 q-99 -250 -328 -250q-65 0 -120.5 18.5t-87 41t-70.5 41t-74 18.5q-53 0 -83 -23.5t-58 -93.5z" />
<glyph unicode="&#xd2;" horiz-adv-x="1794" d="M74 635q0 89 14.5 175t48 172t83 161t123 140.5t165 112t213 73t262.5 26.5q139 0 260 -25.5t223.5 -79t175 -132t113.5 -190.5t41 -249q0 -89 -15 -175t-48 -172t-83 -161t-123.5 -140.5t-165 -112t-213 -73t-261.5 -26.5q-139 0 -260 25.5t-223.5 79t-175 132 t-113.5 190.5t-41 249zM532 1802h398l297 -254h-344zM563 655q0 -93 26 -162t72.5 -108t102 -57.5t121.5 -18.5q90 0 163 28.5t120.5 75.5t79.5 111t45.5 132.5t13.5 142.5q0 93 -26 162t-72.5 108t-102.5 57.5t-123 18.5q-112 0 -196 -42.5t-131.5 -114.5t-70 -155.5 t-22.5 -177.5z" />
<glyph unicode="&#xd3;" horiz-adv-x="1794" d="M74 635q0 89 14.5 175t48 172t83 161t123 140.5t165 112t213 73t262.5 26.5q139 0 260 -25.5t223.5 -79t175 -132t113.5 -190.5t41 -249q0 -89 -15 -175t-48 -172t-83 -161t-123.5 -140.5t-165 -112t-213 -73t-261.5 -26.5q-139 0 -260 25.5t-223.5 79t-175 132 t-113.5 190.5t-41 249zM563 655q0 -93 26 -162t72.5 -108t102 -57.5t121.5 -18.5q90 0 163 28.5t120.5 75.5t79.5 111t45.5 132.5t13.5 142.5q0 93 -26 162t-72.5 108t-102.5 57.5t-123 18.5q-112 0 -196 -42.5t-131.5 -114.5t-70 -155.5t-22.5 -177.5zM846 1548l297 254 h397l-350 -254h-344z" />
<glyph unicode="&#xd4;" horiz-adv-x="1794" d="M74 635q0 89 14.5 175t48 172t83 161t123 140.5t165 112t213 73t262.5 26.5q139 0 260 -25.5t223.5 -79t175 -132t113.5 -190.5t41 -249q0 -89 -15 -175t-48 -172t-83 -161t-123.5 -140.5t-165 -112t-213 -73t-261.5 -26.5q-139 0 -260 25.5t-223.5 79t-175 132 t-113.5 190.5t-41 249zM530 1548l308 254h456l217 -254h-329l-127 144l-176 -144h-349zM563 655q0 -93 26 -162t72.5 -108t102 -57.5t121.5 -18.5q90 0 163 28.5t120.5 75.5t79.5 111t45.5 132.5t13.5 142.5q0 93 -26 162t-72.5 108t-102.5 57.5t-123 18.5 q-112 0 -196 -42.5t-131.5 -114.5t-70 -155.5t-22.5 -177.5z" />
<glyph unicode="&#xd5;" horiz-adv-x="1794" d="M74 635q0 89 14.5 175t48 172t83 161t123 140.5t165 112t213 73t262.5 26.5q139 0 260 -25.5t223.5 -79t175 -132t113.5 -190.5t41 -249q0 -89 -15 -175t-48 -172t-83 -161t-123.5 -140.5t-165 -112t-213 -73t-261.5 -26.5q-139 0 -260 25.5t-223.5 79t-175 132 t-113.5 190.5t-41 249zM543 1620q101 250 327 250q65 0 120.5 -18.5t87.5 -41t71.5 -41t77.5 -18.5q49 0 82.5 26.5t54.5 88.5l190 -90q-99 -250 -327 -250q-65 0 -121 18.5t-87.5 41t-70.5 41t-74 18.5q-53 0 -83 -23.5t-58 -93.5zM563 655q0 -93 26 -162t72.5 -108 t102 -57.5t121.5 -18.5q90 0 163 28.5t120.5 75.5t79.5 111t45.5 132.5t13.5 142.5q0 93 -26 162t-72.5 108t-102.5 57.5t-123 18.5q-112 0 -196 -42.5t-131.5 -114.5t-70 -155.5t-22.5 -177.5z" />
<glyph unicode="&#xd6;" horiz-adv-x="1794" d="M74 635q0 89 14.5 175t48 172t83 161t123 140.5t165 112t213 73t262.5 26.5q139 0 260 -25.5t223.5 -79t175 -132t113.5 -190.5t41 -249q0 -89 -15 -175t-48 -172t-83 -161t-123.5 -140.5t-165 -112t-213 -73t-261.5 -26.5q-139 0 -260 25.5t-223.5 79t-175 132 t-113.5 190.5t-41 249zM557 1548l45 254h367l-45 -254h-367zM563 655q0 -93 26 -162t72.5 -108t102 -57.5t121.5 -18.5q90 0 163 28.5t120.5 75.5t79.5 111t45.5 132.5t13.5 142.5q0 93 -26 162t-72.5 108t-102.5 57.5t-123 18.5q-112 0 -196 -42.5t-131.5 -114.5 t-70 -155.5t-22.5 -177.5zM1118 1548l45 254h365l-45 -254h-365z" />
<glyph unicode="&#xd7;" horiz-adv-x="1550" d="M160 313l444 357l-315 352l221 186l321 -356l445 356l166 -186l-445 -356l316 -351l-223 -190l-320 358l-446 -356z" />
<glyph unicode="&#xd8;" horiz-adv-x="1794" d="M72 35l166 151q-164 175 -164 449q0 89 14.5 175t48 172t83 161t123 140.5t165 112t213 73t262.5 26.5q329 0 539 -135l168 153l106 -94l-164 -151q164 -175 164 -449q0 -89 -15 -175t-48 -172t-83 -161t-123.5 -140.5t-165 -112t-213 -73t-261.5 -26.5q-329 0 -539 135 l-168 -153zM563 655q0 -80 23 -151l620 567q-82 74 -223 74q-112 0 -196 -42.5t-131.5 -114.5t-70 -155.5t-22.5 -177.5zM664 383q82 -74 221 -74q90 0 163 28.5t120.5 75.5t79.5 111t45.5 132.5t13.5 142.5q0 84 -23 151z" />
<glyph unicode="&#xd9;" horiz-adv-x="1691" d="M117 490q0 86 16 190l137 774h467l-143 -811q-16 -91 -0.5 -156t55.5 -98.5t86 -48t101 -14.5q70 0 125 23t90 64t56 87.5t32 103.5l147 850h469l-160 -903q-17 -97 -50 -179.5t-94 -160.5t-145 -132t-209 -87t-280 -33q-79 0 -151 8.5t-143 26.5t-129 47t-110 71 t-86.5 97t-57.5 125t-23 156zM543 1802h397l297 -254h-344z" />
<glyph unicode="&#xda;" horiz-adv-x="1691" d="M117 490q0 86 16 190l137 774h467l-143 -811q-16 -91 -0.5 -156t55.5 -98.5t86 -48t101 -14.5q70 0 125 23t90 64t56 87.5t32 103.5l147 850h469l-160 -903q-17 -97 -50 -179.5t-94 -160.5t-145 -132t-209 -87t-280 -33q-79 0 -151 8.5t-143 26.5t-129 47t-110 71 t-86.5 97t-57.5 125t-23 156zM856 1548l297 254h397l-350 -254h-344z" />
<glyph unicode="&#xdb;" horiz-adv-x="1691" d="M117 490q0 86 16 190l137 774h467l-143 -811q-16 -91 -0.5 -156t55.5 -98.5t86 -48t101 -14.5q70 0 125 23t90 64t56 87.5t32 103.5l147 850h469l-160 -903q-17 -97 -50 -179.5t-94 -160.5t-145 -132t-209 -87t-280 -33q-79 0 -151 8.5t-143 26.5t-129 47t-110 71 t-86.5 97t-57.5 125t-23 156zM541 1548l307 254h457l217 -254h-330l-127 144l-176 -144h-348z" />
<glyph unicode="&#xdc;" horiz-adv-x="1691" d="M117 490q0 86 16 190l137 774h467l-143 -811q-16 -91 -0.5 -156t55.5 -98.5t86 -48t101 -14.5q70 0 125 23t90 64t56 87.5t32 103.5l147 850h469l-160 -903q-17 -97 -50 -179.5t-94 -160.5t-145 -132t-209 -87t-280 -33q-79 0 -151 8.5t-143 26.5t-129 47t-110 71 t-86.5 97t-57.5 125t-23 156zM567 1548l45 254h367l-45 -254h-367zM1128 1548l46 254h364l-45 -254h-365z" />
<glyph unicode="&#xdd;" horiz-adv-x="1581" d="M147 1454h484l174 -510q22 -59 22 -104h4q18 47 62 104l360 510h512l-745 -965l-84 -489h-469l84 489zM803 1548l297 254h397l-350 -254h-344z" />
<glyph unicode="&#xde;" horiz-adv-x="1515" d="M49 0l256 1454h467l-37 -205h221q61 0 116 -5t115 -18t110 -34t95.5 -55.5t77 -79.5t50 -109t18.5 -141q0 -83 -20.5 -158.5t-70 -148t-124 -125t-192 -85t-265.5 -32.5h-305l-45 -258h-467zM616 565h160q66 0 115 13t77 33t45.5 49t23 57t5.5 61q0 158 -200 158h-162z " />
<glyph unicode="&#xdf;" horiz-adv-x="1587" d="M37 0l170 954q24 131 71.5 228.5t111 159.5t150.5 100t180 52.5t210 14.5q300 0 459 -93t159 -283q0 -49 -14 -95.5t-46 -90.5t-80 -78.5t-121 -57.5t-163 -29q173 -11 280 -99t107 -237q0 -119 -46.5 -210.5t-132 -148.5t-199 -85.5t-252.5 -28.5q-160 0 -265 31l52 291 q73 -25 157 -25q49 0 88.5 10t72.5 32.5t51 62.5t18 96q0 81 -63 123.5t-175 42.5h-86l49 272h76q107 0 165 51t58 138q0 60 -47 93.5t-141 33.5q-186 0 -225 -219l-177 -1006h-452z" />
<glyph unicode="&#xe0;" d="M12 266q0 157 123 244q129 93 418 108l338 17l6 39q9 61 -29.5 92t-117.5 31q-158 0 -177 -123h-458q15 84 57.5 151t116.5 119.5t191.5 81.5t271.5 29q324 0 473.5 -123.5t105.5 -370.5l-51 -293q-30 -184 -27 -268h-440q0 83 14 160q-45 -90 -154.5 -140.5 t-252.5 -50.5q-87 0 -159.5 17.5t-129 52.5t-88 93t-31.5 134zM233 1487h414l342 -332h-342zM481 317q0 -96 148 -96q91 0 153.5 43t75.5 125l10 62l-188 -9q-199 -11 -199 -125z" />
<glyph unicode="&#xe1;" d="M12 266q0 157 123 244q129 93 418 108l338 17l6 39q9 61 -29.5 92t-117.5 31q-158 0 -177 -123h-458q15 84 57.5 151t116.5 119.5t191.5 81.5t271.5 29q324 0 473.5 -123.5t105.5 -370.5l-51 -293q-30 -184 -27 -268h-440q0 83 14 160q-45 -90 -154.5 -140.5 t-252.5 -50.5q-87 0 -159.5 17.5t-129 52.5t-88 93t-31.5 134zM481 317q0 -96 148 -96q91 0 153.5 43t75.5 125l10 62l-188 -9q-199 -11 -199 -125zM623 1155l342 332h413l-413 -332h-342z" />
<glyph unicode="&#xe2;" d="M12 266q0 157 123 244q129 93 418 108l338 17l6 39q9 61 -29.5 92t-117.5 31q-158 0 -177 -123h-458q15 84 57.5 151t116.5 119.5t191.5 81.5t271.5 29q324 0 473.5 -123.5t105.5 -370.5l-51 -293q-30 -184 -27 -268h-440q0 83 14 160q-45 -90 -154.5 -140.5 t-252.5 -50.5q-87 0 -159.5 17.5t-129 52.5t-88 93t-31.5 134zM319 1155l314 332h452l197 -332h-311l-121 211l-195 -211h-336zM481 317q0 -96 148 -96q91 0 153.5 43t75.5 125l10 62l-188 -9q-199 -11 -199 -125z" />
<glyph unicode="&#xe3;" d="M12 266q0 157 123 244q129 93 418 108l338 17l6 39q9 61 -29.5 92t-117.5 31q-158 0 -177 -123h-458q15 84 57.5 151t116.5 119.5t191.5 81.5t271.5 29q324 0 473.5 -123.5t105.5 -370.5l-51 -293q-30 -184 -27 -268h-440q0 83 14 160q-45 -90 -154.5 -140.5 t-252.5 -50.5q-87 0 -159.5 17.5t-129 52.5t-88 93t-31.5 134zM315 1260q103 268 326 268q61 0 117.5 -19.5t92 -43t77 -43t76.5 -19.5q49 0 82 26t63 93l184 -88q-46 -129 -125.5 -199t-181.5 -70q-71 0 -130.5 20t-93 43.5t-76 43.5t-83.5 20q-92 0 -141 -121zM481 317 q0 -96 148 -96q91 0 153.5 43t75.5 125l10 62l-188 -9q-199 -11 -199 -125z" />
<glyph unicode="&#xe4;" d="M12 266q0 157 123 244q129 93 418 108l338 17l6 39q9 61 -29.5 92t-117.5 31q-158 0 -177 -123h-458q15 84 57.5 151t116.5 119.5t191.5 81.5t271.5 29q324 0 473.5 -123.5t105.5 -370.5l-51 -293q-30 -184 -27 -268h-440q0 83 14 160q-45 -90 -154.5 -140.5 t-252.5 -50.5q-87 0 -159.5 17.5t-129 52.5t-88 93t-31.5 134zM332 1155l55 315h379l-55 -315h-379zM481 317q0 -96 148 -96q91 0 153.5 43t75.5 125l10 62l-188 -9q-199 -11 -199 -125zM893 1155l55 315h379l-55 -315h-379z" />
<glyph unicode="&#xe5;" d="M12 266q0 157 123 244q129 93 418 108l338 17l6 39q9 61 -29.5 92t-117.5 31q-158 0 -177 -123h-458q15 84 57.5 151t116.5 119.5t191.5 81.5t271.5 29q324 0 473.5 -123.5t105.5 -370.5l-51 -293q-30 -184 -27 -268h-440q0 83 14 160q-45 -90 -154.5 -140.5 t-252.5 -50.5q-87 0 -159.5 17.5t-129 52.5t-88 93t-31.5 134zM469 1368q0 124 97.5 202.5t258.5 78.5q149 0 235.5 -68t86.5 -178q0 -124 -97.5 -201.5t-258.5 -77.5q-150 0 -236 67t-86 177zM481 317q0 -96 148 -96q91 0 153.5 43t75.5 125l10 62l-188 -9 q-199 -11 -199 -125zM672 1368q0 -41 30.5 -66.5t88.5 -25.5q75 0 114 33t39 94q0 42 -31 67t-88 25q-153 0 -153 -127z" />
<glyph unicode="&#xe6;" horiz-adv-x="2140" d="M12 266q0 157 123 244q131 88 418 100l324 17l4 47q9 61 -27.5 92t-112.5 31q-74 0 -116 -28.5t-52 -94.5h-458q11 62 38.5 116.5t78 103.5t120 84.5t170.5 56t223 20.5q267 0 388 -103q160 103 380 103q89 0 169 -13t158.5 -45.5t135.5 -82.5t92 -130t35 -182 q0 -100 -26 -182h-803q4 -44 25 -77t53.5 -51.5t67 -27t69.5 -8.5q150 0 227 119l303 -148q-176 -258 -561 -258q-147 0 -280 43.5t-215 143.5q-98 -99 -223.5 -143t-307.5 -44q-124 0 -216 30t-148 98t-56 169zM481 317q0 -96 140 -96q88 0 148 43t75 125l10 62l-174 -9 q-199 -11 -199 -125zM1296 639h385q5 15 5 47q0 66 -49.5 98.5t-131.5 32.5q-175 0 -209 -178z" />
<glyph unicode="&#xe7;" horiz-adv-x="1398" d="M37 459q0 72 16 141t49 137t90.5 124.5t134 100.5t185.5 68.5t240 24.5q121 0 226 -21t195 -64.5t148.5 -118.5t73.5 -175l-457 -78q-35 154 -193 154q-53 0 -95.5 -17t-69 -44.5t-44.5 -64.5t-25 -74t-7 -77q0 -107 53 -153t139 -46q94 0 146 46.5t67 117.5l430 -86 q-52 -165 -210 -270t-406 -115l-68 -75q50 34 138 34q112 0 168.5 -38.5t56.5 -110.5q0 -250 -354 -250q-250 0 -318 123l221 65q28 -45 97 -45q42 0 67 20t25 60q0 55 -74 55q-60 0 -84 -30l-180 37l123 163q-78 9 -146 27.5t-135.5 56t-115.5 89.5t-77.5 131.5 t-29.5 177.5z" />
<glyph unicode="&#xe8;" horiz-adv-x="1382" d="M37 459q0 86 22 167.5t74.5 160.5t130.5 137.5t200 94.5t273 36q91 0 173.5 -13t163 -45.5t139 -82.5t94.5 -130t36 -182q0 -96 -24 -182h-850q11 -85 81 -124.5t163 -39.5q162 0 243 119l306 -148q-180 -258 -578 -258q-74 0 -144.5 9t-145.5 29.5t-137.5 58 t-112.5 89.5t-78.5 130t-28.5 174zM242 1487h413l342 -332h-342zM477 639h445q6 9 6 35q0 64 -57 103.5t-152 39.5q-104 0 -165 -48.5t-77 -129.5z" />
<glyph unicode="&#xe9;" horiz-adv-x="1382" d="M37 459q0 86 22 167.5t74.5 160.5t130.5 137.5t200 94.5t273 36q91 0 173.5 -13t163 -45.5t139 -82.5t94.5 -130t36 -182q0 -96 -24 -182h-850q11 -85 81 -124.5t163 -39.5q162 0 243 119l306 -148q-180 -258 -578 -258q-74 0 -144.5 9t-145.5 29.5t-137.5 58 t-112.5 89.5t-78.5 130t-28.5 174zM477 639h445q6 9 6 35q0 64 -57 103.5t-152 39.5q-104 0 -165 -48.5t-77 -129.5zM631 1155l342 332h413l-413 -332h-342z" />
<glyph unicode="&#xea;" horiz-adv-x="1382" d="M37 459q0 86 22 167.5t74.5 160.5t130.5 137.5t200 94.5t273 36q91 0 173.5 -13t163 -45.5t139 -82.5t94.5 -130t36 -182q0 -96 -24 -182h-850q11 -85 81 -124.5t163 -39.5q162 0 243 119l306 -148q-180 -258 -578 -258q-74 0 -144.5 9t-145.5 29.5t-137.5 58 t-112.5 89.5t-78.5 130t-28.5 174zM328 1155l313 332h453l196 -332h-311l-121 211l-194 -211h-336zM477 639h445q6 9 6 35q0 64 -57 103.5t-152 39.5q-104 0 -165 -48.5t-77 -129.5z" />
<glyph unicode="&#xeb;" horiz-adv-x="1382" d="M37 459q0 86 22 167.5t74.5 160.5t130.5 137.5t200 94.5t273 36q91 0 173.5 -13t163 -45.5t139 -82.5t94.5 -130t36 -182q0 -96 -24 -182h-850q11 -85 81 -124.5t163 -39.5q162 0 243 119l306 -148q-180 -258 -578 -258q-74 0 -144.5 9t-145.5 29.5t-137.5 58 t-112.5 89.5t-78.5 130t-28.5 174zM340 1155l55 315h379l-55 -315h-379zM477 639h445q6 9 6 35q0 64 -57 103.5t-152 39.5q-104 0 -165 -48.5t-77 -129.5zM901 1155l55 315h379l-55 -315h-379z" />
<glyph unicode="&#xec;" horiz-adv-x="704" d="M-33 1487h389l269 -332h-342zM35 0l186 1024h451l-189 -1024h-448z" />
<glyph unicode="&#xed;" horiz-adv-x="704" d="M35 0l186 1024h451l-189 -1024h-448zM299 1155l268 332h389l-315 -332h-342z" />
<glyph unicode="&#xee;" horiz-adv-x="704" d="M35 0l186 1024h451l-189 -1024h-448zM111 1155l213 332h407l98 -332h-262l-49 219l-125 -219h-282z" />
<glyph unicode="&#xef;" horiz-adv-x="704" d="M35 0l186 1024h451l-189 -1024h-448zM100 1155l56 315h323l-55 -315h-324zM516 1155l55 315h322l-53 -315h-324z" />
<glyph unicode="&#xf0;" horiz-adv-x="1478" d="M43 442q0 55 8.5 110t28.5 114t50 111.5t77 99.5t106 81t139.5 54t174.5 20q283 0 383 -184h4q-6 170 -137 330l-207 -64l-19 94l154 47q-67 64 -123 107l448 154q74 -61 127 -123l170 51l19 -92l-127 -39q141 -207 141 -492q0 -73 -8 -145t-32 -158.5t-61.5 -162 t-102 -148t-148 -124t-205.5 -83t-268 -31.5q-91 0 -169.5 11.5t-158.5 43.5t-136.5 83t-92 137t-35.5 198zM506 457q0 -56 16.5 -95.5t45.5 -61t63 -31t76 -9.5q71 0 125 31t82 79.5t41.5 98.5t13.5 98q0 100 -57 143.5t-146 43.5q-60 0 -107.5 -20.5t-75.5 -52t-46 -73 t-24.5 -78.5t-6.5 -73z" />
<glyph unicode="&#xf1;" horiz-adv-x="1511" d="M35 0l180 1024h438l-35 -199q51 73 101.5 119.5t131.5 78.5t185 32q383 0 383 -389q0 -89 -20 -189l-84 -477h-453l80 434q16 78 16 129q0 172 -161 172q-47 0 -84 -16t-60.5 -40.5t-41.5 -63t-28 -75t-18 -85.5l-80 -455h-450zM442 1260q103 268 326 268 q61 0 117.5 -19.5t91.5 -43t76.5 -43t76.5 -19.5q49 0 82.5 26t63.5 93l184 -88q-46 -129 -125.5 -199t-181.5 -70q-71 0 -130.5 20t-93 43.5t-76 43.5t-83.5 20q-92 0 -141 -121z" />
<glyph unicode="&#xf2;" horiz-adv-x="1439" d="M37 459q0 92 25 176.5t81 161.5t138.5 134t205 90.5t271.5 33.5q64 0 124 -6t125.5 -21.5t121 -39t107 -62.5t87.5 -88.5t57 -119.5t21 -153q0 -92 -25 -176.5t-81 -161.5t-138.5 -134t-205 -90.5t-271.5 -33.5q-74 0 -144 9t-145 29t-136.5 57t-111.5 89t-78 130.5 t-28 175.5zM264 1487h414l342 -332h-342zM494 453q0 -106 56 -153.5t142 -47.5q64 0 114.5 31t79.5 80t43.5 102.5t14.5 105.5q0 106 -55 153.5t-141 47.5q-65 0 -116 -31t-80 -80t-43.5 -102.5t-14.5 -105.5z" />
<glyph unicode="&#xf3;" horiz-adv-x="1439" d="M37 459q0 92 25 176.5t81 161.5t138.5 134t205 90.5t271.5 33.5q64 0 124 -6t125.5 -21.5t121 -39t107 -62.5t87.5 -88.5t57 -119.5t21 -153q0 -92 -25 -176.5t-81 -161.5t-138.5 -134t-205 -90.5t-271.5 -33.5q-74 0 -144 9t-145 29t-136.5 57t-111.5 89t-78 130.5 t-28 175.5zM494 453q0 -106 56 -153.5t142 -47.5q64 0 114.5 31t79.5 80t43.5 102.5t14.5 105.5q0 106 -55 153.5t-141 47.5q-65 0 -116 -31t-80 -80t-43.5 -102.5t-14.5 -105.5zM653 1155l342 332h414l-414 -332h-342z" />
<glyph unicode="&#xf4;" horiz-adv-x="1439" d="M37 459q0 92 25 176.5t81 161.5t138.5 134t205 90.5t271.5 33.5q64 0 124 -6t125.5 -21.5t121 -39t107 -62.5t87.5 -88.5t57 -119.5t21 -153q0 -92 -25 -176.5t-81 -161.5t-138.5 -134t-205 -90.5t-271.5 -33.5q-74 0 -144 9t-145 29t-136.5 57t-111.5 89t-78 130.5 t-28 175.5zM350 1155l314 332h452l197 -332h-312l-120 211l-195 -211h-336zM494 453q0 -106 56 -153.5t142 -47.5q64 0 114.5 31t79.5 80t43.5 102.5t14.5 105.5q0 106 -55 153.5t-141 47.5q-65 0 -116 -31t-80 -80t-43.5 -102.5t-14.5 -105.5z" />
<glyph unicode="&#xf5;" horiz-adv-x="1439" d="M37 459q0 92 25 176.5t81 161.5t138.5 134t205 90.5t271.5 33.5q64 0 124 -6t125.5 -21.5t121 -39t107 -62.5t87.5 -88.5t57 -119.5t21 -153q0 -92 -25 -176.5t-81 -161.5t-138.5 -134t-205 -90.5t-271.5 -33.5q-74 0 -144 9t-145 29t-136.5 57t-111.5 89t-78 130.5 t-28 175.5zM346 1260q103 268 326 268q61 0 117.5 -19.5t91.5 -43t76.5 -43t76.5 -19.5q49 0 82.5 26t63.5 93l184 -88q-46 -129 -125.5 -199t-181.5 -70q-71 0 -130.5 20t-93 43.5t-76 43.5t-83.5 20q-93 0 -142 -121zM494 453q0 -106 56 -153.5t142 -47.5q64 0 114.5 31 t79.5 80t43.5 102.5t14.5 105.5q0 106 -55 153.5t-141 47.5q-65 0 -116 -31t-80 -80t-43.5 -102.5t-14.5 -105.5z" />
<glyph unicode="&#xf6;" horiz-adv-x="1439" d="M37 459q0 92 25 176.5t81 161.5t138.5 134t205 90.5t271.5 33.5q64 0 124 -6t125.5 -21.5t121 -39t107 -62.5t87.5 -88.5t57 -119.5t21 -153q0 -92 -25 -176.5t-81 -161.5t-138.5 -134t-205 -90.5t-271.5 -33.5q-74 0 -144 9t-145 29t-136.5 57t-111.5 89t-78 130.5 t-28 175.5zM362 1155l56 315h379l-56 -315h-379zM494 453q0 -106 56 -153.5t142 -47.5q64 0 114.5 31t79.5 80t43.5 102.5t14.5 105.5q0 106 -55 153.5t-141 47.5q-65 0 -116 -31t-80 -80t-43.5 -102.5t-14.5 -105.5zM924 1155l55 315h379l-55 -315h-379z" />
<glyph unicode="&#xf7;" horiz-adv-x="1284" d="M86 541l47 264h1120l-47 -264h-1120zM430 287q0 76 48.5 124t121.5 48t122.5 -47.5t49.5 -124.5q0 -73 -49.5 -120.5t-122.5 -47.5t-121.5 47t-48.5 121zM555 1071q0 76 48 123t122 47q73 0 121.5 -46.5t48.5 -123.5q0 -73 -48.5 -120.5t-121.5 -47.5q-74 0 -122 47 t-48 121z" />
<glyph unicode="&#xf8;" horiz-adv-x="1439" d="M27 16l139 113q-129 122 -129 330q0 92 25 176.5t81 161.5t138.5 134t205 90.5t271.5 33.5q267 0 432 -99l149 121l70 -76l-135 -108q127 -120 127 -328q0 -92 -25 -176.5t-81 -161.5t-138.5 -134t-205 -90.5t-271.5 -33.5q-262 0 -428 97l-150 -121zM494 453 q0 -24 4 -56l397 322q-50 53 -147 53q-65 0 -116 -31t-80 -80t-43.5 -102.5t-14.5 -105.5zM547 303q51 -51 145 -51q64 0 114.5 31t79.5 80t43.5 102.5t14.5 105.5q0 20 -4 52z" />
<glyph unicode="&#xf9;" horiz-adv-x="1497" d="M84 313q0 65 29 234l86 477h450l-78 -434q-18 -102 -18 -144q0 -157 145 -157q50 0 87.5 15t60.5 37t40.5 62t26.5 75t19 91l80 455h452l-182 -1024h-436l35 203q-118 -234 -408 -234q-389 0 -389 344zM283 1487h413l342 -332h-342z" />
<glyph unicode="&#xfa;" horiz-adv-x="1497" d="M84 313q0 65 29 234l86 477h450l-78 -434q-18 -102 -18 -144q0 -157 145 -157q50 0 87.5 15t60.5 37t40.5 62t26.5 75t19 91l80 455h452l-182 -1024h-436l35 203q-118 -234 -408 -234q-389 0 -389 344zM672 1155l342 332h413l-413 -332h-342z" />
<glyph unicode="&#xfb;" horiz-adv-x="1497" d="M84 313q0 65 29 234l86 477h450l-78 -434q-18 -102 -18 -144q0 -157 145 -157q50 0 87.5 15t60.5 37t40.5 62t26.5 75t19 91l80 455h452l-182 -1024h-436l35 203q-118 -234 -408 -234q-389 0 -389 344zM369 1155l313 332h453l196 -332h-311l-121 211l-194 -211h-336z" />
<glyph unicode="&#xfc;" horiz-adv-x="1497" d="M84 313q0 65 29 234l86 477h450l-78 -434q-18 -102 -18 -144q0 -157 145 -157q50 0 87.5 15t60.5 37t40.5 62t26.5 75t19 91l80 455h452l-182 -1024h-436l35 203q-118 -234 -408 -234q-389 0 -389 344zM381 1155l55 315h379l-55 -315h-379zM942 1155l55 315h379l-55 -315 h-379z" />
<glyph unicode="&#xfd;" horiz-adv-x="1366" d="M-82 -381l55 318q90 -37 213 -37q55 0 107 18t80 59l8 21l-299 1026h479l84 -545q16 -92 14 -135h9q33 89 53 131l264 549h479l-639 -1081q-56 -96 -115 -163.5t-114.5 -107t-123.5 -61.5t-127 -28.5t-140 -6.5q-150 0 -287 43zM631 1155l342 332h413l-413 -332h-342z " />
<glyph unicode="&#xfe;" horiz-adv-x="1519" d="M-25 -399l70 399l262 1485h453l-105 -588q139 158 373 158q65 0 125.5 -13t121.5 -45.5t105.5 -82t72.5 -129.5t28 -181q0 -84 -18 -168t-61.5 -169.5t-107.5 -150.5t-166 -106t-227 -41q-131 0 -229.5 41.5t-151.5 118.5l-94 -528h-451zM565 504q-22 -99 34 -175.5 t161 -76.5q62 0 112 31t79.5 79.5t45 103t15.5 107.5q0 105 -55.5 153t-139.5 48q-92 0 -154.5 -54t-80.5 -136z" />
<glyph unicode="&#xff;" horiz-adv-x="1366" d="M-82 -381l55 318q90 -37 213 -37q55 0 107 18t80 59l8 21l-299 1026h479l84 -545q16 -92 14 -135h9q33 89 53 131l264 549h479l-639 -1081q-56 -96 -115 -163.5t-114.5 -107t-123.5 -61.5t-127 -28.5t-140 -6.5q-150 0 -287 43zM340 1155l55 315h379l-55 -315h-379z M901 1155l55 315h379l-55 -315h-379z" />
<glyph unicode="&#x152;" horiz-adv-x="2351" d="M72 631q0 74 12.5 148.5t44 157t79 155.5t124 140.5t172 116t229.5 77t291 28.5h1384l-55 -326h-776l-43 -235h741l-53 -309h-741l-47 -258h790l-57 -326h-1295q-88 0 -167.5 8t-161.5 28.5t-150 52t-128.5 81t-102.5 114t-66 153t-24 194.5zM559 645q0 -326 369 -326h37 l145 816h-74q-89 0 -163.5 -22t-125.5 -60.5t-88.5 -86.5t-58.5 -104.5t-31 -110t-10 -106.5z" />
<glyph unicode="&#x153;" horiz-adv-x="2281" d="M37 459q0 91 25 176t81.5 162t138 134t202.5 90.5t268 33.5q281 0 430 -135q171 135 456 135q91 0 173.5 -13t163.5 -45.5t139.5 -82.5t94.5 -130t36 -182q0 -96 -27 -182h-850q6 -44 30 -77t59.5 -51.5t74.5 -27t82 -8.5q163 0 244 119l303 -148q-180 -258 -576 -258 q-303 0 -465 137q-170 -137 -446 -137q-72 0 -140.5 9t-143 29t-136 57t-111.5 89t-78 130.5t-28 175.5zM494 453q0 -106 55 -153.5t141 -47.5q65 0 116 31t80 80t43.5 102.5t14.5 105.5q0 106 -55 153.5t-141 47.5q-65 0 -116 -31t-80 -80t-43.5 -102.5t-14.5 -105.5z M1380 639h443q4 12 4 35q0 64 -57 103.5t-154 39.5q-102 0 -162 -49t-74 -129z" />
<glyph unicode="&#x178;" horiz-adv-x="1581" d="M147 1454h484l174 -510q22 -59 22 -104h4q18 47 62 104l360 510h512l-745 -965l-84 -489h-469l84 489zM514 1548l45 254h367l-45 -254h-367zM1075 1548l45 254h365l-45 -254h-365z" />
<glyph unicode="&#x2c6;" horiz-adv-x="1228" d="M82 1155l313 332h453l196 -332h-311l-121 211l-194 -211h-336z" />
<glyph unicode="&#x2dc;" horiz-adv-x="1228" d="M111 1260q51 133 130 200.5t195 67.5q61 0 117.5 -19.5t92 -43t77 -43t76.5 -19.5q49 0 82 26t63 93l184 -88q-46 -129 -125.5 -199t-181.5 -70q-71 0 -130.5 20t-93 43.5t-76 43.5t-83.5 20q-92 0 -141 -121z" />
<glyph unicode="&#x2000;" horiz-adv-x="1022" />
<glyph unicode="&#x2001;" horiz-adv-x="2044" />
<glyph unicode="&#x2002;" horiz-adv-x="1022" />
<glyph unicode="&#x2003;" horiz-adv-x="2044" />
<glyph unicode="&#x2004;" horiz-adv-x="681" />
<glyph unicode="&#x2005;" horiz-adv-x="511" />
<glyph unicode="&#x2006;" horiz-adv-x="340" />
<glyph unicode="&#x2007;" horiz-adv-x="340" />
<glyph unicode="&#x2008;" horiz-adv-x="255" />
<glyph unicode="&#x2009;" horiz-adv-x="408" />
<glyph unicode="&#x200a;" horiz-adv-x="113" />
<glyph unicode="&#x2010;" horiz-adv-x="1030" d="M63 399l60 340h864l-59 -340h-865z" />
<glyph unicode="&#x2011;" horiz-adv-x="1030" d="M63 399l60 340h864l-59 -340h-865z" />
<glyph unicode="&#x2012;" horiz-adv-x="1030" d="M63 399l60 340h864l-59 -340h-865z" />
<glyph unicode="&#x2013;" horiz-adv-x="1482" d="M61 395l62 346h1319l-62 -346h-1319z" />
<glyph unicode="&#x2014;" horiz-adv-x="1970" d="M61 391l62 354h1806l-63 -354h-1805z" />
<glyph unicode="&#x2018;" horiz-adv-x="641" d="M147 770l74 412q14 76 50 136t79 95.5t96.5 59.5t95.5 34t83 13l32 -168q-184 -22 -211 -156l-4 -22h211l-71 -404h-435z" />
<glyph unicode="&#x2019;" horiz-adv-x="638" d="M193 872q183 22 210 156l5 23h-211l71 403h434l-73 -412q-14 -76 -50 -136t-79 -95t-97 -59.5t-95.5 -33.5t-82.5 -13z" />
<glyph unicode="&#x201a;" horiz-adv-x="638" d="M8 -178q184 22 211 155l4 23h-211l72 403h434l-74 -411q-14 -76 -50 -136t-79 -95.5t-96.5 -59.5t-95 -34t-82.5 -13z" />
<glyph unicode="&#x201c;" horiz-adv-x="1183" d="M147 770l74 412q14 76 50 136t79 95.5t96.5 59.5t95.5 34t83 13l32 -168q-184 -22 -211 -156l-4 -22h211l-71 -404h-435zM690 770l74 412q14 76 50 136t79 95.5t96.5 59.5t95 34t82.5 13l33 -168q-184 -22 -211 -156l-4 -22h211l-72 -404h-434z" />
<glyph unicode="&#x201d;" horiz-adv-x="1181" d="M195 874q184 22 211 156l4 23h-211l71 403h435l-74 -412q-14 -76 -50 -136t-79 -95t-97 -59.5t-95.5 -33.5t-82.5 -13zM737 874q184 22 211 156l4 23h-211l72 403h434l-73 -412q-14 -76 -50 -136t-79 -95t-97 -59.5t-95.5 -33.5t-82.5 -13z" />
<glyph unicode="&#x201e;" horiz-adv-x="1181" d="M10 -176q184 22 211 156l4 22h-211l72 404h434l-74 -412q-14 -76 -50 -136t-79 -95.5t-96.5 -59.5t-95 -34t-82.5 -13zM553 -176q184 22 211 156l4 22h-211l72 404h434l-74 -412q-14 -76 -50 -136t-79 -95.5t-96.5 -59.5t-95 -34t-82.5 -13z" />
<glyph unicode="&#x2022;" horiz-adv-x="825" d="M139 686q0 135 85.5 219t217.5 84q134 0 220 -83t86 -220q0 -131 -86.5 -214t-219.5 -83q-131 0 -217 83t-86 214z" />
<glyph unicode="&#x2026;" horiz-adv-x="2013" d="M12 0l68 381h448l-67 -381h-449zM692 0l68 381h448l-67 -381h-449zM1372 0l68 381h448l-67 -381h-449z" />
<glyph unicode="&#x202f;" horiz-adv-x="408" />
<glyph unicode="&#x2039;" horiz-adv-x="866" d="M39 567l479 420h402l-492 -432l317 -418h-387z" />
<glyph unicode="&#x203a;" horiz-adv-x="866" d="M-35 137l492 432l-318 418h387l320 -430l-479 -420h-402z" />
<glyph unicode="&#x205f;" horiz-adv-x="511" />
<glyph unicode="&#x20ac;" horiz-adv-x="1724" d="M20 606l25 139h2l10 64h123q21 103 63.5 195.5t115 177t168 145.5t230 97t294.5 36q96 0 186 -11.5t182 -41.5t164 -75t126 -118t73 -165l-455 -105q-15 55 -44.5 93t-68.5 56.5t-78 25.5t-87 7q-91 0 -163 -26.5t-118.5 -73t-74.5 -100t-44 -117.5h506l-25 -139h-2 l-10 -64h-485q4 -73 24.5 -129.5t50 -90t70.5 -55t80.5 -29t85.5 -7.5q225 0 313 199l416 -113q-241 -420 -758 -420q-109 0 -209 17.5t-200.5 63t-174 116t-120.5 185.5t-49 263h-142z" />
<glyph unicode="&#x2122;" horiz-adv-x="2052" d="M139 1237l37 217h817l-37 -217h-274l-111 -614h-274l109 614h-267zM944 623l146 831h383l34 -412q8 -82 0 -153h4q15 68 56 153l180 412h391l-147 -831h-240l74 424q15 95 41 200h-4q-25 -64 -68 -164l-211 -460h-231l-47 460q-13 151 -13 164h-2q-13 -93 -30 -200 l-76 -424h-240z" />
<glyph unicode="&#x25fc;" horiz-adv-x="1024" d="M0 0v1024h1024v-1024h-1024z" />
</font>
</defs>
</svg>
