<?xml version="1.0" standalone="no"?>
<!DOCTYPE svg PUBLIC "-//W3C//DTD SVG 1.1//EN" "http://www.w3.org/Graphics/SVG/1.1/DTD/svg11.dtd" >
<svg xmlns="http://www.w3.org/2000/svg" xmlns:xlink="http://www.w3.org/1999/xlink" version="1.1">
<metadata></metadata>
<defs>
<font id="gt_americaextended_black" horiz-adv-x="1427" >
<font-face units-per-em="2048" ascent="1638" descent="-410" />
<missing-glyph horiz-adv-x="616" />
<glyph unicode="&#xfb01;" horiz-adv-x="1738" d="M27 745v279h217v45q0 432 544 432q110 0 220 -22v-299q-66 12 -148 12q-85 0 -124.5 -30.5t-39.5 -96.5v-41h312v-279h-312v-745h-452v745h-217zM1157 1151v348h463v-348h-463zM1163 0v1024h451v-1024h-451z" />
<glyph unicode="&#xfb02;" horiz-adv-x="1759" d="M27 745v279h217v45q0 432 544 432q110 0 220 -22v-299q-66 12 -148 12q-85 0 -124.5 -30.5t-39.5 -96.5v-41h312v-279h-312v-745h-452v745h-217zM1174 0v1485h450v-1485h-450z" />
<glyph horiz-adv-x="0" />
<glyph horiz-adv-x="0" />
<glyph horiz-adv-x="682" />
<glyph unicode="&#xd;" horiz-adv-x="0" />
<glyph unicode=" "  horiz-adv-x="616" />
<glyph unicode="&#x09;" horiz-adv-x="616" />
<glyph unicode="&#xa0;" horiz-adv-x="616" />
<glyph unicode="!" horiz-adv-x="772" d="M139 1485h496l-57 -959h-381zM150 0v367h475v-367h-475z" />
<glyph unicode="&#x22;" horiz-adv-x="1128" d="M102 1454h414l-53 -717h-307zM612 1454h414l-53 -717h-307z" />
<glyph unicode="#" horiz-adv-x="1572" d="M29 324v272h276l43 229h-237v275h288l60 315h325l-59 -315h258l59 315h326l-59 -315h235v-275h-287l-43 -229h261v-272h-312l-59 -324h-326l60 324h-258l-60 -324h-325l59 324h-225zM631 596h258l43 229h-258z" />
<glyph unicode="$" horiz-adv-x="1497" d="M-39 231l303 252q154 -180 410 -207v308l-154 22q-225 40 -339.5 145t-114.5 271q0 194 160.5 309t447.5 127v180h149v-180q365 -18 623 -205l-264 -264q-126 142 -359 172v-268l172 -25q248 -42 360.5 -141.5t112.5 -282.5q0 -203 -173.5 -330.5t-471.5 -146.5v-186 h-149v186q-230 7 -418.5 78.5t-294.5 185.5zM467 1051q0 -56 45.5 -86t161.5 -50v252q-207 -9 -207 -116zM823 274q109 8 170.5 44t61.5 94q0 62 -45 93t-152 52l-35 4v-287z" />
<glyph unicode="%" horiz-adv-x="2183" d="M23 1075q-1 183 134.5 293.5t360.5 110.5q224 0 360.5 -111t135.5 -295q1 -183 -135.5 -293t-360.5 -110q-225 0 -360.5 110t-134.5 295zM309 -29l1284 1524h293l-1282 -1524h-295zM350 1075q0 -91 45 -135.5t123 -44.5t122 44.5t44 133.5q0 91 -44 134.5t-122 43.5 t-123 -43.5t-45 -132.5zM1171 377q-1 183 135 293t361 110q224 0 360.5 -110.5t135.5 -294.5q1 -183 -135.5 -293.5t-360.5 -110.5q-225 0 -361 110.5t-135 295.5zM1499 377q0 -91 45 -135.5t123 -44.5t122 44.5t44 133.5q0 91 -44 134.5t-122 43.5t-123 -43.5t-45 -132.5z " />
<glyph unicode="&#x26;" horiz-adv-x="1675" d="M14 387q0 128 73.5 221t240.5 170q-90 88 -130 165.5t-40 172.5q0 126 70 216.5t188 133.5t272 43q240 0 383 -99t143 -269q0 -123 -87.5 -221.5t-241.5 -167.5l248 -213q70 128 108 309l326 -68q-53 -269 -178 -448q77 -45 172 -45q47 0 86 10v-295q-90 -33 -174 -33 q-176 0 -330 125q-211 -135 -508 -135q-300 0 -460.5 117t-160.5 311zM465 428q0 -80 67 -131t175 -51q103 0 194 49l-360 301q-76 -65 -76 -168zM551 1130q0 -45 31.5 -95.5t109.5 -119.5q74 28 111 84.5t37 126.5q0 67 -38.5 107.5t-105.5 40.5q-65 0 -105 -38.5 t-40 -105.5z" />
<glyph unicode="'" horiz-adv-x="618" d="M102 1454h414l-53 -717h-307z" />
<glyph unicode="(" horiz-adv-x="843" d="M111 668q0 268 105 509.5t290 432.5l336 -121q-318 -369 -318 -825q0 -454 320 -836l-342 -121q-183 197 -287 445.5t-104 515.5z" />
<glyph unicode=")" horiz-adv-x="843" d="M0 -172q319 380 319 836q0 457 -317 825l336 121q185 -191 290 -432.5t105 -509.5q0 -267 -104 -515.5t-287 -445.5z" />
<glyph unicode="*" horiz-adv-x="892" d="M6 1059l96 291l263 -168l-80 291h321l-80 -293l265 170l96 -291l-314 -25l252 -200l-256 -181l-123 289l-124 -289l-254 181l249 200z" />
<glyph unicode="+" horiz-adv-x="1284" d="M82 541v264h418v362h282v-362h420v-264h-420v-383h-282v383h-418z" />
<glyph unicode="," horiz-adv-x="638" d="M102 0v403h435v-383q0 -139 -84 -237t-263 -129l-59 168q97 21 136.5 61t39.5 109v8h-205z" />
<glyph unicode="-" horiz-adv-x="1028" d="M82 399v340h864v-340h-864z" />
<glyph unicode="." horiz-adv-x="653" d="M102 0v387h449v-387h-449z" />
<glyph unicode="/" horiz-adv-x="1302" d="M82 -240l735 1796h404l-736 -1796h-403z" />
<glyph unicode="0" horiz-adv-x="1589" d="M55 711q0 237 93.5 408t259.5 257t387 86t386.5 -86t259 -257t93.5 -408q0 -236 -93.5 -407t-259 -257t-386.5 -86q-165 0 -301 50t-234 144t-151.5 236t-53.5 320zM524 711q0 -213 74 -316.5t197 -103.5t196.5 103.5t73.5 316.5q0 214 -73.5 318t-196.5 104t-197 -104 t-74 -318z" />
<glyph unicode="1" horiz-adv-x="1030" d="M35 803v387h47q152 5 243.5 59.5t143.5 173.5h375v-1423h-453v885q-95 -82 -280 -82h-76z" />
<glyph unicode="2" horiz-adv-x="1470" d="M55 985q0 147 85.5 255.5t237 165t349.5 56.5q305 0 480 -120t175 -347q0 -144 -61.5 -250t-194.5 -198q-163 -111 -434 -209h707v-338h-1340v303q444 219 639 344q110 73 155.5 145t45.5 162q0 84 -47 130t-135 46q-95 0 -148 -51t-53 -145q0 -16 8 -82l-463 41 q-6 47 -6 92z" />
<glyph unicode="3" horiz-adv-x="1462" d="M35 459l463 39q-1 -104 59.5 -159.5t163.5 -55.5q97 0 152 40t55 113q0 72 -54 108t-174 36h-112v268h110q209 0 209 145q0 72 -51 112t-143 40q-101 0 -158 -54.5t-57 -162.5l-457 45q0 222 182.5 355.5t497.5 133.5q311 0 484 -109.5t173 -310.5q0 -127 -90 -208.5 t-233 -104.5q173 -23 262.5 -108.5t89.5 -225.5q0 -131 -86 -230t-242 -151.5t-362 -52.5q-316 0 -498.5 132t-183.5 366z" />
<glyph unicode="4" horiz-adv-x="1525" d="M20 283v288l746 852h496v-833h249v-307h-249v-283h-449v283h-793zM428 590h397v332q0 110 6 147h-6q-25 -57 -106 -147l-182 -226q-58 -69 -109 -106z" />
<glyph unicode="5" horiz-adv-x="1439" d="M49 385l438 61q13 -75 72.5 -118t147.5 -43q104 0 161.5 52t57.5 146q0 92 -58 146.5t-157 54.5q-80 0 -136 -35t-83 -98l-398 35l90 837h1104v-329h-762l-32 -242q108 127 360 127q247 0 388.5 -130t141.5 -357q0 -247 -180.5 -389t-494.5 -142q-275 0 -453 114.5 t-207 309.5z" />
<glyph unicode="6" horiz-adv-x="1480" d="M55 686q0 363 192 569.5t531 206.5q265 0 426.5 -100t204.5 -293l-442 -55q-41 133 -201 133q-119 0 -190 -82t-82 -229q138 135 399 135q255 0 396 -127.5t141 -356.5q0 -235 -184 -380.5t-482 -145.5q-335 0 -522 191t-187 534zM502 520q20 -118 85 -179.5t169 -61.5 q105 0 166 52t61 144q0 91 -59 145t-160 54q-84 0 -153 -41t-109 -113z" />
<glyph unicode="7" horiz-adv-x="1292" d="M27 1073v350h1243v-331q-159 -133 -265.5 -276t-169.5 -331t-63 -407v-78h-489v33q0 298 144.5 566t414.5 474h-815z" />
<glyph unicode="8" horiz-adv-x="1501" d="M43 369q0 125 72.5 204t222.5 117q-133 55 -195.5 141.5t-62.5 212.5q0 189 179 303.5t476 114.5q304 0 485 -102.5t181 -274.5q0 -212 -252 -288q162 -58 235.5 -153.5t73.5 -242.5q0 -203 -191.5 -321.5t-521.5 -118.5q-323 0 -512.5 110.5t-189.5 297.5zM510 432 q0 -78 65 -124t179 -46q106 0 171.5 43t65.5 111q0 66 -58.5 107t-191.5 67l-116 24q-115 -60 -115 -182zM528 1042q0 -58 56.5 -95t181.5 -60l108 -23q82 58 82 158q0 75 -57 117.5t-158 42.5q-99 0 -156 -37.5t-57 -102.5z" />
<glyph unicode="9" horiz-adv-x="1480" d="M51 963q0 228 180 363.5t484 135.5q344 0 527 -184t183 -539q0 -378 -184.5 -578t-540.5 -200q-255 0 -420 106t-208 300l442 61q21 -63 77 -102t132 -39q124 0 193 82t77 235q-127 -115 -375 -115q-266 0 -416.5 128.5t-150.5 345.5zM498 969q0 -78 60.5 -129.5 t158.5 -51.5q91 0 161.5 36.5t110.5 103.5q-14 108 -81.5 170.5t-180.5 62.5q-106 0 -167.5 -51.5t-61.5 -140.5z" />
<glyph unicode=":" horiz-adv-x="653" d="M102 0v387h449v-387h-449zM102 637v387h449v-387h-449z" />
<glyph unicode=";" horiz-adv-x="653" d="M102 0v403h435v-383q0 -139 -84 -237t-263 -129l-59 168q97 21 136.5 61t39.5 109v8h-205zM102 637v387h449v-387h-449z" />
<glyph unicode="&#x3c;" d="M143 535v266l1057 407v-295l-725 -243l725 -244v-299z" />
<glyph unicode="=" horiz-adv-x="1259" d="M82 352v248h1096v-248h-1096zM82 748v247h1096v-247h-1096z" />
<glyph unicode="&#x3e;" d="M227 127v299l725 244l-725 243v295l1057 -407v-266z" />
<glyph unicode="?" horiz-adv-x="1388" d="M29 1071q0 200 180.5 319t482.5 119q198 0 345.5 -47.5t230 -141.5t82.5 -226q0 -228 -228 -365l-133 -74q-61 -35 -82.5 -68.5t-21.5 -80.5v-47h-430v80q0 83 36 145t125 107l148 75q70 38 100.5 81t30.5 102q0 72 -52.5 113.5t-150.5 41.5q-103 0 -162 -47t-59 -137 q0 -61 10 -90l-440 33q-12 55 -12 108zM436 0v367h473v-367h-473z" />
<glyph unicode="@" horiz-adv-x="1853" d="M37 565q0 172 67 318.5t186 249.5t288 161t368 58q196 0 358.5 -53t275.5 -149t175 -235.5t62 -308.5q0 -223 -116 -352t-315 -129q-257 0 -313 174q-50 -87 -136.5 -132.5t-203.5 -45.5q-152 0 -238.5 70.5t-86.5 193.5q0 122 86.5 189.5t275.5 93.5l287 37v36 q0 55 -32.5 85t-92.5 30q-126 0 -135 -117h-367q10 152 148 243t356 91q231 0 353 -92.5t122 -269.5v-283q0 -67 21.5 -97t68.5 -30q74 0 116 80t42 221q0 289 -188.5 448.5t-528.5 159.5q-338 0 -535.5 -173.5t-197.5 -471.5q0 -287 203.5 -457.5t545.5 -170.5q97 0 205 22 t187 59l57 -131q-199 -96 -475 -96q-413 0 -653 208t-240 566zM776 428q0 -37 31.5 -61.5t81.5 -24.5q79 0 124.5 43.5t45.5 118.5v49l-156 -23q-60 -9 -93.5 -35.5t-33.5 -66.5z" />
<glyph unicode="A" horiz-adv-x="1777" d="M16 0l584 1454h580l581 -1454h-483l-100 289h-578l-100 -289h-484zM705 588h368l-100 289q-64 177 -82 280h-4q-17 -110 -82 -280z" />
<glyph unicode="B" horiz-adv-x="1648" d="M139 0v1454h920q245 0 375.5 -96t130.5 -268q0 -120 -73.5 -206t-211.5 -118q155 -23 237 -113t82 -235q0 -184 -135.5 -301t-392.5 -117h-932zM606 303h322q86 0 132 42.5t46 111.5q0 68 -47 106.5t-131 38.5h-322v-299zM606 881h303q79 0 120.5 37.5t41.5 101.5 q0 62 -41 96.5t-121 34.5h-303v-270z" />
<glyph unicode="C" horiz-adv-x="1701" d="M37 721q0 229 105.5 405t297 272.5t439.5 96.5q315 0 527 -144t261 -393l-479 -92q-22 132 -103 200.5t-213 68.5q-163 0 -256.5 -109.5t-93.5 -300.5q0 -189 96 -296t265 -107q128 0 207 67.5t102 196.5l479 -109q-69 -247 -279 -382.5t-522 -135.5q-389 0 -611 203 t-222 559z" />
<glyph unicode="D" horiz-adv-x="1746" d="M139 0v1454h776q365 0 579 -191.5t214 -517.5q0 -334 -219 -539.5t-580 -205.5h-770zM606 319h254q169 0 265 118t96 302q0 179 -93 287.5t-260 108.5h-262v-816z" />
<glyph unicode="E" horiz-adv-x="1490" d="M139 0v1454h1243v-326h-776v-235h742v-309h-742v-258h791v-326h-1258z" />
<glyph unicode="F" horiz-adv-x="1431" d="M139 0v1454h1243v-336h-776v-246h742v-327h-742v-545h-467z" />
<glyph unicode="G" horiz-adv-x="1740" d="M37 715q0 171 59.5 315.5t168 247t267.5 160t351 57.5q309 0 514.5 -122t257.5 -339l-488 -88q-56 213 -288 213q-170 0 -262.5 -115.5t-92.5 -322.5q0 -204 92.5 -316t266.5 -112q140 0 233 67.5t98 157.5v19h-387v301h822v-838h-342l-15 217q-60 -115 -193 -186.5 t-337 -71.5q-224 0 -389 94t-250.5 264.5t-85.5 397.5z" />
<glyph unicode="H" horiz-adv-x="1775" d="M139 0v1454h467v-553h563v553h469v-1454h-469v567h-563v-567h-467z" />
<glyph unicode="I" horiz-adv-x="745" d="M139 0v1454h467v-1454h-467z" />
<glyph unicode="J" horiz-adv-x="958" d="M27 -2v358q68 -10 129 -10q112 0 172.5 54.5t60.5 179.5v874h467v-973q0 -257 -151 -381.5t-418 -124.5q-152 0 -260 23z" />
<glyph unicode="K" horiz-adv-x="1708" d="M139 0v1454h467v-569l522 569h541l-549 -590l568 -864h-531l-366 569l-185 -192v-377h-467z" />
<glyph unicode="L" horiz-adv-x="1347" d="M139 0v1454h467v-1085h703v-369h-1170z" />
<glyph unicode="M" horiz-adv-x="2150" d="M139 0v1454h664l227 -754q36 -126 41 -192h4q10 87 45 197l213 749h678v-1454h-428v868q0 100 16 228h-8q-7 -56 -53 -197l-274 -899h-406l-276 897q-41 121 -52 197h-6q13 -94 13 -226v-868h-398z" />
<glyph unicode="N" horiz-adv-x="1783" d="M139 0v1454h496l473 -692q67 -106 102 -184h7v198v678h428v-1454h-471l-500 698q-9 17 -33.5 57t-41.5 71t-26 53h-6v-207v-672h-428z" />
<glyph unicode="O" horiz-adv-x="1765" d="M37 727q0 233 103.5 407t295 267.5t447.5 93.5t447.5 -93.5t295 -267.5t103.5 -407t-103.5 -407t-295 -267.5t-447.5 -93.5t-447.5 93.5t-295 267.5t-103.5 407zM522 727q0 -193 97.5 -305.5t263.5 -112.5t263 112.5t97 305.5t-97 305.5t-263 112.5t-263.5 -112.5 t-97.5 -305.5z" />
<glyph unicode="P" horiz-adv-x="1585" d="M139 0v1454h842q269 0 426.5 -130t157.5 -351q0 -236 -158 -373t-428 -137h-373v-463h-467zM606 770h248q106 0 161.5 47t55.5 139q0 91 -54.5 138t-160.5 47h-250v-371z" />
<glyph unicode="Q" horiz-adv-x="1765" d="M37 727q0 233 103.5 407t295 267.5t447.5 93.5t447.5 -93.5t295 -267.5t103.5 -407q0 -248 -117 -427.5t-328 -266.5q102 -56 258 -56q62 0 135 13v-348q-86 -13 -159 -13q-226 0 -376 85t-220 245h-39q-256 0 -447.5 93.5t-295 267.5t-103.5 407zM522 727 q0 -193 97.5 -305.5t263.5 -112.5t263 112.5t97 305.5t-97 305.5t-263 112.5t-263.5 -112.5t-97.5 -305.5z" />
<glyph unicode="R" horiz-adv-x="1644" d="M139 0v1454h830q302 0 449 -126t147 -341q0 -137 -71 -248.5t-212 -167.5l322 -571h-508l-269 508h-221v-508h-467zM606 801h254q107 0 160 47t53 131q0 168 -213 168h-254v-346z" />
<glyph unicode="S" horiz-adv-x="1507" d="M-39 240l309 276q90 -101 217 -159t273 -58q124 0 189 31t65 90q0 49 -35.5 73.5t-132.5 41.5l-289 45q-239 40 -357 153t-118 305q0 214 182.5 335.5t505.5 121.5q210 0 391.5 -55.5t311.5 -163.5l-263 -289q-82 83 -209 131.5t-262 48.5q-105 0 -162 -26.5t-57 -75.5 q0 -47 42.5 -73t152.5 -46l278 -43q252 -40 363.5 -143t111.5 -297q0 -237 -194.5 -370.5t-536.5 -133.5q-244 0 -451.5 76t-324.5 205z" />
<glyph unicode="T" horiz-adv-x="1433" d="M14 1092v362h1405v-362h-469v-1092h-467v1092h-469z" />
<glyph unicode="U" horiz-adv-x="1689" d="M102 565v889h469v-854q0 -129 71.5 -201.5t203.5 -72.5q128 0 201 73t73 201v854h467v-891q0 -280 -196 -442t-545 -162q-351 0 -547.5 162t-196.5 444z" />
<glyph unicode="V" horiz-adv-x="1691" d="M-4 1454h512l291 -876q32 -105 43 -185h8q11 80 43 185l293 876h510l-570 -1454h-559z" />
<glyph unicode="W" horiz-adv-x="2379" d="M31 1454h471l184 -817q18 -77 21 -150h8q3 69 26 150l207 817h482l208 -817q25 -102 27 -150h8q3 67 19 150l186 817h471l-410 -1454h-518l-209 868q-16 81 -18 133h-8q-5 -61 -19 -133l-209 -868h-518z" />
<glyph unicode="X" horiz-adv-x="1718" d="M6 0l553 745l-534 709h532l240 -364q42 -57 57 -99h6q17 47 55 99l250 364h527l-533 -723l553 -731h-536l-252 367q-60 80 -72 114h-4q-11 -33 -70 -112l-241 -369h-531z" />
<glyph unicode="Y" horiz-adv-x="1581" d="M-18 1454h503l267 -510q31 -50 41 -104h4q10 54 41 104l272 510h489l-573 -965v-489h-469v489z" />
<glyph unicode="Z" horiz-adv-x="1515" d="M84 0v305l758 815h-729v334h1306v-305l-753 -817h786v-332h-1368z" />
<glyph unicode="[" horiz-adv-x="835" d="M139 -240v1796h676v-286h-268v-1223h268v-287h-676z" />
<glyph unicode="\" horiz-adv-x="1302" d="M82 1556h403l736 -1796h-404z" />
<glyph unicode="]" horiz-adv-x="835" d="M20 47h269v1223h-269v286h676v-1796h-676v287z" />
<glyph unicode="^" horiz-adv-x="1101" d="M41 915l334 537h352l334 -537h-342l-168 299l-170 -299h-340z" />
<glyph unicode="_" horiz-adv-x="1175" d="M0 -164h1176v-229h-1176v229z" />
<glyph unicode="`" horiz-adv-x="1228" d="M-66 1487h414l283 -332h-342z" />
<glyph unicode="a" d="M51 285q0 145 107 221q101 74 342 100l362 35v39q0 117 -151 117q-76 0 -120 -31.5t-52 -91.5h-459q22 180 191.5 280.5t441.5 100.5q314 0 459 -109t145 -338v-340q0 -170 20 -268h-440q-14 75 -14 160q-41 -88 -152.5 -139.5t-259.5 -51.5q-196 0 -308 84.5t-112 231.5 zM510 322q0 -46 38.5 -73.5t104.5 -27.5q98 0 158.5 46t60.5 120v68l-196 -23q-166 -23 -166 -110z" />
<glyph unicode="b" horiz-adv-x="1511" d="M135 0v1485h451v-590q62 77 160.5 118.5t222.5 41.5q226 0 362.5 -147t136.5 -390q0 -252 -140.5 -400.5t-377.5 -148.5q-124 0 -224 48t-157 135l-22 -152h-412zM573 483q0 -109 58.5 -170t161.5 -61q99 0 153.5 68.5t54.5 195.5q-1 122 -57 190q-55 67 -150 66h-6 q-98 -2 -156.5 -61.5t-58.5 -159.5v-68z" />
<glyph unicode="c" horiz-adv-x="1388" d="M37 516q0 252 182 395.5t502 143.5q260 0 428.5 -100t208.5 -279l-445 -78q-17 73 -70.5 113.5t-133.5 40.5q-97 0 -154 -61.5t-57 -166.5q0 -115 57.5 -181.5t153.5 -66.5q85 0 137.5 41.5t64.5 118.5l447 -84q-35 -174 -210 -278.5t-431 -104.5q-311 0 -495.5 148.5 t-184.5 398.5z" />
<glyph unicode="d" horiz-adv-x="1511" d="M43 512q0 245 142 394t374 149q252 0 367 -158v588h450v-1485h-432v178q-55 -96 -161.5 -152.5t-241.5 -56.5q-223 0 -360.5 149.5t-137.5 393.5zM508 518q0 -122 58.5 -194t158.5 -72q94 0 151.5 61t57.5 162v72q0 106 -57.5 166.5t-155.5 60.5q-101 0 -157 -67 t-56 -189z" />
<glyph unicode="e" horiz-adv-x="1370" d="M37 508q0 250 176.5 398.5t472.5 148.5q306 0 472.5 -150t166.5 -416v-69h-862q12 -76 80.5 -120t175.5 -44q76 0 142.5 31.5t107.5 87.5l329 -148q-86 -121 -239.5 -189.5t-349.5 -68.5q-315 0 -493.5 143t-178.5 396zM463 639h424q0 81 -55 129.5t-152 48.5t-153 -47 t-64 -131z" />
<glyph unicode="f" horiz-adv-x="1038" d="M27 745v279h217v45q0 432 544 432q110 0 220 -22v-299q-66 12 -148 12q-85 0 -124.5 -30.5t-39.5 -96.5v-41h312v-279h-312v-745h-452v745h-217z" />
<glyph unicode="g" horiz-adv-x="1439" d="M39 -205q0 117 182 170q-78 28 -121 80.5t-43 122.5q0 92 63.5 159t182.5 99q-106 45 -162.5 118t-56.5 169q0 162 160 252t448 90q193 0 320 -39q29 96 116.5 146t223.5 50q39 0 59 -4v-270q-72 14 -119 14q-67 0 -110 -14q118 -86 118 -225q0 -164 -162 -258.5 t-446 -94.5q-135 0 -270 27q-16 -13 -16 -35q0 -65 112 -65h463q216 -1 321 -78.5t105 -233.5q0 -405 -762 -405q-298 0 -452 57.5t-154 167.5zM354 -119q0 -60 78.5 -87t241.5 -27q206 0 286 21.5t80 76.5q0 69 -100 69h-537h-34q-15 -24 -15 -53zM526 713q0 -71 44 -112.5 t122 -41.5q76 0 121 41.5t45 112.5q0 67 -44 105t-122 38t-122 -38t-44 -105z" />
<glyph unicode="h" horiz-adv-x="1521" d="M135 0v1485h451v-647q57 107 158.5 163t238.5 56q209 0 320.5 -126t111.5 -364v-567h-452v522q0 215 -185 215q-94 0 -143 -60t-49 -177v-500h-451z" />
<glyph unicode="i" horiz-adv-x="700" d="M119 1151v348h463v-348h-463zM125 0v1024h450v-1024h-450z" />
<glyph unicode="j" horiz-adv-x="718" d="M-80 -92q38 -6 88 -6q74 0 104.5 39.5t30.5 136.5v946h451v-985q0 -117 -26 -200.5t-84 -142t-154.5 -86.5t-235.5 -28q-108 0 -174 17v309zM135 1151v348h463v-348h-463z" />
<glyph unicode="k" horiz-adv-x="1497" d="M135 0v1485h451v-819l346 358h541l-412 -393l420 -631h-498l-246 389l-151 -137v-252h-451z" />
<glyph unicode="l" horiz-adv-x="720" d="M135 0v1485h451v-1485h-451z" />
<glyph unicode="m" horiz-adv-x="2203" d="M125 0v1024h438v-203q108 234 379 234q257 0 354 -232q131 232 402 232q192 0 295.5 -118t103.5 -335v-602h-450v516q0 213 -152 213q-158 0 -158 -211v-518h-450v514q0 110 -38 162.5t-116 52.5q-158 0 -158 -211v-518h-450z" />
<glyph unicode="n" horiz-adv-x="1511" d="M125 0v1024h438v-209q122 240 414 240q211 0 319.5 -124t108.5 -364v-567h-453v502q0 119 -43 174t-137 55q-197 0 -197 -235v-496h-450z" />
<glyph unicode="o" horiz-adv-x="1417" d="M37 514q0 172 87.5 295.5t237.5 184.5t347 61t347 -61t237 -184.5t87 -295.5t-87 -296.5t-237.5 -186.5t-346.5 -62t-346.5 62t-238 186.5t-87.5 296.5zM492 514q0 -125 58.5 -193.5t158.5 -68.5t158.5 68.5t58.5 193.5q0 126 -58 192t-159 66t-159 -66t-58 -192z" />
<glyph unicode="p" horiz-adv-x="1501" d="M125 -399v1423h438v-154q64 91 166.5 138t228.5 47q226 0 363 -146.5t137 -388.5q0 -251 -141.5 -401t-372.5 -150q-225 0 -369 156v-524h-450zM567 496q0 -111 58.5 -177.5t156.5 -66.5t153.5 71.5t55.5 196.5q0 122 -55 188t-156 66t-157 -62.5t-56 -179.5v-36z" />
<glyph unicode="q" horiz-adv-x="1501" d="M43 514q0 246 139.5 393.5t374.5 147.5q129 0 229 -46t154 -135l14 150h422v-1423h-450v551q-127 -183 -381 -183q-225 0 -363.5 150t-138.5 395zM502 520q0 -124 58.5 -196t158.5 -72q96 0 151.5 62.5t55.5 168.5v72q0 101 -56 160t-153 59q-104 0 -159.5 -65.5 t-55.5 -186.5v-2z" />
<glyph unicode="r" horiz-adv-x="1034" d="M125 0v1024h410v-291q42 153 145 234.5t260 81.5q19 0 64 -5v-403q-68 10 -127 10q-143 0 -215 -63q-87 -74 -87 -223v-365h-450z" />
<glyph unicode="s" horiz-adv-x="1265" d="M0 164l201 217q183 -139 481 -139q84 0 120 12.5t36 40.5q0 27 -23 38.5t-96 20.5l-254 31q-202 26 -297.5 107t-95.5 223q0 165 147.5 252.5t429.5 87.5q359 0 582 -137l-164 -232q-188 102 -442 102q-82 0 -116 -10.5t-34 -36.5q0 -22 19 -32t75 -19l293 -35 q196 -25 284.5 -103t88.5 -220q0 -174 -147.5 -268.5t-425.5 -94.5q-430 0 -662 195z" />
<glyph unicode="t" horiz-adv-x="1040" d="M-4 745v279h221v229l451 164v-393h319v-279h-319v-260q0 -166 186 -166q68 0 131 13v-324q-139 -33 -260 -33q-248 0 -378 94.5t-130 303.5v372h-221z" />
<glyph unicode="u" horiz-adv-x="1497" d="M106 395v629h451v-526q0 -209 172 -209q91 0 141 54.5t50 150.5v530h452v-1024h-436v197q-50 -109 -158 -168.5t-248 -59.5q-205 0 -314.5 111.5t-109.5 314.5z" />
<glyph unicode="v" horiz-adv-x="1378" d="M-8 1024h473l178 -535q15 -37 43 -141h6q29 105 41 141l178 535h475l-446 -1024h-502z" />
<glyph unicode="w" horiz-adv-x="1943" d="M20 1024h435l123 -553l7 -39q7 -39 9 -65h4q5 53 20 104l154 553h399l154 -553q17 -56 21 -104h4q2 26 9 65l7 39l123 553h434l-324 -1024h-450l-154 514q-17 61 -20 100h-6q-2 -34 -21 -100l-153 -514h-451z" />
<glyph unicode="x" horiz-adv-x="1435" d="M6 0l430 528l-411 496h518l123 -168q47 -79 55 -104h4q19 50 59 104l121 168h486l-404 -483l440 -541h-520l-151 197q-44 60 -58 102h-4q-20 -44 -63 -102l-152 -197h-473z" />
<glyph unicode="y" horiz-adv-x="1368" d="M-8 1024h493l177 -545q26 -67 36 -129h9q15 66 34 125l170 549h463l-442 -1063q-85 -204 -232 -294.5t-399 -90.5q-113 0 -221 21v319q99 -16 172 -16q75 0 134 20t81 62l4 16z" />
<glyph unicode="z" horiz-adv-x="1226" d="M51 0v256l557 485h-532v283h1079v-250l-545 -487h574v-287h-1133z" />
<glyph unicode="{" horiz-adv-x="870" d="M37 543v262q60 2 96 11t56 31.5t26 52.5t6 81v246q0 154 103 241.5t294 87.5h228v-294h-94q-64 0 -93.5 -34t-29.5 -102v-145q0 -129 -50 -203t-180 -102q129 -32 178.5 -110t49.5 -210v-182q0 -64 27.5 -91.5t88.5 -27.5h107v-295h-223q-219 0 -312.5 78.5t-93.5 257.5 v262q0 100 -36 141t-148 44z" />
<glyph unicode="|" horiz-adv-x="520" d="M135 -240v1796h250v-1796h-250z" />
<glyph unicode="}" horiz-adv-x="870" d="M20 55h107q61 0 89 27.5t28 91.5v182q0 132 49 210t178 110q-129 28 -179 102t-50 203v145q0 68 -29.5 102t-93.5 34h-94v294h227q191 0 294 -87.5t103 -241.5v-246q0 -51 6.5 -81t26 -52.5t56 -31.5t96.5 -11v-262q-112 -3 -148.5 -44t-36.5 -141v-262 q0 -179 -93 -257.5t-312 -78.5h-224v295z" />
<glyph unicode="~" d="M115 469q30 154 129 235.5t243 81.5q73 0 139.5 -23t107.5 -50.5t91 -50.5t93 -23q62 0 101 38t50 103l242 -55q-27 -161 -129 -245.5t-244 -84.5q-58 0 -111.5 15t-92.5 37t-75 44t-74 37t-75 15q-62 0 -103 -37.5t-53 -104.5z" />
<glyph unicode="&#xa1;" horiz-adv-x="772" d="M139 -297l58 959h381l57 -959h-496zM150 821v367h475v-367h-475z" />
<glyph unicode="&#xa2;" horiz-adv-x="1376" d="M37 512q0 236 159.5 380t440.5 161v164h135v-164q235 -12 386 -114t188 -275l-388 -62q-19 79 -64 125t-122 61v-538q157 25 186 190l388 -73q-34 -170 -188.5 -276t-385.5 -120v-190h-135v190q-281 17 -440.5 160.5t-159.5 380.5zM430 512q0 -110 53.5 -178.5 t153.5 -85.5v540q-98 -17 -152.5 -90t-54.5 -186z" />
<glyph unicode="&#xa3;" horiz-adv-x="1550" d="M8 205q143 37 212 115t69 204q0 39 -8 105h-201v190h160q-19 93 -19 156q0 230 163 357.5t445 127.5q280 0 441 -103t196 -304l-422 -78q-9 88 -61.5 135t-140.5 47q-96 0 -145.5 -45.5t-49.5 -134.5q0 -55 21 -158h385v-190h-346q0 -10 1 -30t1 -32q0 -92 -50 -161 t-139 -101q81 19 154 19q51 0 138 -14.5t138 -14.5q72 0 118 41.5t56 116.5l420 -54q-31 -201 -162 -316.5t-329 -115.5q-105 0 -265.5 28t-287.5 28q-195 0 -412 -39z" />
<glyph unicode="&#xa4;" horiz-adv-x="1277" d="M37 219l133 131q-80 119 -80 271q0 154 82 272l-135 131l180 172l150 -143q126 57 280 57q145 0 266 -51l148 139l180 -172l-127 -123q88 -120 88 -282q0 -165 -92 -287l123 -121l-180 -172l-146 139q-113 -49 -260 -49q-161 0 -285 59l-145 -143zM414 621 q0 -95 65.5 -152t167.5 -57q101 0 165.5 57t64.5 152q0 94 -64.5 150t-165.5 56q-102 0 -167.5 -56t-65.5 -150z" />
<glyph unicode="&#xa5;" horiz-adv-x="1587" d="M-18 1423h503l222 -356q63 -124 88 -193h6q20 57 90 193l225 356h490l-547 -796h403v-154h-442v-113h442v-153h-442v-207h-453v207h-432v153h432v113h-432v154h393z" />
<glyph unicode="&#xa6;" horiz-adv-x="520" d="M135 -240v785h250v-785h-250zM135 793v763h250v-763h-250z" />
<glyph unicode="&#xa7;" horiz-adv-x="1202" d="M-39 -29l205 230q82 -69 191 -106.5t229 -37.5q80 0 116.5 17t36.5 55q0 31 -27 48t-104 34l-282 53q-330 67 -330 318q0 179 182 260q-135 87 -135 254q0 175 152 271.5t415 96.5q153 0 294.5 -35.5t248.5 -101.5l-188 -235q-174 106 -373 106q-137 0 -137 -65 q0 -30 20.5 -46t73.5 -26l287 -51q179 -32 259.5 -108t80.5 -210q0 -170 -142 -272q121 -79 121 -252q0 -183 -161.5 -284t-436.5 -101q-185 0 -340 48.5t-256 139.5zM371 659q0 -41 32 -65t107 -39l252 -45q51 25 51 84q0 40 -31.5 63t-115.5 43l-224 50q-71 -26 -71 -91z " />
<glyph unicode="&#xa8;" horiz-adv-x="1228" d="M94 1155v315h379v-315h-379zM655 1155v315h379v-315h-379z" />
<glyph unicode="&#xa9;" horiz-adv-x="1720" d="M37 727q0 233 107.5 408.5t293.5 267.5t422 92q235 0 420.5 -92t293 -268t107.5 -408q0 -174 -62.5 -319t-172 -243t-260.5 -152t-326 -54q-176 0 -327 54t-261 152t-172.5 243t-62.5 319zM197 727q0 -143 51 -262t140 -199t210.5 -124t261.5 -44q188 0 337.5 75 t237 219.5t87.5 334.5q0 144 -51 263t-139.5 198.5t-210 123.5t-261.5 44q-188 0 -337.5 -74.5t-237.5 -219t-88 -335.5zM406 729q0 202 124 320t351 118q195 0 312 -82.5t144 -232.5l-301 -51q-9 68 -51 107.5t-111 39.5q-80 0 -128 -59.5t-48 -159.5t48.5 -159.5 t130.5 -59.5q67 0 108.5 39t50.5 106l299 -57q-33 -146 -148.5 -228.5t-307.5 -82.5q-223 0 -348 120t-125 322z" />
<glyph unicode="&#xaa;" horiz-adv-x="1120" d="M49 844q0 60 23.5 103.5t69.5 69.5t101 40t132 22l268 29v29q0 67 -88 67q-90 0 -102 -74h-383q19 131 148.5 203t338.5 72q244 0 355.5 -80.5t111.5 -249.5v-262q0 -113 14 -178h-366q-13 63 -13 110q-29 -61 -109 -97t-185 -36q-147 0 -231.5 62t-84.5 170zM414 877 q0 -30 28 -50t74 -20q61 0 99 28t38 72v66l-116 -15q-64 -9 -93.5 -27.5t-29.5 -53.5z" />
<glyph unicode="&#xab;" horiz-adv-x="1460" d="M29 567l405 420h385l-403 -418l397 -432h-389zM639 567l405 420h386l-404 -418l397 -432h-389z" />
<glyph unicode="&#xac;" d="M170 557v248h1061v-565h-264v317h-797z" />
<glyph unicode="&#xad;" horiz-adv-x="1028" d="M82 399v340h864v-340h-864z" />
<glyph unicode="&#xae;" horiz-adv-x="1720" d="M37 727q0 233 107.5 408.5t293.5 267.5t422 92q235 0 420.5 -92t293 -268t107.5 -408q0 -174 -62.5 -319t-172 -243t-260.5 -152t-326 -54q-176 0 -327 54t-261 152t-172.5 243t-62.5 319zM197 727q0 -143 51 -262t140 -199t210.5 -124t261.5 -44q188 0 337.5 75 t237 219.5t87.5 334.5q0 144 -51 263t-139.5 198.5t-210 123.5t-261.5 44q-188 0 -337.5 -74.5t-237.5 -219t-88 -335.5zM479 317v834h508q156 0 241 -72.5t85 -204.5q0 -88 -46.5 -151.5t-131.5 -89.5l184 -316h-311l-148 279h-98v-279h-283zM762 772h139q115 0 115 96 q0 46 -29.5 71.5t-83.5 25.5h-141v-193z" />
<glyph unicode="&#xaf;" horiz-adv-x="1228" d="M111 1192v240h878v-240h-878z" />
<glyph unicode="&#xb0;" horiz-adv-x="950" d="M25 1042q0 192 128 309t322 117q196 0 324.5 -117t128.5 -309q0 -193 -128.5 -310.5t-324.5 -117.5q-194 0 -322 117.5t-128 310.5zM254 1042q0 -100 61.5 -160.5t159.5 -60.5t159.5 60.5t61.5 160.5q0 99 -61.5 159.5t-159.5 60.5t-159.5 -60.5t-61.5 -159.5z" />
<glyph unicode="&#xb1;" d="M150 0v248h1126v-248h-1126zM150 586v262h419v307h285v-307h422v-262h-422v-291h-285v291h-419z" />
<glyph unicode="&#xb4;" horiz-adv-x="1228" d="M94 1155l283 332h414l-355 -332h-342z" />
<glyph unicode="&#xb5;" horiz-adv-x="1513" d="M125 -399v1423h450v-526q0 -209 173 -209q91 0 140.5 54.5t49.5 150.5v530h453v-1024h-437v197q-50 -109 -157.5 -168.5t-247.5 -59.5h-14v-368h-410z" />
<glyph unicode="&#xb6;" horiz-adv-x="1615" d="M106 1071q0 105 40.5 183.5t116 126.5t177 71t230.5 23h803v-191h-168v-1487h-209v1487h-246v-1487h-211v871q-533 0 -533 403z" />
<glyph unicode="&#xb7;" horiz-adv-x="653" d="M102 489v388h449v-388h-449z" />
<glyph unicode="&#xb8;" horiz-adv-x="1228" d="M125 -348l211 65q33 -45 98 -45q39 0 61.5 19t22.5 51q0 31 -22 48t-60 17q-53 0 -80 -30l-188 37l106 194h197l-78 -114q50 34 144 34q113 0 178 -49.5t65 -144.5q0 -102 -90 -153.5t-252 -51.5q-229 0 -313 123z" />
<glyph unicode="&#xba;" horiz-adv-x="1110" d="M41 1012q0 189 141.5 291t372.5 102q150 0 264.5 -43t182 -133t67.5 -217q0 -128 -67.5 -219.5t-182.5 -136t-264 -44.5q-230 0 -372 104.5t-142 295.5zM422 1012q0 -82 35 -125t98 -43q61 0 97 43.5t36 124.5t-35.5 121.5t-97.5 40.5q-63 0 -98 -40.5t-35 -121.5z" />
<glyph unicode="&#xbb;" horiz-adv-x="1460" d="M31 987h385l405 -420l-395 -430h-389l397 432zM641 987h385l406 -420l-396 -430h-389l397 432z" />
<glyph unicode="&#xbc;" horiz-adv-x="1953" d="M45 1112v221h37q80 0 131 29t82 92h211v-811h-250v483q-39 -14 -152 -14h-59zM223 -35l1037 1524h313l-1034 -1524h-316zM1077 162v162l430 487h295v-469h140v-180h-140v-162h-246v162h-479zM1335 342h221v268z" />
<glyph unicode="&#xbd;" horiz-adv-x="2062" d="M45 1112v221h37q80 0 131 29t82 92h211v-811h-250v483q-39 -14 -152 -14h-59zM223 -35l1037 1524h313l-1034 -1524h-316zM1202 0v188q80 30 132.5 51t118 50t107 55t80 57.5t56.5 65.5t18 70q0 47 -32 72.5t-91 25.5q-57 0 -90 -29.5t-33 -79.5q0 -16 9 -57l-263 27 q-8 31 -8 53q0 127 108.5 206t284.5 79q182 0 285 -74.5t103 -208.5q0 -73 -31 -131.5t-87.5 -98.5t-112 -65t-128.5 -47h365v-209h-791z" />
<glyph unicode="&#xbe;" horiz-adv-x="2224" d="M39 897l256 27q17 -109 160 -109q131 0 131 74q0 43 -32 59.5t-112 16.5h-73v174h77q64 0 91.5 18t27.5 57q0 70 -121 70q-134 0 -143 -123l-248 39q5 128 111.5 202.5t290.5 74.5q174 0 273 -61t99 -171q0 -69 -45.5 -117t-126.5 -63q104 -21 150.5 -65t46.5 -126 q0 -115 -108.5 -184t-290.5 -69q-186 0 -296.5 72.5t-117.5 203.5zM494 -35l1036 1524h313l-1034 -1524h-315zM1348 162v162l430 487h295v-469h139v-180h-139v-162h-246v162h-479zM1606 342h221v268z" />
<glyph unicode="&#xbf;" horiz-adv-x="1388" d="M39 94q0 228 227 365l133 73q61 35 83 69t22 81v47h430v-80q0 -82 -36.5 -144.5t-125.5 -107.5l-147 -75q-70 -38 -100.5 -81t-30.5 -102q0 -72 52 -113.5t150 -41.5q103 0 162.5 47t59.5 137q0 58 -11 90l441 -33q12 -55 12 -108q0 -200 -181 -319.5t-483 -119.5 q-301 0 -479 109t-178 307zM479 821v367h473v-367h-473z" />
<glyph unicode="&#xc0;" horiz-adv-x="1777" d="M16 0l584 1454h580l581 -1454h-483l-100 289h-578l-100 -289h-484zM399 1802h398l252 -254h-344zM705 588h368l-100 289q-64 177 -82 280h-4q-17 -110 -82 -280z" />
<glyph unicode="&#xc1;" horiz-adv-x="1777" d="M16 0l584 1454h580l581 -1454h-483l-100 289h-578l-100 -289h-484zM705 588h368l-100 289q-64 177 -82 280h-4q-17 -110 -82 -280zM715 1548l252 254h397l-305 -254h-344z" />
<glyph unicode="&#xc2;" horiz-adv-x="1777" d="M16 0l584 1454h580l581 -1454h-483l-100 289h-578l-100 -289h-484zM399 1548l263 254h456l262 -254h-340l-151 144l-152 -144h-338zM705 588h368l-100 289q-64 177 -82 280h-4q-17 -110 -82 -280z" />
<glyph unicode="&#xc3;" horiz-adv-x="1777" d="M16 0l584 1454h580l581 -1454h-483l-100 289h-578l-100 -289h-484zM397 1620q66 250 308 250q61 0 117 -18.5t90 -41t74 -41t75 -18.5q44 0 70 26t45 89l204 -90q-62 -250 -307 -250q-61 0 -116.5 18.5t-89 41t-74 41t-76.5 18.5q-43 0 -69.5 -26.5t-45.5 -90.5zM705 588 h368l-100 289q-64 177 -82 280h-4q-17 -110 -82 -280z" />
<glyph unicode="&#xc4;" horiz-adv-x="1777" d="M16 0l584 1454h580l581 -1454h-483l-100 289h-578l-100 -289h-484zM426 1548v254h367v-254h-367zM705 588h368l-100 289q-64 177 -82 280h-4q-17 -110 -82 -280zM987 1548v254h365v-254h-365z" />
<glyph unicode="&#xc5;" horiz-adv-x="1777" d="M16 0l584 1454h580l581 -1454h-483l-100 289h-578l-100 -289h-484zM584 1786q0 117 84 187.5t221 70.5t221 -70.5t84 -187.5t-84 -187.5t-221 -70.5t-221 70.5t-84 187.5zM705 588h368l-100 289q-64 177 -82 280h-4q-17 -110 -82 -280zM772 1786q0 -48 32.5 -78.5 t84.5 -30.5q51 0 83 30.5t32 78.5q0 47 -32 77.5t-83 30.5q-52 0 -84.5 -30t-32.5 -78z" />
<glyph unicode="&#xc6;" horiz-adv-x="2490" d="M-10 0l938 1454h1454v-326h-756v-235h721v-309h-721v-258h770v-326h-1237v289h-512l-168 -289h-489zM819 586h340v585z" />
<glyph unicode="&#xc7;" horiz-adv-x="1701" d="M37 721q0 229 105.5 405t297 272.5t439.5 96.5q315 0 527 -144t261 -393l-479 -92q-22 132 -103 200.5t-213 68.5q-163 0 -256.5 -109.5t-93.5 -300.5q0 -189 96 -296t265 -107q128 0 207 67.5t102 196.5l479 -109q-64 -231 -252.5 -365t-470.5 -151l-45 -67 q50 34 144 34q113 0 178 -49.5t65 -144.5q0 -102 -90 -153.5t-252 -51.5q-229 0 -313 123l211 65q33 -45 98 -45q39 0 61.5 19t22.5 51q0 31 -22 48t-60 17q-53 0 -80 -30l-188 37l82 149q-341 29 -532 229t-191 529z" />
<glyph unicode="&#xc8;" horiz-adv-x="1490" d="M139 0v1454h1243v-326h-776v-235h742v-309h-742v-258h791v-326h-1258zM293 1802h397l252 -254h-344z" />
<glyph unicode="&#xc9;" horiz-adv-x="1490" d="M139 0v1454h1243v-326h-776v-235h742v-309h-742v-258h791v-326h-1258zM608 1548l252 254h397l-305 -254h-344z" />
<glyph unicode="&#xca;" horiz-adv-x="1490" d="M139 0v1454h1243v-326h-776v-235h742v-309h-742v-258h791v-326h-1258zM293 1548l262 254h457l262 -254h-340l-152 144l-151 -144h-338z" />
<glyph unicode="&#xcb;" horiz-adv-x="1490" d="M139 0v1454h1243v-326h-776v-235h742v-309h-742v-258h791v-326h-1258zM319 1548v254h367v-254h-367zM881 1548v254h364v-254h-364z" />
<glyph unicode="&#xcc;" horiz-adv-x="745" d="M-43 1802h383l203 -254h-344zM139 0v1454h467v-1454h-467z" />
<glyph unicode="&#xcd;" horiz-adv-x="745" d="M139 0v1454h467v-1454h-467zM199 1548l202 254h383l-241 -254h-344z" />
<glyph unicode="&#xce;" horiz-adv-x="745" d="M20 1548l146 254h418l145 -254h-274l-80 154l-80 -154h-275zM139 0v1454h467v-1454h-467z" />
<glyph unicode="&#xcf;" horiz-adv-x="745" d="M20 1548v254h316v-254h-316zM139 0v1454h467v-1454h-467zM410 1548v254h313v-254h-313z" />
<glyph unicode="&#xd0;" horiz-adv-x="1746" d="M-4 629v241h143v584h776q365 0 579 -191.5t214 -517.5q0 -334 -219 -539.5t-580 -205.5h-770v629h-143zM606 319h254q169 0 265 118t96 302q0 179 -93 287.5t-260 108.5h-262v-265h328v-241h-328v-310z" />
<glyph unicode="&#xd1;" horiz-adv-x="1783" d="M139 0v1454h496l473 -692q67 -106 102 -184h7v198v678h428v-1454h-471l-500 698q-9 17 -33.5 57t-41.5 71t-26 53h-6v-207v-672h-428zM408 1620q66 250 307 250q61 0 117 -18.5t90 -41t74 -41t75 -18.5q44 0 70 26t45 89l205 -90q-62 -250 -308 -250q-61 0 -116.5 18.5 t-89 41t-74 41t-76.5 18.5q-43 0 -69.5 -26.5t-45.5 -90.5z" />
<glyph unicode="&#xd2;" horiz-adv-x="1765" d="M37 727q0 233 103.5 407t295 267.5t447.5 93.5t447.5 -93.5t295 -267.5t103.5 -407t-103.5 -407t-295 -267.5t-447.5 -93.5t-447.5 93.5t-295 267.5t-103.5 407zM393 1802h398l251 -254h-344zM522 727q0 -193 97.5 -305.5t263.5 -112.5t263 112.5t97 305.5t-97 305.5 t-263 112.5t-263.5 -112.5t-97.5 -305.5z" />
<glyph unicode="&#xd3;" horiz-adv-x="1765" d="M37 727q0 233 103.5 407t295 267.5t447.5 93.5t447.5 -93.5t295 -267.5t103.5 -407t-103.5 -407t-295 -267.5t-447.5 -93.5t-447.5 93.5t-295 267.5t-103.5 407zM522 727q0 -193 97.5 -305.5t263.5 -112.5t263 112.5t97 305.5t-97 305.5t-263 112.5t-263.5 -112.5 t-97.5 -305.5zM709 1548l252 254h397l-305 -254h-344z" />
<glyph unicode="&#xd4;" horiz-adv-x="1765" d="M37 727q0 233 103.5 407t295 267.5t447.5 93.5t447.5 -93.5t295 -267.5t103.5 -407t-103.5 -407t-295 -267.5t-447.5 -93.5t-447.5 93.5t-295 267.5t-103.5 407zM393 1548l262 254h457l262 -254h-340l-151 144l-152 -144h-338zM522 727q0 -193 97.5 -305.5t263.5 -112.5 t263 112.5t97 305.5t-97 305.5t-263 112.5t-263.5 -112.5t-97.5 -305.5z" />
<glyph unicode="&#xd5;" horiz-adv-x="1765" d="M37 727q0 233 103.5 407t295 267.5t447.5 93.5t447.5 -93.5t295 -267.5t103.5 -407t-103.5 -407t-295 -267.5t-447.5 -93.5t-447.5 93.5t-295 267.5t-103.5 407zM391 1620q66 250 307 250q61 0 117 -18.5t90 -41t74.5 -41t75.5 -18.5q44 0 69.5 26t44.5 89l205 -90 q-62 -250 -307 -250q-61 0 -116.5 18.5t-89 41t-74 41t-76.5 18.5q-43 0 -69.5 -26.5t-45.5 -90.5zM522 727q0 -193 97.5 -305.5t263.5 -112.5t263 112.5t97 305.5t-97 305.5t-263 112.5t-263.5 -112.5t-97.5 -305.5z" />
<glyph unicode="&#xd6;" horiz-adv-x="1765" d="M37 727q0 233 103.5 407t295 267.5t447.5 93.5t447.5 -93.5t295 -267.5t103.5 -407t-103.5 -407t-295 -267.5t-447.5 -93.5t-447.5 93.5t-295 267.5t-103.5 407zM420 1548v254h366v-254h-366zM522 727q0 -193 97.5 -305.5t263.5 -112.5t263 112.5t97 305.5t-97 305.5 t-263 112.5t-263.5 -112.5t-97.5 -305.5zM981 1548v254h365v-254h-365z" />
<glyph unicode="&#xd7;" d="M135 313l379 355l-379 354l197 186l381 -354l379 354l200 -186l-381 -354l379 -353l-196 -190l-381 356l-381 -354z" />
<glyph unicode="&#xd8;" horiz-adv-x="1765" d="M37 727q0 233 103.5 407t295 267.5t447.5 93.5q286 0 491 -117l125 135l123 -94l-121 -133q228 -209 228 -559q0 -233 -103.5 -407t-295 -267.5t-447.5 -93.5q-287 0 -492 117l-123 -135l-125 94l121 133q-227 208 -227 559zM522 727q0 -135 47 -227l531 577 q-93 68 -217 68q-166 0 -263.5 -112.5t-97.5 -305.5zM668 377q90 -68 215 -68q166 0 263 112.5t97 305.5q0 131 -47 227z" />
<glyph unicode="&#xd9;" horiz-adv-x="1689" d="M102 565v889h469v-854q0 -129 71.5 -201.5t203.5 -72.5q128 0 201 73t73 201v854h467v-891q0 -280 -196 -442t-545 -162q-351 0 -547.5 162t-196.5 444zM356 1802h398l252 -254h-344z" />
<glyph unicode="&#xda;" horiz-adv-x="1689" d="M102 565v889h469v-854q0 -129 71.5 -201.5t203.5 -72.5q128 0 201 73t73 201v854h467v-891q0 -280 -196 -442t-545 -162q-351 0 -547.5 162t-196.5 444zM672 1548l252 254h397l-305 -254h-344z" />
<glyph unicode="&#xdb;" horiz-adv-x="1689" d="M102 565v889h469v-854q0 -129 71.5 -201.5t203.5 -72.5q128 0 201 73t73 201v854h467v-891q0 -280 -196 -442t-545 -162q-351 0 -547.5 162t-196.5 444zM356 1548l262 254h457l262 -254h-340l-151 144l-152 -144h-338z" />
<glyph unicode="&#xdc;" horiz-adv-x="1689" d="M102 565v889h469v-854q0 -129 71.5 -201.5t203.5 -72.5q128 0 201 73t73 201v854h467v-891q0 -280 -196 -442t-545 -162q-351 0 -547.5 162t-196.5 444zM383 1548v254h367v-254h-367zM944 1548v254h365v-254h-365z" />
<glyph unicode="&#xdd;" horiz-adv-x="1581" d="M-18 1454h503l267 -510q31 -50 41 -104h4q10 54 41 104l272 510h489l-573 -965v-489h-469v489zM621 1548l251 254h398l-305 -254h-344z" />
<glyph unicode="&#xde;" horiz-adv-x="1511" d="M139 0v1454h467v-205h305q267 0 423.5 -130t156.5 -359q0 -238 -155.5 -370t-430.5 -132h-299v-258h-467zM606 565h170q110 0 166.5 47t56.5 138q0 186 -223 186h-170v-371z" />
<glyph unicode="&#xdf;" horiz-adv-x="1574" d="M127 0v958q0 277 166 414t510 137q301 0 466 -100.5t165 -288.5q0 -133 -90.5 -218.5t-251.5 -102.5q205 -15 315.5 -111.5t110.5 -259.5q0 -218 -160.5 -336.5t-456.5 -118.5q-92 0 -194 17v289q88 -9 112 -9q116 0 179 49.5t63 141.5q0 86 -69 131t-204 45h-79v272h82 q88 0 137 44t49 122q0 72 -49 111t-140 39q-109 0 -159.5 -53.5t-50.5 -167.5v-1004h-451z" />
<glyph unicode="&#xe0;" d="M51 285q0 145 107 221q101 74 342 100l362 35v39q0 117 -151 117q-76 0 -120 -31.5t-52 -91.5h-459q22 180 191.5 280.5t441.5 100.5q314 0 459 -109t145 -338v-340q0 -170 20 -268h-440q-14 75 -14 160q-41 -88 -152.5 -139.5t-259.5 -51.5q-196 0 -308 84.5t-112 231.5 zM203 1487h413l283 -332h-342zM510 322q0 -46 38.5 -73.5t104.5 -27.5q98 0 158.5 46t60.5 120v68l-196 -23q-166 -23 -166 -110z" />
<glyph unicode="&#xe1;" d="M51 285q0 145 107 221q101 74 342 100l362 35v39q0 117 -151 117q-76 0 -120 -31.5t-52 -91.5h-459q22 180 191.5 280.5t441.5 100.5q314 0 459 -109t145 -338v-340q0 -170 20 -268h-440q-14 75 -14 160q-41 -88 -152.5 -139.5t-259.5 -51.5q-196 0 -308 84.5t-112 231.5 zM510 322q0 -46 38.5 -73.5t104.5 -27.5q98 0 158.5 46t60.5 120v68l-196 -23q-166 -23 -166 -110zM541 1155l282 332h414l-354 -332h-342z" />
<glyph unicode="&#xe2;" d="M51 285q0 145 107 221q101 74 342 100l362 35v39q0 117 -151 117q-76 0 -120 -31.5t-52 -91.5h-459q22 180 191.5 280.5t441.5 100.5q314 0 459 -109t145 -338v-340q0 -170 20 -268h-440q-14 75 -14 160q-41 -88 -152.5 -139.5t-259.5 -51.5q-196 0 -308 84.5t-112 231.5 zM240 1155l256 332h450l256 -332h-323l-158 211l-158 -211h-323zM510 322q0 -46 38.5 -73.5t104.5 -27.5q98 0 158.5 46t60.5 120v68l-196 -23q-166 -23 -166 -110z" />
<glyph unicode="&#xe3;" d="M51 285q0 145 107 221q101 74 342 100l362 35v39q0 117 -151 117q-76 0 -120 -31.5t-52 -91.5h-459q22 180 191.5 280.5t441.5 100.5q314 0 459 -109t145 -338v-340q0 -170 20 -268h-440q-14 75 -14 160q-41 -88 -152.5 -139.5t-259.5 -51.5q-196 0 -308 84.5t-112 231.5 zM233 1260q28 130 104 199t198 69q61 0 117.5 -19.5t91 -43t76 -43t77.5 -19.5q42 0 69.5 28t45.5 95l209 -92q-58 -269 -303 -269q-61 0 -117 20t-90.5 43.5t-76 43.5t-77.5 20q-43 0 -69.5 -28.5t-45.5 -96.5zM510 322q0 -46 38.5 -73.5t104.5 -27.5q98 0 158.5 46 t60.5 120v68l-196 -23q-166 -23 -166 -110z" />
<glyph unicode="&#xe4;" d="M51 285q0 145 107 221q101 74 342 100l362 35v39q0 117 -151 117q-76 0 -120 -31.5t-52 -91.5h-459q22 180 191.5 280.5t441.5 100.5q314 0 459 -109t145 -338v-340q0 -170 20 -268h-440q-14 75 -14 160q-41 -88 -152.5 -139.5t-259.5 -51.5q-196 0 -308 84.5t-112 231.5 zM250 1155v315h379v-315h-379zM510 322q0 -46 38.5 -73.5t104.5 -27.5q98 0 158.5 46t60.5 120v68l-196 -23q-166 -23 -166 -110zM811 1155v315h379v-315h-379z" />
<glyph unicode="&#xe5;" d="M51 285q0 145 107 221q101 74 342 100l362 35v39q0 117 -151 117q-76 0 -120 -31.5t-52 -91.5h-459q22 180 191.5 280.5t441.5 100.5q314 0 459 -109t145 -338v-340q0 -170 20 -268h-440q-14 75 -14 160q-41 -88 -152.5 -139.5t-259.5 -51.5q-196 0 -308 84.5t-112 231.5 zM387 1386q0 119 89.5 191t244.5 72t244.5 -72t89.5 -191q0 -120 -89.5 -191t-244.5 -71t-244.5 71t-89.5 191zM510 322q0 -46 38.5 -73.5t104.5 -27.5q98 0 158.5 46t60.5 120v68l-196 -23q-166 -23 -166 -110zM586 1386q0 -50 35.5 -80t99.5 -30q62 0 97.5 30t35.5 80 q0 48 -35.5 78.5t-97.5 30.5q-63 0 -99 -30.5t-36 -78.5z" />
<glyph unicode="&#xe6;" horiz-adv-x="2131" d="M51 289q0 138 107 214.5t329 98.5l353 35v22q0 134 -146 134q-73 0 -115.5 -30.5t-48.5 -88.5h-454q17 175 183 278t429 103q260 0 393 -109q159 109 400 109q289 0 448.5 -148t159.5 -413v-72h-809q11 -76 72 -121t157 -45q66 0 124 31t98 88l329 -148 q-82 -122 -229.5 -190t-331.5 -68q-342 0 -506 187q-74 -91 -197.5 -139t-287.5 -48q-216 0 -336.5 84.5t-120.5 235.5zM510 319q0 -46 37.5 -72t103.5 -26q90 0 145.5 45t55.5 117v72l-190 -19q-152 -22 -152 -117zM1278 643h371q-5 82 -51.5 128t-127.5 46 q-183 0 -192 -174z" />
<glyph unicode="&#xe7;" horiz-adv-x="1388" d="M37 516q0 252 182 395.5t502 143.5q260 0 428.5 -100t208.5 -279l-445 -78q-17 73 -70.5 113.5t-133.5 40.5q-97 0 -154 -61.5t-57 -166.5q0 -115 57.5 -181.5t153.5 -66.5q85 0 137.5 41.5t64.5 118.5l447 -84q-34 -162 -189.5 -264.5t-386.5 -116.5l-53 -77 q50 34 143 34q113 0 178.5 -49.5t65.5 -144.5q0 -102 -90 -153.5t-252 -51.5q-229 0 -313 123l211 65q33 -45 98 -45q39 0 61.5 19t22.5 51q0 31 -22 48t-60 17q-53 0 -80 -30l-188 37l88 161q-257 29 -406 173.5t-149 367.5z" />
<glyph unicode="&#xe8;" horiz-adv-x="1370" d="M37 508q0 250 176.5 398.5t472.5 148.5q306 0 472.5 -150t166.5 -416v-69h-862q12 -76 80.5 -120t175.5 -44q76 0 142.5 31.5t107.5 87.5l329 -148q-86 -121 -239.5 -189.5t-349.5 -68.5q-315 0 -493.5 143t-178.5 396zM166 1487h414l282 -332h-342zM463 639h424 q0 81 -55 129.5t-152 48.5t-153 -47t-64 -131z" />
<glyph unicode="&#xe9;" horiz-adv-x="1370" d="M37 508q0 250 176.5 398.5t472.5 148.5q306 0 472.5 -150t166.5 -416v-69h-862q12 -76 80.5 -120t175.5 -44q76 0 142.5 31.5t107.5 87.5l329 -148q-86 -121 -239.5 -189.5t-349.5 -68.5q-315 0 -493.5 143t-178.5 396zM463 639h424q0 81 -55 129.5t-152 48.5t-153 -47 t-64 -131zM504 1155l282 332h414l-354 -332h-342z" />
<glyph unicode="&#xea;" horiz-adv-x="1370" d="M37 508q0 250 176.5 398.5t472.5 148.5q306 0 472.5 -150t166.5 -416v-69h-862q12 -76 80.5 -120t175.5 -44q76 0 142.5 31.5t107.5 87.5l329 -148q-86 -121 -239.5 -189.5t-349.5 -68.5q-315 0 -493.5 143t-178.5 396zM203 1155l256 332h450l256 -332h-323l-158 211 l-158 -211h-323zM463 639h424q0 81 -55 129.5t-152 48.5t-153 -47t-64 -131z" />
<glyph unicode="&#xeb;" horiz-adv-x="1370" d="M37 508q0 250 176.5 398.5t472.5 148.5q306 0 472.5 -150t166.5 -416v-69h-862q12 -76 80.5 -120t175.5 -44q76 0 142.5 31.5t107.5 87.5l329 -148q-86 -121 -239.5 -189.5t-349.5 -68.5q-315 0 -493.5 143t-178.5 396zM213 1155v315h379v-315h-379zM463 639h424 q0 81 -55 129.5t-152 48.5t-153 -47t-64 -131zM774 1155v315h379v-315h-379z" />
<glyph unicode="&#xec;" horiz-adv-x="700" d="M-84 1487h389l209 -332h-342zM125 0v1024h450v-1024h-450z" />
<glyph unicode="&#xed;" horiz-adv-x="700" d="M125 0v1024h450v-1024h-450zM178 1155l209 332h389l-256 -332h-342z" />
<glyph unicode="&#xee;" horiz-adv-x="700" d="M-8 1155l155 332h408l156 -332h-273l-88 219l-86 -219h-272zM125 0v1024h450v-1024h-450z" />
<glyph unicode="&#xef;" horiz-adv-x="700" d="M-20 1155v315h323v-315h-323zM125 0v1024h450v-1024h-450zM395 1155v315h324v-315h-324z" />
<glyph unicode="&#xf0;" horiz-adv-x="1460" d="M43 500q0 239 140.5 385.5t379.5 146.5q127 0 223 -49.5t154 -134.5h4q-40 171 -199 330l-194 -64l-35 94l146 47q-75 61 -142 107l422 154q80 -58 150 -123l159 51l33 -92l-119 -39q242 -283 242 -686q-2 -307 -189 -482.5t-520 -175.5q-331 0 -493 138t-162 393z M502 508q0 -113 58.5 -180.5t164.5 -67.5q109 0 167 66.5t58 183.5q0 110 -59 177t-164 67q-112 0 -168.5 -64t-56.5 -182z" />
<glyph unicode="&#xf1;" horiz-adv-x="1511" d="M125 0v1024h438v-209q122 240 414 240q211 0 319.5 -124t108.5 -364v-567h-453v502q0 119 -43 174t-137 55q-197 0 -197 -235v-496h-450zM328 1260q58 268 301 268q61 0 117.5 -19.5t91 -43t76 -43t77.5 -19.5q42 0 69.5 28t45.5 95l209 -92q-58 -269 -303 -269 q-61 0 -117 20t-90.5 43.5t-76 43.5t-77.5 20q-43 0 -69 -28.5t-45 -96.5z" />
<glyph unicode="&#xf2;" horiz-adv-x="1417" d="M37 514q0 172 87.5 295.5t237.5 184.5t347 61t347 -61t237 -184.5t87 -295.5t-87 -296.5t-237.5 -186.5t-346.5 -62t-346.5 62t-238 186.5t-87.5 296.5zM190 1487h414l283 -332h-342zM492 514q0 -125 58.5 -193.5t158.5 -68.5t158.5 68.5t58.5 193.5q0 126 -58 192 t-159 66t-159 -66t-58 -192z" />
<glyph unicode="&#xf3;" horiz-adv-x="1417" d="M37 514q0 172 87.5 295.5t237.5 184.5t347 61t347 -61t237 -184.5t87 -295.5t-87 -296.5t-237.5 -186.5t-346.5 -62t-346.5 62t-238 186.5t-87.5 296.5zM492 514q0 -125 58.5 -193.5t158.5 -68.5t158.5 68.5t58.5 193.5q0 126 -58 192t-159 66t-159 -66t-58 -192z M528 1155l283 332h414l-355 -332h-342z" />
<glyph unicode="&#xf4;" horiz-adv-x="1417" d="M37 514q0 172 87.5 295.5t237.5 184.5t347 61t347 -61t237 -184.5t87 -295.5t-87 -296.5t-237.5 -186.5t-346.5 -62t-346.5 62t-238 186.5t-87.5 296.5zM227 1155l256 332h451l256 -332h-324l-157 211l-158 -211h-324zM492 514q0 -125 58.5 -193.5t158.5 -68.5 t158.5 68.5t58.5 193.5q0 126 -58 192t-159 66t-159 -66t-58 -192z" />
<glyph unicode="&#xf5;" horiz-adv-x="1417" d="M37 514q0 172 87.5 295.5t237.5 184.5t347 61t347 -61t237 -184.5t87 -295.5t-87 -296.5t-237.5 -186.5t-346.5 -62t-346.5 62t-238 186.5t-87.5 296.5zM221 1260q58 268 301 268q61 0 117.5 -19.5t91.5 -43t76.5 -43t77.5 -19.5q42 0 69 28t45 95l209 -92 q-58 -269 -303 -269q-61 0 -116.5 20t-90 43.5t-76 43.5t-77.5 20q-43 0 -69.5 -28.5t-45.5 -96.5zM492 514q0 -125 58.5 -193.5t158.5 -68.5t158.5 68.5t58.5 193.5q0 126 -58 192t-159 66t-159 -66t-58 -192z" />
<glyph unicode="&#xf6;" horiz-adv-x="1417" d="M37 514q0 172 87.5 295.5t237.5 184.5t347 61t347 -61t237 -184.5t87 -295.5t-87 -296.5t-237.5 -186.5t-346.5 -62t-346.5 62t-238 186.5t-87.5 296.5zM238 1155v315h378v-315h-378zM492 514q0 -125 58.5 -193.5t158.5 -68.5t158.5 68.5t58.5 193.5q0 126 -58 192 t-159 66t-159 -66t-58 -192zM799 1155v315h379v-315h-379z" />
<glyph unicode="&#xf7;" horiz-adv-x="1284" d="M82 541v264h1120v-264h-1120zM467 287q0 76 48.5 124t121.5 48t122.5 -47.5t49.5 -124.5q0 -73 -49.5 -120.5t-122.5 -47.5t-121.5 47t-48.5 121zM467 1049q0 75 48.5 122.5t121.5 47.5q74 0 123 -47t49 -123q0 -73 -49.5 -121.5t-122.5 -48.5t-121.5 48t-48.5 122z" />
<glyph unicode="&#xf8;" horiz-adv-x="1417" d="M37 514q0 172 87.5 295.5t237.5 184.5t347 61q238 0 401 -88l117 110l84 -76l-105 -98q174 -141 174 -389q0 -172 -87 -296.5t-237.5 -186.5t-346.5 -62q-232 0 -400 88l-119 -112l-88 71l111 105q-176 146 -176 393zM492 514q0 -62 16 -115l344 324q-55 49 -143 49 q-101 0 -159 -66t-58 -192zM569 301q52 -49 140 -49q100 0 158.5 68.5t58.5 193.5q0 62 -15 111z" />
<glyph unicode="&#xf9;" horiz-adv-x="1497" d="M106 395v629h451v-526q0 -209 172 -209q91 0 141 54.5t50 150.5v530h452v-1024h-436v197q-50 -109 -158 -168.5t-248 -59.5q-205 0 -314.5 111.5t-109.5 314.5zM217 1487h414l282 -332h-342z" />
<glyph unicode="&#xfa;" horiz-adv-x="1497" d="M106 395v629h451v-526q0 -209 172 -209q91 0 141 54.5t50 150.5v530h452v-1024h-436v197q-50 -109 -158 -168.5t-248 -59.5q-205 0 -314.5 111.5t-109.5 314.5zM555 1155l283 332h413l-354 -332h-342z" />
<glyph unicode="&#xfb;" horiz-adv-x="1497" d="M106 395v629h451v-526q0 -209 172 -209q91 0 141 54.5t50 150.5v530h452v-1024h-436v197q-50 -109 -158 -168.5t-248 -59.5q-205 0 -314.5 111.5t-109.5 314.5zM254 1155l256 332h451l256 -332h-324l-158 211l-157 -211h-324z" />
<glyph unicode="&#xfc;" horiz-adv-x="1497" d="M106 395v629h451v-526q0 -209 172 -209q91 0 141 54.5t50 150.5v530h452v-1024h-436v197q-50 -109 -158 -168.5t-248 -59.5q-205 0 -314.5 111.5t-109.5 314.5zM264 1155v315h379v-315h-379zM825 1155v315h379v-315h-379z" />
<glyph unicode="&#xfd;" horiz-adv-x="1368" d="M-8 1024h493l177 -545q26 -67 36 -129h9q15 66 34 125l170 549h463l-442 -1063q-85 -204 -232 -294.5t-399 -90.5q-113 0 -221 21v319q99 -16 172 -16q75 0 134 20t81 62l4 16zM516 1155l283 332h413l-354 -332h-342z" />
<glyph unicode="&#xfe;" horiz-adv-x="1511" d="M135 -399v1884h453v-594q62 78 162.5 121t224.5 43q223 0 358 -147.5t135 -391.5q0 -249 -141 -398t-375 -149q-236 0 -366 164v-532h-451zM578 492q0 -108 58.5 -174t156.5 -66t153 71t55 195q0 123 -54.5 189.5t-155.5 66.5q-100 0 -156.5 -64t-56.5 -180v-38z" />
<glyph unicode="&#xff;" horiz-adv-x="1368" d="M-8 1024h493l177 -545q26 -67 36 -129h9q15 66 34 125l170 549h463l-442 -1063q-85 -204 -232 -294.5t-399 -90.5q-113 0 -221 21v319q99 -16 172 -16q75 0 134 20t81 62l4 16zM225 1155v315h379v-315h-379zM786 1155v315h379v-315h-379z" />
<glyph unicode="&#x152;" horiz-adv-x="2443" d="M37 739q0 222 101.5 385t281 246.5t416.5 83.5h1499v-326h-776v-235h741v-309h-741v-258h790v-326h-1534q-233 0 -409 89t-272.5 256.5t-96.5 393.5zM522 733q0 -190 99.5 -302t273.5 -112h197v816h-205q-172 0 -268.5 -107.5t-96.5 -294.5z" />
<glyph unicode="&#x153;" horiz-adv-x="2273" d="M37 512q0 169 87.5 293t240.5 187t352 63q255 0 428 -125q177 125 444 125q306 0 472.5 -150t166.5 -416v-69h-862q12 -76 80.5 -120t175.5 -44q76 0 142.5 31.5t107.5 87.5l330 -148q-86 -121 -240 -189.5t-350 -68.5q-294 0 -469 125q-173 -125 -426 -125 q-197 0 -350.5 64t-241.5 188.5t-88 290.5zM492 512q0 -120 59.5 -187t165.5 -67t164.5 67t58.5 187t-58.5 187t-164.5 67t-165.5 -67t-59.5 -187zM1366 639h424q0 81 -55 129.5t-152 48.5t-153 -47t-64 -131z" />
<glyph unicode="&#x178;" horiz-adv-x="1581" d="M-18 1454h503l267 -510q31 -50 41 -104h4q10 54 41 104l272 510h489l-573 -965v-489h-469v489zM332 1548v254h366v-254h-366zM893 1548v254h364v-254h-364z" />
<glyph unicode="&#x2c6;" horiz-adv-x="1228" d="M82 1155l256 332h450l256 -332h-323l-158 211l-157 -211h-324z" />
<glyph unicode="&#x2dc;" horiz-adv-x="1228" d="M111 1260q58 268 301 268q61 0 117.5 -19.5t91 -43t76 -43t77.5 -19.5q42 0 69.5 28t45.5 95l209 -92q-58 -269 -303 -269q-61 0 -117 20t-90.5 43.5t-76 43.5t-77.5 20q-43 0 -69.5 -28.5t-45.5 -96.5z" />
<glyph unicode="&#x2000;" horiz-adv-x="1022" />
<glyph unicode="&#x2001;" horiz-adv-x="2044" />
<glyph unicode="&#x2002;" horiz-adv-x="1022" />
<glyph unicode="&#x2003;" horiz-adv-x="2044" />
<glyph unicode="&#x2004;" horiz-adv-x="681" />
<glyph unicode="&#x2005;" horiz-adv-x="511" />
<glyph unicode="&#x2006;" horiz-adv-x="340" />
<glyph unicode="&#x2007;" horiz-adv-x="340" />
<glyph unicode="&#x2008;" horiz-adv-x="255" />
<glyph unicode="&#x2009;" horiz-adv-x="408" />
<glyph unicode="&#x200a;" horiz-adv-x="113" />
<glyph unicode="&#x2010;" horiz-adv-x="1028" d="M82 399v340h864v-340h-864z" />
<glyph unicode="&#x2011;" horiz-adv-x="1028" d="M82 399v340h864v-340h-864z" />
<glyph unicode="&#x2012;" horiz-adv-x="1028" d="M82 399v340h864v-340h-864z" />
<glyph unicode="&#x2013;" horiz-adv-x="1482" d="M82 395v346h1319v-346h-1319z" />
<glyph unicode="&#x2014;" horiz-adv-x="1970" d="M82 391v354h1806v-354h-1806z" />
<glyph unicode="&#x2018;" horiz-adv-x="638" d="M102 770v383q0 139 84 237.5t263 129.5l59 -168q-97 -21 -136.5 -61t-39.5 -109v-8h205v-404h-435z" />
<glyph unicode="&#x2019;" horiz-adv-x="638" d="M102 1051v403h435v-383q0 -139 -84 -237t-263 -129l-59 167q97 21 136.5 61t39.5 109v9h-205z" />
<glyph unicode="&#x201a;" horiz-adv-x="638" d="M102 0v403h435v-383q0 -139 -84 -237t-263 -129l-59 168q97 21 136.5 61t39.5 109v8h-205z" />
<glyph unicode="&#x201c;" horiz-adv-x="1181" d="M102 770v383q0 139 84 237.5t263 129.5l59 -168q-97 -21 -136.5 -61t-39.5 -109v-8h205v-404h-435zM645 770v383q0 139 83.5 237.5t262.5 129.5l60 -168q-98 -21 -137.5 -61t-39.5 -109v-8h205v-404h-434z" />
<glyph unicode="&#x201d;" horiz-adv-x="1181" d="M102 1053v403h435v-383q0 -139 -84 -237t-263 -129l-59 167q97 21 136.5 61t39.5 109v9h-205zM645 1053v403h434v-383q0 -139 -83.5 -237t-262.5 -129l-59 167q97 21 136.5 61t39.5 109v9h-205z" />
<glyph unicode="&#x201e;" horiz-adv-x="1181" d="M102 2v404h435v-383q0 -139 -84 -237.5t-263 -129.5l-59 168q97 21 136.5 61t39.5 109v8h-205zM645 2v404h434v-383q0 -139 -83.5 -237.5t-262.5 -129.5l-59 168q97 21 136.5 61t39.5 109v8h-205z" />
<glyph unicode="&#x2022;" horiz-adv-x="813" d="M102 686q0 135 86 219t218 84q134 0 219.5 -82.5t85.5 -220.5q0 -131 -86 -214t-219 -83q-132 0 -218 83t-86 214z" />
<glyph unicode="&#x2026;" horiz-adv-x="2013" d="M102 0v381h449v-381h-449zM782 0v381h449v-381h-449zM1462 0v381h449v-381h-449z" />
<glyph unicode="&#x202f;" horiz-adv-x="408" />
<glyph unicode="&#x2039;" horiz-adv-x="849" d="M29 567l405 420h385l-403 -418l397 -432h-389z" />
<glyph unicode="&#x203a;" horiz-adv-x="849" d="M31 987h385l405 -420l-395 -430h-389l397 432z" />
<glyph unicode="&#x205f;" horiz-adv-x="511" />
<glyph unicode="&#x20ac;" horiz-adv-x="1724" d="M4 514v141h139q-2 23 -2 68v37h-137v139h156q55 259 264.5 410t531.5 151q280 0 476 -109.5t258 -299.5l-437 -103q-25 83 -103 130.5t-196 47.5q-253 0 -325 -227h481v-139h-504v-37q0 -45 2 -68h502v-141h-471q79 -217 319 -217q118 0 195.5 54t103.5 143l433 -115 q-85 -202 -277.5 -310t-472.5 -108q-314 0 -515 147.5t-261 405.5h-160z" />
<glyph unicode="&#x2122;" horiz-adv-x="2052" d="M10 1237v217h817v-217h-274v-614h-274v614h-269zM924 623v831h387l108 -412q23 -89 27 -153h4q4 64 27 153l108 412h387v-831h-241v424q0 89 6 200h-4q-12 -61 -41 -164l-127 -460h-232l-129 460q-29 103 -41 164h-2q4 -74 4 -200v-424h-241z" />
<glyph unicode="&#x25fc;" horiz-adv-x="1024" d="M0 0v1024h1024v-1024h-1024z" />
</font>
</defs>
</svg>
