<?xml version="1.0" standalone="no"?>
<!DOCTYPE svg PUBLIC "-//W3C//DTD SVG 1.1//EN" "http://www.w3.org/Graphics/SVG/1.1/DTD/svg11.dtd" >
<svg xmlns="http://www.w3.org/2000/svg" xmlns:xlink="http://www.w3.org/1999/xlink" version="1.1">
<metadata></metadata>
<defs>
<font id="gt_americaExBdIt" horiz-adv-x="1406" >
<font-face units-per-em="2048" ascent="1638" descent="-410" />
<missing-glyph horiz-adv-x="638" />
<glyph unicode="&#xfb01;" horiz-adv-x="1632" d="M84 795l41 229h225l15 80q34 193 153.5 295t323.5 102q142 0 266 -39l-43 -241q-77 26 -168 26q-89 0 -129.5 -37.5t-54.5 -117.5l-11 -68h326l-41 -229h-325l-142 -795h-350l139 795h-225zM1036 0l187 1024h348l-187 -1024h-348zM1237 1171l55 306h369l-55 -306h-369z " />
<glyph unicode="&#xfb02;" horiz-adv-x="1648" d="M84 795l41 229h225l15 80q34 193 153.5 295t323.5 102q142 0 266 -39l-43 -241q-77 26 -168 26q-89 0 -129.5 -37.5t-54.5 -117.5l-11 -68h326l-41 -229h-325l-142 -795h-350l139 795h-225zM1047 0l262 1485h350l-262 -1485h-350z" />
<glyph horiz-adv-x="0" />
<glyph horiz-adv-x="0" />
<glyph horiz-adv-x="682" />
<glyph unicode="&#xd;" horiz-adv-x="0" />
<glyph unicode=" "  horiz-adv-x="638" />
<glyph unicode="&#x09;" horiz-adv-x="638" />
<glyph unicode="&#xa0;" horiz-adv-x="638" />
<glyph unicode="!" horiz-adv-x="741" d="M84 0l57 315h391l-57 -315h-391zM221 481l123 1004h397l-231 -1004h-289z" />
<glyph unicode="&#x22;" horiz-adv-x="1030" d="M227 811l66 643h332l-160 -643h-238zM674 811l65 643h332l-160 -643h-237z" />
<glyph unicode="#" horiz-adv-x="1490" d="M45 356v224h285l49 262h-252v223h293l67 352h265l-68 -352h303l68 352h266l-68 -352h252v-223h-293l-49 -262h273v-224h-316l-67 -356h-267l68 356h-303l-68 -356h-264l68 356h-242zM594 580h303l49 262h-303z" />
<glyph unicode="$" horiz-adv-x="1482" d="M-37 305l277 160q101 -212 370 -244l68 387l-68 10q-99 16 -177.5 46.5t-139 78.5t-93 118.5t-32.5 158.5q0 69 20 130.5t68.5 119.5t122.5 99t189 66t261 25l31 176h137l-32 -182q188 -16 328.5 -86t209.5 -199l-252 -168q-97 175 -327 211l-62 -348l129 -20 q209 -36 313.5 -133t104.5 -265q0 -77 -21.5 -145.5t-73 -131t-129.5 -107t-199 -71t-273 -26.5h-8l-33 -182h-140l33 188q-221 21 -378 105.5t-224 228.5zM496 1055q0 -67 52.5 -106.5t178.5 -63.5l59 336q-290 -5 -290 -166zM748 215q327 3 327 193q0 78 -53.5 117.5 t-175.5 60.5l-33 4z" />
<glyph unicode="%" horiz-adv-x="2160" d="M129 1032q0 65 17.5 126.5t56 118.5t94.5 99.5t139.5 68t184.5 25.5q63 0 121.5 -10t116 -35t100 -63t68.5 -98.5t26 -137.5q0 -81 -29 -157t-86.5 -140t-155 -102.5t-221.5 -38.5q-63 0 -121 9.5t-116 34.5t-100 63t-68.5 99t-26.5 138zM270 -33l1448 1516h248 l-1448 -1516h-248zM391 1042q0 -46 15.5 -79.5t42 -51t55 -25t61.5 -7.5q58 0 103 22.5t71 58.5t39 76.5t13 81.5q0 45 -15.5 78.5t-42 50.5t-55.5 25t-62 8q-58 0 -103 -22t-70.5 -58t-38.5 -76.5t-13 -81.5zM1178 309q0 82 28.5 158t85.5 140t154.5 102.5t222.5 38.5 q63 0 121.5 -10t116 -35t100 -63t68.5 -99t26 -138q0 -81 -29 -157t-86 -140t-154.5 -102.5t-221.5 -38.5q-63 0 -121 9.5t-116 34.5t-100 63t-68.5 99t-26.5 138zM1440 319q0 -46 15.5 -79.5t42 -51t55 -25t61.5 -7.5q58 0 103 22.5t70.5 58.5t38.5 76.5t13 81.5 q0 60 -27.5 98t-64 51t-82.5 13q-58 0 -103 -22t-70.5 -58t-38.5 -76.5t-13 -81.5z" />
<glyph unicode="&#x26;" horiz-adv-x="1632" d="M6 367q0 287 391 428q-114 152 -114 313q0 57 14 110.5t50 107.5t90 93.5t142 64.5t199 25q66 0 128 -8.5t126.5 -32t111.5 -59t77 -95t30 -134.5q0 -44 -9.5 -85.5t-37 -91t-72 -93t-120 -88t-174.5 -79.5l284 -303q117 159 181 398l260 -54q-80 -306 -260 -514 q64 -37 137 -37q63 0 116 17l-43 -244q-73 -33 -178 -33q-146 0 -268 103q-206 -117 -481 -117q-82 0 -157 9.5t-154.5 37t-137 71.5t-94.5 118.5t-37 171.5zM369 412q0 -60 25 -103.5t68 -66.5t89.5 -33t99.5 -10q132 0 248 53l-362 385q-95 -46 -131.5 -102t-36.5 -123z M600 1126q0 -109 100 -231l7 2q237 82 237 246q0 90 -47 127t-119 37q-43 0 -76 -12t-52 -30t-30.5 -43.5t-15.5 -48t-4 -47.5z" />
<glyph unicode="'" horiz-adv-x="585" d="M227 811l66 643h332l-160 -643h-238z" />
<glyph unicode="(" horiz-adv-x="800" d="M137 522q0 159 34.5 303t88 252t134 210t156 172t171.5 145l229 -164q-90 -78 -151 -137.5t-129 -147t-108.5 -173t-67.5 -201.5t-27 -246q0 -170 45.5 -333t159.5 -370l-277 -121q-258 382 -258 811z" />
<glyph unicode=")" horiz-adv-x="800" d="M-98 -123q90 78 151 137.5t129 147t108.5 173t67.5 201.5t27 246q0 170 -45.5 333t-159.5 370l277 121q258 -382 258 -811q0 -159 -34.5 -303t-88 -252t-134 -210t-156 -172t-171.5 -145z" />
<glyph unicode="*" horiz-adv-x="829" d="M125 1114l121 236l225 -148l-16 277h258l-111 -279l275 150l38 -238l-292 -35l186 -194l-227 -148l-78 269l-170 -269l-182 152l254 192z" />
<glyph unicode="+" horiz-adv-x="1271" d="M102 563l39 221h420l66 371h243l-65 -371h422l-39 -221h-422l-70 -393h-243l69 393h-420z" />
<glyph unicode="," horiz-adv-x="626" d="M27 -182q166 26 190 162l4 20h-184l61 348h371l-61 -350q-13 -71 -43.5 -127t-67 -89.5t-82.5 -57t-82.5 -33.5t-75.5 -15z" />
<glyph unicode="-" horiz-adv-x="1030" d="M80 432l47 277h844l-49 -277h-842z" />
<glyph unicode="." horiz-adv-x="632" d="M37 0l59 334h379l-59 -334h-379z" />
<glyph unicode="/" horiz-adv-x="1224" d="M-47 -240l1051 1796h319l-1051 -1796h-319z" />
<glyph unicode="0" horiz-adv-x="1593" d="M109 604q0 80 11.5 160.5t38.5 166t67.5 161.5t103.5 144.5t141.5 118t185.5 78.5t232 29q102 0 193.5 -18.5t180 -64.5t152 -117t102.5 -184.5t39 -258.5q0 -80 -11.5 -160.5t-39 -166t-68 -161.5t-103.5 -144.5t-141.5 -118t-185.5 -78.5t-231 -29q-102 0 -193.5 18.5 t-180 64.5t-152 117t-102.5 184.5t-39 258.5zM473 584q0 -99 25.5 -171t69.5 -111t95 -57t111 -18q77 0 141.5 28.5t109 78t78 111t52.5 132t28 136t9 127.5q0 80 -17 142t-45.5 102t-68.5 65.5t-82 36t-90 10.5q-91 0 -165 -41.5t-119.5 -105.5t-76.5 -148t-43 -162.5 t-12 -154.5z" />
<glyph unicode="1" horiz-adv-x="972" d="M106 874l56 308h69q152 0 246.5 59.5t149.5 181.5h293l-250 -1423h-353l170 965q-37 -42 -110 -66.5t-164 -24.5h-107z" />
<glyph unicode="2" horiz-adv-x="1429" d="M-20 0l45 252q501 205 739 358q136 86 203 176t67 199q0 63 -22.5 107t-61 65t-76.5 29t-83 8q-272 0 -281 -266q0 -32 4 -68l-356 33q-4 40 -4 76q1 47 11 93t32.5 96t56.5 93t87 82.5t119.5 67.5t158.5 44.5t200 16.5q90 0 171.5 -11.5t161.5 -42t137.5 -77 t93.5 -122.5t36 -173q0 -89 -28 -168t-81 -145t-114 -118.5t-143 -104.5q-189 -119 -465 -226h719l-50 -274h-1277z" />
<glyph unicode="3" horiz-adv-x="1449" d="M41 440l365 33q5 -61 25 -107t48.5 -72.5t68.5 -43t78.5 -22t84.5 -5.5q136 0 201 57.5t65 147.5q0 53 -21.5 89.5t-61 55t-84 26t-101.5 7.5h-109l41 228h137q139 0 207 52.5t68 143.5q0 50 -22 86t-60.5 54t-79 26t-88.5 8q-275 0 -307 -260l-344 43q29 219 196 347 t465 128q86 0 164 -8.5t163 -34t146 -66t101 -110t40 -160.5q0 -155 -111.5 -251.5t-279.5 -114.5q144 -20 228 -94t84 -211q0 -87 -37 -165.5t-110.5 -143.5t-198 -103.5t-283.5 -38.5q-104 0 -195 13t-181 46.5t-154.5 86t-105 138t-42.5 195.5z" />
<glyph unicode="4" horiz-adv-x="1452" d="M-12 311l41 232l932 880h378l-151 -862h256l-45 -250h-254l-55 -311h-351l56 311h-807zM365 561h483l88 432q27 133 37 168h-6q-47 -70 -131 -149l-330 -328q-96 -90 -141 -123z" />
<glyph unicode="5" horiz-adv-x="1425" d="M45 377l354 51q40 -203 283 -203q86 0 148.5 25.5t94.5 68t46 88.5t14 97q0 61 -20.5 107t-56.5 72.5t-79 39t-94 12.5q-111 0 -182 -43.5t-117 -132.5l-311 29l237 835h1055l-49 -268h-799l-104 -342q58 83 162.5 125.5t228.5 42.5q47 0 92.5 -5.5t95 -20t93 -36.5 t83.5 -57t68 -79.5t45 -107t17 -136.5q0 -82 -19.5 -159.5t-68 -155t-122 -134.5t-192.5 -93t-268 -36q-87 0 -166.5 11t-162 40.5t-144.5 75t-106.5 120t-55.5 169.5z" />
<glyph unicode="6" horiz-adv-x="1486" d="M109 598q0 88 11.5 172.5t39 171.5t69 162.5t104.5 142t142.5 113.5t186.5 74.5t233 27.5q77 0 148.5 -10t147.5 -37.5t134 -70t101 -113t55 -160.5l-351 -49q-23 102 -92.5 143t-158.5 39q-88 -1 -159 -33t-119 -88.5t-79 -124.5t-49 -151q144 160 412 160q83 0 157 -15 t141.5 -49t116.5 -86t78 -131t29 -178q0 -111 -42.5 -209t-122 -174t-205.5 -120t-283 -44q-99 0 -186.5 17.5t-173.5 62.5t-147.5 114.5t-99.5 183t-38 259.5zM453 549q5 -80 25.5 -140t49.5 -95.5t69 -57.5t76.5 -29.5t78.5 -7.5q82 0 142.5 24t94 65.5t49 88.5t15.5 101 q0 61 -21.5 106t-60 69.5t-83 36t-97.5 11.5q-110 0 -197 -44.5t-141 -127.5z" />
<glyph unicode="7" horiz-adv-x="1259" d="M145 1141l50 282h1202l-47 -264q-653 -409 -742 -1087l-8 -72h-389l6 41q43 318 240.5 603.5t529.5 496.5h-842z" />
<glyph unicode="8" horiz-adv-x="1488" d="M39 358q0 134 93 231t282 132q-211 101 -211 315q0 65 20 124t67.5 115t118.5 97t180 65.5t245 24.5q90 0 175 -11t169.5 -38t147 -68t101.5 -106.5t39 -148.5q0 -117 -78.5 -200.5t-244.5 -117.5q126 -49 194 -131t68 -213q0 -76 -22.5 -142.5t-75 -127t-131.5 -103.5 t-197.5 -68.5t-267.5 -25.5q-100 0 -193 12.5t-181 42.5t-153.5 74.5t-105 113.5t-39.5 154zM414 414q0 -57 26 -98.5t72 -64t99 -32.5t116 -10q88 0 152 18t97.5 48.5t48.5 64.5t15 72q0 82 -62 128t-187 76l-148 35q-118 -32 -173.5 -95t-55.5 -142zM555 1051 q0 -43 17.5 -75t52 -52.5t69 -33t84.5 -24.5l140 -32q192 62 192 208q0 46 -18.5 81.5t-46.5 56t-66 33t-71.5 16.5t-69.5 4q-68 0 -120 -11.5t-82 -29.5t-49 -43.5t-25.5 -48.5t-6.5 -49z" />
<glyph unicode="9" horiz-adv-x="1495" d="M76 362l352 52q6 -45 27 -80.5t49 -56t64 -34t68 -18t64 -4.5q92 0 164 35.5t117.5 98.5t73 134t41.5 156q-165 -145 -394 -145q-80 0 -155.5 15t-147 50t-125 86t-86 128.5t-32.5 172.5q0 73 19 141.5t66.5 136.5t118.5 118.5t184.5 82t256.5 31.5q69 0 132 -7.5 t130 -27t122.5 -50.5t106.5 -81t86 -114.5t55.5 -155.5t20.5 -201q0 -50 -3.5 -100.5t-14 -116.5t-28 -126.5t-48 -127t-70.5 -122t-99.5 -107t-131 -87t-168.5 -56.5t-209 -21q-69 0 -133.5 8t-131 26t-122.5 49.5t-102.5 74.5t-77 105t-39.5 138zM508 963q0 -75 38 -125 t95.5 -70t132.5 -20q219 0 344 159q-6 88 -34 151t-72.5 95.5t-93.5 46.5t-107 14q-86 0 -148 -22.5t-94 -61t-46.5 -80t-14.5 -87.5z" />
<glyph unicode=":" horiz-adv-x="632" d="M37 0l59 334h379l-59 -334h-379zM158 690l59 334h379l-59 -334h-379z" />
<glyph unicode=";" horiz-adv-x="643" d="M41 -182q166 26 190 162l5 20h-185l62 348h370l-61 -350q-13 -71 -43.5 -127t-66.5 -89.5t-82 -57t-82.5 -33.5t-75.5 -15zM158 690l59 334h379l-59 -334h-379z" />
<glyph unicode="&#x3c;" horiz-adv-x="1538" d="M317 555l39 225l1121 410l-45 -262l-807 -273l710 -272l-43 -238z" />
<glyph unicode="=" horiz-adv-x="1257" d="M68 369l38 217h1074l-41 -217h-1071zM137 762l39 217h1073l-41 -217h-1071z" />
<glyph unicode="&#x3e;" horiz-adv-x="1538" d="M117 145l45 263l807 272l-711 272l43 238l975 -410l-39 -225z" />
<glyph unicode="?" horiz-adv-x="1339" d="M131 1038q0 70 20 135t69 127t122.5 107.5t188.5 73.5t260 28q73 0 140.5 -8t137.5 -25t127 -48.5t102 -74.5t70 -107t25 -142q0 -138 -78.5 -230.5t-233.5 -164.5l-141 -64q-69 -33 -97 -70.5t-38 -95.5l-8 -51h-340l12 82q15 99 63 161t150 107l168 72q172 76 172 219 q0 53 -22 91t-59.5 58.5t-79.5 29.5t-91 9q-85 0 -146 -21.5t-92.5 -59.5t-45 -80t-13.5 -92t6 -80l-338 28q-10 42 -10 86zM362 0l54 315h387l-55 -315h-386z" />
<glyph unicode="@" horiz-adv-x="1910" d="M66 508q0 128 31.5 246.5t104.5 229.5t181 192.5t272.5 130.5t366.5 49q94 0 181.5 -10.5t173.5 -35t159.5 -61.5t136.5 -92.5t107 -125t69 -163t25 -202.5q0 -110 -26 -204.5t-78 -169t-138 -117t-198 -42.5q-121 0 -192 48t-83 132q-65 -93 -166.5 -141.5t-222.5 -48.5 q-64 0 -121 14t-105.5 43t-77 79.5t-28.5 117.5q0 116 95 194.5t307 92.5l329 18l7 41q8 83 -35.5 117t-122.5 34q-171 0 -193 -135h-290q9 46 28 88.5t57.5 86t90.5 75.5t132 52t177 20q75 0 138 -11.5t122 -41t96.5 -76t54 -122t1.5 -173.5l-29 -203q-23 -145 94 -145 q59 0 102.5 32.5t67 87.5t34.5 115.5t11 128.5q0 97 -22 178t-59 138.5t-90.5 102t-112 72t-128.5 45t-134.5 24t-135.5 6.5q-181 0 -323 -43.5t-229.5 -113t-145 -163.5t-79.5 -187t-22 -192q0 -130 39 -234t103 -169.5t150.5 -109.5t176 -61.5t185.5 -17.5q224 0 422 66 l34 -125q-196 -82 -444 -82q-131 0 -249.5 24.5t-226 80t-185.5 137.5t-124 205t-46 274zM741 410q0 -99 136 -99q100 0 173.5 51t88.5 136l8 49l-232 -12q-94 -5 -134 -40.5t-40 -84.5z" />
<glyph unicode="A" horiz-adv-x="1722" d="M-66 0l875 1454h436l361 -1454h-363l-65 317h-666l-178 -317h-400zM651 567h473l-75 365q-33 125 -45 272h-5q-41 -98 -143 -272z" />
<glyph unicode="B" horiz-adv-x="1634" d="M78 0l256 1454h821q139 0 240 -34t162 -113t61 -197q0 -151 -95 -242.5t-255 -119.5q123 -18 196.5 -98.5t73.5 -217.5q0 -69 -19 -130t-63 -117t-110.5 -96.5t-167.5 -64.5t-228 -24h-872zM489 252h402q264 0 264 203q0 90 -53.5 129t-163.5 39h-383zM596 860h383 q133 0 188.5 53t55.5 136q0 153 -191 153h-375z" />
<glyph unicode="C" horiz-adv-x="1701" d="M90 637q0 124 29.5 242t98.5 231t169.5 197.5t255.5 136t344 51.5q147 0 270.5 -30t224 -92.5t164.5 -167t80 -244.5l-383 -64q-42 309 -370 309q-111 0 -199 -35.5t-143 -91.5t-91 -131.5t-50.5 -149t-14.5 -149.5q0 -93 22.5 -164.5t59 -115t88.5 -71.5t105 -38 t114 -10q321 0 416 299l365 -80q-195 -510 -791 -510q-130 0 -242 23t-209 74.5t-166 129t-108 192.5t-39 259z" />
<glyph unicode="D" horiz-adv-x="1744" d="M78 0l256 1454h649q128 0 238.5 -22t206 -70.5t162.5 -122t105 -181.5t38 -243q0 -128 -33.5 -245.5t-106.5 -222t-180 -181t-264 -121.5t-348 -45h-723zM492 264h307q123 0 220 32.5t157 84.5t99.5 123t55 142.5t15.5 148.5q0 109 -31.5 188.5t-87 123t-120.5 63.5 t-142 20h-310z" />
<glyph unicode="E" horiz-adv-x="1486" d="M78 0l256 1454h1192l-47 -266h-824l-57 -318h791l-46 -258h-790l-61 -344h839l-47 -268h-1206z" />
<glyph unicode="F" horiz-adv-x="1425" d="M78 0l256 1454h1192l-47 -274h-826l-57 -324h788l-47 -268h-788l-105 -588h-366z" />
<glyph unicode="G" horiz-adv-x="1746" d="M86 612q0 129 30 251t99 238t171 202.5t258.5 139t348.5 52.5q191 0 343 -50t255 -154.5t133 -254.5l-383 -69q-25 130 -121 193t-245 63q-108 0 -195.5 -35.5t-143.5 -94t-94 -136.5t-53.5 -158.5t-15.5 -165.5q0 -402 387 -402q187 0 300.5 87t139.5 212l7 29h-443 l43 252h783l-144 -811h-268l25 227q-71 -126 -212 -197t-339 -71q-142 0 -261 39t-210.5 117t-143 205t-51.5 292z" />
<glyph unicode="H" horiz-adv-x="1777" d="M78 0l256 1454h366l-100 -580h705l102 580h369l-256 -1454h-369l106 600h-706l-107 -600h-366z" />
<glyph unicode="I" horiz-adv-x="702" d="M78 0l256 1454h366l-256 -1454h-366z" />
<glyph unicode="J" horiz-adv-x="946" d="M-57 6l53 293q112 -25 188 -25q117 0 181 54.5t84 171.5l167 954h367l-182 -1028q-41 -238 -185.5 -345.5t-384.5 -107.5q-160 0 -288 33z" />
<glyph unicode="K" horiz-adv-x="1675" d="M78 0l256 1454h366l-112 -639l751 639h437l-666 -569l442 -885h-413l-318 651l-307 -258l-70 -393h-366z" />
<glyph unicode="L" horiz-adv-x="1339" d="M78 0l256 1454h366l-202 -1159h759l-51 -295h-1128z" />
<glyph unicode="M" horiz-adv-x="2117" d="M78 0l256 1454h508l159 -907q13 -84 13 -146v-22h4q23 70 72 170l475 905h551l-256 -1454h-338l174 973q14 84 45 190h-8q-28 -73 -80 -168l-533 -995h-323l-185 995q-16 85 -16 166h-8q-3 -73 -23 -188l-170 -973h-317z" />
<glyph unicode="N" horiz-adv-x="1779" d="M78 0l256 1454h393l453 -836q53 -99 77 -180h7q28 169 32 199l146 817h336l-256 -1454h-371l-473 850q-58 109 -80 172h-6l-33 -201l-145 -821h-336z" />
<glyph unicode="O" horiz-adv-x="1785" d="M88 633q0 128 30 248t99 233t170.5 196.5t255 134t342.5 50.5q133 0 249.5 -24.5t216.5 -77t171 -130.5t111.5 -190.5t40.5 -251.5q0 -128 -30 -248t-99 -233t-170.5 -196.5t-255 -134t-342.5 -50.5q-134 0 -250.5 24.5t-216.5 77t-171 130.5t-111 190.5t-40 251.5z M473 651q0 -91 23 -162.5t61 -117t91 -75.5t110 -42t121 -12q110 0 199 33.5t146 88t95 128.5t54 151t16 160q0 91 -23 162.5t-61 117t-91.5 75.5t-110.5 42t-122 12q-110 0 -198 -33.5t-145 -88t-95 -128.5t-54 -151t-16 -160z" />
<glyph unicode="P" horiz-adv-x="1558" d="M78 0l256 1454h702q88 0 166 -11.5t154.5 -42.5t131.5 -78.5t88.5 -124.5t33.5 -177q0 -79 -19.5 -150.5t-67.5 -139.5t-120.5 -118t-186.5 -80t-258 -30h-423l-91 -502h-366zM580 756h319q91 0 156 21.5t99 59t48.5 78.5t14.5 89q0 46 -13.5 81t-35.5 56t-55 33.5 t-65.5 17t-72.5 4.5h-318z" />
<glyph unicode="Q" horiz-adv-x="1794" d="M88 633q0 128 30 248t99 233t170.5 196.5t255 134t342.5 50.5q133 0 249.5 -24.5t216.5 -77t171 -130.5t111.5 -190.5t40.5 -251.5q0 -124 -29.5 -241.5t-90 -225.5t-163 -196t-236.5 -138q80 -75 236 -75q71 0 151 14l-49 -285q-80 -12 -145 -12q-391 0 -492 299 q-25 -2 -79 -2q-134 0 -250.5 24.5t-216.5 77t-171 130.5t-111 190.5t-40 251.5zM473 651q0 -91 23 -162.5t61 -117t91 -75.5t110 -42t121 -12q110 0 199 33.5t146 88t95 128.5t54 151t16 160q0 91 -23 162.5t-61 117t-91.5 75.5t-110.5 42t-122 12q-110 0 -198 -33.5 t-145 -88t-95 -128.5t-54 -151t-16 -160z" />
<glyph unicode="R" horiz-adv-x="1619" d="M78 0l256 1454h737q88 0 164 -12.5t146 -42.5t120 -76t79.5 -118.5t29.5 -164.5q0 -78 -20 -146.5t-62.5 -130t-118.5 -108t-180 -71.5l239 -584h-405l-213 543h-309l-97 -543h-366zM584 786h340q84 0 144.5 20t92 55t46 73.5t14.5 83.5q0 98 -62.5 140t-161.5 42h-340z " />
<glyph unicode="S" horiz-adv-x="1507" d="M-35 322l297 182q121 -268 498 -268q301 0 301 180q0 68 -46 100.5t-157 50.5l-240 37q-203 33 -319.5 135.5t-116.5 282.5q0 75 20.5 141t69.5 128t123.5 106.5t191 71t263.5 26.5q115 0 216.5 -16t195.5 -50.5t168.5 -95.5t119.5 -145l-268 -191q-109 232 -448 232 q-291 -3 -291 -168q0 -63 49.5 -98.5t165.5 -55.5l250 -41q210 -37 318 -136t108 -281q0 -81 -21.5 -151t-72.5 -133.5t-129.5 -108t-198.5 -71t-273 -26.5q-296 0 -497 90t-277 273z" />
<glyph unicode="T" d="M131 1163l51 291h1374l-51 -291h-504l-204 -1163h-367l203 1163h-502z" />
<glyph unicode="U" horiz-adv-x="1693" d="M144 434q-2 26 -2 54q0 83 16 180l139 786h369l-146 -819q-11 -54 -12 -100q0 -27 4 -51q10 -64 36 -108.5t70.5 -72t95.5 -39.5t113 -12q323 0 385 348l150 854h369l-160 -905q-104 -590 -760 -590q-109 0 -202.5 16.5t-176.5 51.5t-142 90.5t-99 134t-47 182.5z" />
<glyph unicode="V" horiz-adv-x="1609" d="M166 1454h387l184 -958q15 -111 15 -177h8q22 72 78 177l522 958h416l-844 -1454h-434z" />
<glyph unicode="W" horiz-adv-x="2304" d="M205 1454h366l66 -944q1 -28 1 -53q0 -42 -3 -76h6q10 42 49 129l434 944h375l103 -944q4 -46 4 -82q0 -26 -2 -47h6q15 61 45 129l397 944h381l-670 -1454h-409l-92 969q-2 20 -2 43q0 33 4 73h-9q-16 -61 -41 -116l-432 -969h-422z" />
<glyph unicode="X" horiz-adv-x="1652" d="M-76 0l715 752l-432 702h416l233 -407q29 -53 39 -93h6q18 34 70 93l372 407h429l-674 -717l452 -737h-422l-247 428q-40 66 -47 104h-5q-22 -37 -84 -102l-387 -430h-434z" />
<glyph unicode="Y" horiz-adv-x="1525" d="M156 1454h385l231 -563q23 -64 23 -96h4q18 44 57 96l436 563h410l-756 -944l-90 -510h-369l88 510z" />
<glyph unicode="Z" horiz-adv-x="1480" d="M-4 0l45 254l1008 926h-811l47 274h1265l-43 -254l-1005 -928h876l-47 -272h-1335z" />
<glyph unicode="[" horiz-adv-x="800" d="M35 -240l317 1796h600l-41 -235h-280l-236 -1325h283l-43 -236h-600z" />
<glyph unicode="\" horiz-adv-x="1859" d="M270 1556h320l1050 -1796h-319z" />
<glyph unicode="]" horiz-adv-x="800" d="M-100 -240l41 236h280l236 1325h-283l43 235h600l-317 -1796h-600z" />
<glyph unicode="^" horiz-adv-x="1067" d="M111 909l452 543h273l260 -543h-260l-154 340l-274 -340h-297z" />
<glyph unicode="_" horiz-adv-x="1138" d="M-156 -367l35 193h1139l-35 -193h-1139z" />
<glyph unicode="`" horiz-adv-x="1228" d="M127 1487h342l330 -322h-281z" />
<glyph unicode="a" d="M31 266q0 152 114 236q123 95 402 110l397 19l6 39q2 16 2 30q0 62 -42 96q-52 42 -167 42q-107 0 -169.5 -37.5t-79.5 -120.5h-357q31 173 182 274t429 101q303 0 442 -118q107 -91 107 -256q0 -49 -9 -103l-49 -279q-31 -166 -31 -299h-344q0 74 17 174 q-61 -101 -175 -153t-266 -52q-188 0 -298.5 75t-110.5 222zM397 305q0 -123 189 -123q137 0 223 62t104 164l11 61l-279 -12q-248 -13 -248 -152z" />
<glyph unicode="b" horiz-adv-x="1497" d="M72 0l262 1485h350l-109 -611q66 83 168.5 132t229.5 49q66 0 129 -13.5t126 -46.5t109.5 -83t75.5 -130.5t29 -181.5q0 -85 -19 -169.5t-63.5 -169t-110.5 -148.5t-168 -104t-227 -40q-145 0 -254.5 49.5t-163.5 147.5l-49 -166h-315zM496 508q-7 -35 -7 -67 q1 -84 51 -148q70 -88 210 -88q71 0 128 24.5t93 63.5t60 89.5t34 99t10 96.5q0 69 -22 118.5t-60.5 75t-79.5 36.5t-88 11q-121 0 -205.5 -66.5t-107.5 -166.5z" />
<glyph unicode="c" horiz-adv-x="1363" d="M55 457q0 86 21 167t71.5 160.5t126.5 138.5t195.5 95.5t269.5 36.5q111 0 208 -20t181.5 -62.5t140 -117.5t70.5 -177l-354 -60q-19 103 -87 146t-161 43q-72 0 -129.5 -21.5t-92 -56t-57.5 -80t-31.5 -90t-8.5 -90.5q0 -69 21 -118.5t58 -77t80.5 -40t96.5 -12.5 q210 0 274 193l334 -68q-58 -171 -214 -274t-409 -103q-86 0 -165.5 12.5t-161.5 46.5t-141.5 87t-97.5 141t-38 201z" />
<glyph unicode="d" horiz-adv-x="1499" d="M57 434q0 89 21 175.5t67.5 167.5t113.5 142.5t166.5 98.5t219.5 37q142 0 247.5 -49t156.5 -140l108 619h350l-260 -1485h-336l31 184q-60 -98 -165.5 -156.5t-246.5 -58.5q-69 0 -133 14t-127 48t-109.5 86t-75 133.5t-28.5 183.5zM424 455q0 -57 14.5 -101.5t38 -72 t57 -45t68 -24.5t74.5 -7q128 0 207 73t98 175l12 71q7 37 7 70q0 36 -8 67q-16 59 -56.5 92.5t-91.5 49.5t-111 16q-66 0 -120 -23t-88 -59.5t-57.5 -85t-33.5 -97.5t-10 -99z" />
<glyph unicode="e" horiz-adv-x="1368" d="M55 455q0 88 22 170.5t73 161.5t127 138t193 94.5t261 35.5q91 0 172 -13.5t157 -46.5t130.5 -82.5t87.5 -126.5t33 -174q0 -89 -25 -178h-895q5 -63 32.5 -108.5t71 -70t92.5 -35.5t105 -11q115 0 184.5 38.5t114.5 110.5l242 -120q-167 -269 -559 -269q-59 0 -116.5 6 t-120 21.5t-116.5 39.5t-104 62.5t-85 87.5t-56 118t-21 151zM403 625h576q6 15 6 45q0 91 -77 138.5t-189 47.5q-136 0 -215 -63t-101 -168z" />
<glyph unicode="f" horiz-adv-x="974" d="M84 795l41 229h225l15 80q34 193 153.5 295t323.5 102q142 0 266 -39l-43 -241q-77 26 -168 26q-89 0 -129.5 -37.5t-54.5 -117.5l-11 -68h326l-41 -229h-325l-142 -795h-350l139 795h-225z" />
<glyph unicode="g" horiz-adv-x="1400" d="M-66 -186q0 75 54.5 124.5t175.5 73.5q-131 54 -131 183q0 181 258 243q-137 80 -137 238q0 56 17 108t59.5 102t107 87t168 59.5t233.5 22.5q197 0 326 -47q34 95 110 145.5t187 50.5q58 0 119 -14l-41 -229q-58 22 -133 22q-89 0 -129 -37q104 -81 104 -215 q0 -56 -17.5 -108t-60.5 -102t-108 -87t-168.5 -59.5t-233.5 -22.5q-183 0 -311 43q-53 -23 -53 -71q0 -38 33 -55.5t112 -18.5l363 -4q78 -1 137 -8.5t114.5 -26t90.5 -49t56 -81t21 -118.5q0 -393 -749 -393q-129 0 -228.5 12t-180 38.5t-123 75.5t-42.5 118zM211 -113 q0 -44 27.5 -72.5t81.5 -42.5t111 -19t136 -5q110 0 186 10.5t115.5 29.5t55.5 41.5t16 51.5q0 47 -35 65.5t-112 20.5l-369 4q-83 0 -156 13q-57 -38 -57 -97zM496 688q0 -45 18 -77.5t49.5 -49.5t66.5 -25t75 -8q65 0 112.5 17t72.5 46t36.5 61.5t11.5 68.5q0 45 -18 77.5 t-49.5 49.5t-66.5 25t-75 8q-65 0 -112.5 -17.5t-72.5 -46.5t-36.5 -61t-11.5 -68z" />
<glyph unicode="h" horiz-adv-x="1492" d="M72 0l262 1485h350l-115 -651q138 223 418 223q59 0 112.5 -10.5t106 -38t90 -70t61 -111.5t23.5 -157q0 -75 -18 -183l-86 -487h-350l88 496q10 46 10 98q0 109 -58 156t-153 47q-75 0 -130.5 -25t-90 -72t-54.5 -100.5t-32 -122.5l-84 -477h-350z" />
<glyph unicode="i" horiz-adv-x="657" d="M61 0l187 1024h348l-186 -1024h-349zM262 1171l55 306h369l-55 -306h-369z" />
<glyph unicode="j" horiz-adv-x="677" d="M-238 -389l45 250q67 -19 115 -19q78 0 114 42.5t52 135.5l180 1004h350l-186 -1044q-17 -91 -46 -158.5t-81 -124t-136.5 -86t-199.5 -29.5t-207 29zM283 1171l55 306h369l-56 -306h-368z" />
<glyph unicode="k" horiz-adv-x="1429" d="M72 0l262 1485h350l-152 -856l521 395h422l-510 -406l344 -618h-371l-238 449l-229 -173l-49 -276h-350z" />
<glyph unicode="l" horiz-adv-x="673" d="M72 0l262 1485h350l-262 -1485h-350z" />
<glyph unicode="m" horiz-adv-x="2160" d="M61 0l181 1024h340l-35 -205q115 236 381 236q129 0 225.5 -61t124.5 -183q136 244 405 244q51 0 97.5 -8.5t97.5 -33t88 -63.5t61.5 -107t24.5 -157q0 -71 -14 -151l-94 -535h-351l90 508q11 51 11 96q0 102 -48.5 145.5t-123.5 43.5q-49 0 -89 -18t-67 -46t-47.5 -70.5 t-32.5 -84t-22 -93.5l-86 -481h-351l88 500q11 54 11 100q0 106 -48.5 149.5t-123.5 43.5q-49 0 -88.5 -17.5t-66 -45.5t-47 -70t-32.5 -83.5t-22 -93.5l-86 -483h-351z" />
<glyph unicode="n" horiz-adv-x="1482" d="M61 0l181 1024h340l-37 -209q69 112 171 176t259 64q58 0 108.5 -9t105 -35.5t93 -68.5t63.5 -114.5t25 -168.5q0 -77 -18 -176l-86 -483h-351l82 459q15 71 15 123q0 213 -213 213q-74 0 -130 -27t-90.5 -76.5t-54 -103.5t-32.5 -125l-80 -463h-351z" />
<glyph unicode="o" horiz-adv-x="1411" d="M55 455q0 91 24 176t77 162.5t131.5 135t195.5 92t260 34.5q89 0 170 -12.5t164 -47t143 -87t98 -140t38 -199.5q0 -91 -24 -176t-77 -162.5t-131.5 -135t-195.5 -92t-260 -34.5q-89 0 -170 12.5t-164 47t-143 87t-98 140t-38 199.5zM412 453q0 -68 22.5 -118t61.5 -77.5 t84 -40t98 -12.5q69 0 124.5 23.5t91.5 61t60.5 86.5t34.5 97.5t10 97.5q0 68 -22.5 118t-61.5 77.5t-84 40t-98 12.5q-69 0 -124.5 -23.5t-91.5 -61t-60.5 -86.5t-34.5 -97.5t-10 -97.5z" />
<glyph unicode="p" horiz-adv-x="1488" d="M-8 -399l252 1423h340l-31 -172q57 93 162.5 148t253.5 55q65 0 126.5 -13t124.5 -46.5t109.5 -84t75.5 -131.5t29 -184q0 -84 -19 -168t-64 -167.5t-111 -147.5t-168.5 -104t-227.5 -40q-309 0 -406 181l-96 -549h-350zM487 500q-7 -34 -7 -64q0 -82 50 -144 q68 -87 211 -87q71 0 128 24.5t93 63.5t60.5 89.5t34.5 99t10 96.5q0 69 -22 118.5t-60.5 75t-79.5 36.5t-88 11q-124 0 -208 -70t-105 -174z" />
<glyph unicode="q" horiz-adv-x="1488" d="M57 434q0 90 21 176.5t67.5 167.5t113.5 142t167.5 98t220.5 37q149 0 257 -51.5t159 -145.5l55 166h309l-251 -1423h-351l101 567q-52 -91 -156.5 -145t-239.5 -54q-69 0 -133 14t-127 48t-109.5 86t-75 133.5t-28.5 183.5zM424 455q0 -57 14.5 -101.5t38 -72t57 -45 t68 -24.5t74.5 -7q132 0 212 76t95 180l10 69q6 33 6 62q0 40 -11 72q-17 58 -56.5 90.5t-89 48.5t-107.5 16q-82 0 -145 -34t-97.5 -89.5t-51.5 -116.5t-17 -124z" />
<glyph unicode="r" horiz-adv-x="972" d="M61 0l181 1024h321l-55 -303q118 330 401 330q63 0 119 -17l-55 -321q-72 20 -148 20q-131 0 -204 -57q-104 -77 -140 -285l-69 -391h-351z" />
<glyph unicode="s" horiz-adv-x="1239" d="M-20 223l213 160q63 -92 178 -135t260 -43q108 0 155.5 24t47.5 74q0 36 -26 52.5t-93 25.5l-254 33q-180 27 -259 100t-79 191q0 161 132.5 255.5t403.5 94.5q396 0 576 -205l-203 -170q-120 147 -405 147q-102 0 -145.5 -21t-43.5 -65q0 -36 27 -54.5t92 -27.5l268 -36 q171 -28 247.5 -96.5t76.5 -192.5q0 -77 -29 -140t-92 -115t-174.5 -81t-263.5 -29q-225 0 -382.5 62.5t-227.5 191.5z" />
<glyph unicode="t" horiz-adv-x="995" d="M61 795l41 229h230l43 244l373 131l-66 -375h338l-41 -229h-338l-57 -338q-6 -34 -6 -62q0 -65 32 -95q46 -44 146 -44q63 0 133 12l-47 -264q-107 -27 -220 -27h-16q-48 0 -88.5 5t-81.5 15.5t-73 29t-60.5 44.5t-47 62.5t-28.5 82.5q-10 44 -10 101q1 3 1 5 q0 60 13 133l60 340h-230z" />
<glyph unicode="u" horiz-adv-x="1466" d="M104 313q0 71 27 228l86 483h350l-82 -459q-18 -133 -18 -155q0 -98 53 -140.5t139 -42.5q64 0 114 18t82.5 46.5t56.5 74t37 90.5t24 105l82 463h350l-180 -1024h-338l37 209q-124 -240 -428 -240q-58 0 -109 8t-104.5 31t-91.5 59.5t-62.5 99.5t-24.5 146z" />
<glyph unicode="v" horiz-adv-x="1306" d="M90 1024h359l135 -616q11 -54 14 -127h6q27 65 60 127l352 616h383l-641 -1024h-389z" />
<glyph unicode="w" horiz-adv-x="1904" d="M119 1024h332l61 -633q3 -40 3 -71q0 -16 -1 -29h4q4 17 39 100l317 633h324l90 -633q4 -61 4 -90v-10h4q12 44 35 100l289 633h346l-518 -1024h-352l-97 600q-6 33 -6 65q0 19 2 37h-6q-9 -32 -39 -98l-311 -604h-363z" />
<glyph unicode="x" horiz-adv-x="1351" d="M-76 0l539 530l-336 494h393l139 -219q34 -63 41 -100h5q20 42 75 100l211 219h404l-508 -494l362 -530h-391l-164 240q-35 57 -45 100h-4q-16 -30 -82 -100l-239 -240h-400z" />
<glyph unicode="y" horiz-adv-x="1298" d="M-80 -385l45 256q85 -29 187 -29q151 0 225 123l18 37l-305 1022h375l137 -627q12 -82 12 -116h7q19 55 49 114l344 629h375l-668 -1104q-53 -89 -108 -151.5t-105.5 -99t-112 -57t-114 -26.5t-123.5 -6q-122 0 -238 35z" />
<glyph unicode="z" horiz-adv-x="1212" d="M-25 0l37 213l744 578h-615l43 233h1035l-37 -207l-736 -579h664l-41 -238h-1094z" />
<glyph unicode="{" horiz-adv-x="821" d="M59 565l39 217q60 1 97 11.5t60 35.5t33.5 55t20.5 83l47 268q9 51 24 93.5t46.5 87.5t76.5 75.5t117 50t164 19.5h187l-43 -238h-78q-49 0 -84.5 -13t-55.5 -37.5t-30 -49.5t-16 -58l-33 -192q-24 -127 -81 -199t-177 -98q75 -22 114 -67t42.5 -106t-9.5 -138l-37 -215 q-4 -34 -4.5 -58.5t9.5 -41t21 -27t29.5 -16t35 -7.5t38.5 -2h86l-41 -238h-112q-41 0 -76.5 2.5t-72 8.5t-66 15.5t-58 25.5t-49 37t-36.5 50t-23.5 64.5t-7 81.5t9.5 100l39 228q11 62 7.5 103.5t-40 64t-113.5 24.5z" />
<glyph unicode="|" horiz-adv-x="536" d="M29 -240l317 1796h213l-317 -1796h-213z" />
<glyph unicode="}" horiz-adv-x="819" d="M-98 -240l43 238h78q49 0 84.5 13t55.5 37.5t30 49.5t16 58l33 192q24 127 81 199t177 98q-110 32 -141 109.5t-7 201.5l37 215q4 34 4.5 58.5t-9.5 41t-21 27t-29.5 16t-35 7.5t-38.5 2h-86l41 238h113q41 0 76.5 -2.5t72 -8.5t66 -15.5t58 -25.5t49 -37t36.5 -50 t23.5 -64.5t7 -81.5t-9.5 -100l-39 -228q-11 -62 -7.5 -103.5t39.5 -64t113 -24.5l-39 -217q-60 -1 -97 -11.5t-60 -35.5t-33.5 -55t-20.5 -83l-47 -268q-9 -51 -24 -93.5t-46.5 -87.5t-76.5 -75.5t-117 -50t-164 -19.5h-186z" />
<glyph unicode="~" horiz-adv-x="1427" d="M139 481q48 147 150.5 225t228.5 78q61 0 113 -16t88 -39t68.5 -45.5t71.5 -38.5t81 -16q132 0 186 143l193 -45q-48 -148 -151 -225.5t-230 -77.5q-61 0 -112.5 16t-87.5 39t-68.5 46t-71.5 39t-82 16q-129 0 -184 -146z" />
<glyph unicode="&#xa1;" horiz-adv-x="741" d="M29 -297l231 1004h289l-123 -1004h-397zM238 872l57 316h391l-57 -316h-391z" />
<glyph unicode="&#xa2;" horiz-adv-x="1370" d="M55 451q0 87 21.5 169t72.5 161.5t127.5 139t196 96.5t268.5 38l29 159h129l-29 -165q92 -10 169 -35.5t141.5 -69.5t106 -112.5t54.5 -157.5l-309 -49q-31 175 -201 206l-112 -634q119 8 181 62.5t93 148.5l297 -58q-57 -170 -210.5 -273.5t-399.5 -107.5l-33 -180h-129 l33 186q-77 8 -144.5 26.5t-133.5 55t-113 88t-76 130t-29 176.5zM373 475q0 -238 219 -274l113 637q-77 -5 -136.5 -29.5t-95.5 -60t-59.5 -83t-32 -94t-8.5 -96.5z" />
<glyph unicode="&#xa3;" horiz-adv-x="1517" d="M-41 172q181 46 272 150t91 292v33h-216l31 166h178q-2 23 -2 64q0 72 13 139t40.5 134.5t76 122t114.5 97.5t161.5 66.5t211.5 23.5q260 0 411 -97t170 -282l-346 -67q-13 105 -74 151.5t-167 46.5q-59 0 -104.5 -13.5t-74 -39.5t-47.5 -56t-28 -71.5t-12 -77t-3 -80.5 q0 -41 2 -61h428l-30 -166h-393q0 -299 -277 -403q99 24 207 24q77 0 184 -16t164 -16q180 0 219 178l318 -45q-16 -83 -55.5 -154.5t-102 -128t-154 -89t-202.5 -32.5q-91 0 -252 29t-312 29q-170 0 -407 -39z" />
<glyph unicode="&#xa4;" horiz-adv-x="1298" d="M57 229l129 117q-59 94 -59 232q0 211 125 356l-100 131l174 139l110 -143q104 43 244 43q193 0 326 -80l151 133l123 -139l-139 -125q59 -94 59 -229q0 -205 -119 -347l105 -137l-174 -139l-111 143q-109 -47 -256 -47q-186 0 -323 78l-144 -127zM381 598 q0 -60 23.5 -105.5t62.5 -71t84 -38t94 -12.5q65 0 117.5 17t85.5 44.5t55.5 63.5t31.5 72.5t9 74.5q0 60 -23 105.5t-61.5 71t-83.5 38t-94 12.5q-81 0 -142 -25t-94 -66.5t-49 -87t-16 -93.5z" />
<glyph unicode="&#xa5;" horiz-adv-x="1513" d="M90 229l25 144h440l18 116h-438l25 144h409l-419 790h382l191 -383q52 -115 74 -206h6q49 79 151 206l328 383h401l-700 -790h416l-27 -144h-446l-19 -116h445l-25 -144h-446l-39 -229h-353l39 229h-438z" />
<glyph unicode="&#xa6;" horiz-adv-x="536" d="M29 -240l139 781h211l-137 -781h-213zM211 788l135 768h213l-137 -768h-211z" />
<glyph unicode="&#xa7;" horiz-adv-x="1214" d="M-88 20l219 160q99 -168 379 -168q227 0 227 121q0 41 -29.5 66t-103.5 45l-272 63q-61 16 -108 37t-91.5 54t-69 82.5t-24.5 111.5q0 200 225 285q-96 77 -96 213q0 55 15.5 106t55.5 100.5t100.5 86t157.5 59t220 22.5q172 0 318 -45.5t225 -146.5l-211 -166 q-51 71 -140 104t-196 33q-213 0 -213 -115q0 -38 27.5 -60.5t95.5 -39.5l272 -55q291 -69 291 -291q0 -96 -49 -173t-142 -126q78 -78 78 -215q0 -57 -14.5 -108t-54.5 -102.5t-102.5 -88.5t-168 -60.5t-241.5 -23.5q-449 0 -580 235zM350 668q0 -47 37 -74.5t133 -52.5 l281 -60q2 -1 6 -2t6 -2q70 44 70 115q0 50 -33.5 77t-124.5 52l-276 70q-99 -42 -99 -123z" />
<glyph unicode="&#xa8;" horiz-adv-x="1228" d="M98 1178l49 280h318l-49 -280h-318zM643 1178l49 280h318l-47 -280h-320z" />
<glyph unicode="&#xa9;" horiz-adv-x="1781" d="M92 666q0 79 13 157.5t43 161.5t75.5 156.5t115.5 139.5t157 113.5t205.5 75t256.5 27.5q91 0 181.5 -16.5t183 -50t171 -90.5t140 -133t96.5 -183.5t35 -235.5q0 -79 -12.5 -157.5t-43 -161.5t-75.5 -156.5t-114.5 -139.5t-156.5 -113.5t-205.5 -75t-256.5 -27.5 q-111 0 -219.5 22.5t-216.5 76t-190 132.5t-132.5 202.5t-50.5 275.5zM231 670q0 -121 40 -222t106 -168.5t153.5 -114t179 -67t185.5 -20.5q162 0 292 46.5t210 119t133.5 168.5t74.5 188t21 184q0 121 -40 222t-106 168.5t-153 114t-178.5 67t-185.5 20.5 q-162 0 -292 -46.5t-210.5 -119t-134 -168.5t-74.5 -188t-21 -184zM449 682q0 70 15.5 135.5t52.5 130t93.5 112t145.5 77t200 30.5q83 0 155 -17t133 -51.5t100.5 -94t50.5 -138.5l-250 -49q-23 160 -193 160q-72 0 -124 -26.5t-78.5 -70.5t-38.5 -91t-11 -97 q0 -58 16.5 -100.5t46 -65t64 -33t76.5 -10.5q169 0 213 162l234 -53q-42 -137 -157.5 -219t-299.5 -82q-64 0 -122.5 10t-118.5 37.5t-104 69.5t-71.5 112.5t-27.5 161.5z" />
<glyph unicode="&#xaa;" horiz-adv-x="1103" d="M147 829q0 235 408 254l258 13l4 28q7 53 -27 80t-104 27q-138 0 -154 -96h-307q22 121 134 195.5t329 74.5q235 0 343.5 -88.5t78.5 -267.5l-37 -211q-23 -146 -20 -203h-297q0 57 12 125q-36 -70 -121 -109t-196 -39q-135 0 -219.5 53.5t-84.5 163.5zM463 862 q0 -78 127 -78q80 0 134.5 35t66.5 101l8 51l-166 -6q-170 -8 -170 -103z" />
<glyph unicode="&#xab;" horiz-adv-x="1355" d="M51 565l481 422h330l-489 -432l317 -418h-315zM594 565l481 422h330l-490 -432l318 -418h-315z" />
<glyph unicode="&#xac;" horiz-adv-x="1521" d="M248 573l37 218h1050l-96 -541h-227l57 323h-821z" />
<glyph unicode="&#xad;" horiz-adv-x="1030" d="M80 432l47 277h844l-49 -277h-842z" />
<glyph unicode="&#xae;" horiz-adv-x="1781" d="M92 666q0 79 13 157.5t43 161.5t75.5 156.5t115.5 139.5t157 113.5t205.5 75t256.5 27.5q91 0 181.5 -16.5t183 -50t171 -90.5t140 -133t96.5 -183.5t35 -235.5q0 -79 -12.5 -157.5t-43 -161.5t-75.5 -156.5t-114.5 -139.5t-156.5 -113.5t-205.5 -75t-256.5 -27.5 q-111 0 -219.5 22.5t-216.5 76t-190 132.5t-132.5 202.5t-50.5 275.5zM231 670q0 -121 40 -222t106 -168.5t153.5 -114t179 -67t185.5 -20.5q162 0 292 46.5t210 119t133.5 168.5t74.5 188t21 184q0 121 -40 222t-106 168.5t-153 114t-178.5 67t-185.5 20.5 q-162 0 -292 -46.5t-210.5 -119t-134 -168.5t-74.5 -188t-21 -184zM492 319l147 832h414q66 0 121 -12t103 -38.5t75.5 -77t27.5 -120.5q0 -87 -56 -161t-183 -101l145 -322h-246l-118 302h-148l-53 -302h-229zM801 772h182q83 0 120.5 35.5t37.5 85.5q0 57 -33 77.5 t-96 20.5h-172z" />
<glyph unicode="&#xaf;" horiz-adv-x="1228" d="M106 1212l37 201h836l-37 -201h-836z" />
<glyph unicode="&#xb0;" horiz-adv-x="950" d="M133 1004q0 82 28.5 162t83.5 148.5t147 111t206 42.5q112 0 203 -39t149 -123t58 -200q0 -64 -17 -128t-54 -125t-90 -108t-131.5 -75.5t-172.5 -28.5q-174 0 -292 96.5t-118 266.5zM340 1016q0 -97 58 -144t147 -47q63 0 113.5 24.5t81 64.5t46 86.5t15.5 95.5 q0 95 -58 141.5t-145 46.5q-64 0 -115 -24.5t-81 -64t-46 -85.5t-16 -94z" />
<glyph unicode="&#xb1;" horiz-adv-x="1568" d="M150 0l36 219h1090l-37 -219h-1089zM252 588l41 223h420l55 313h244l-56 -313h426l-39 -223h-425l-54 -301h-243l53 301h-422z" />
<glyph unicode="&#xb4;" horiz-adv-x="1228" d="M98 1165l330 322h342l-391 -322h-281z" />
<glyph unicode="&#xb5;" horiz-adv-x="1495" d="M-8 -399l155 882q2 8 5.5 28t5.5 30l86 483h350l-82 -459q-18 -133 -18 -155q0 -98 53 -140.5t139 -42.5q64 0 114 18t82 46.5t56 74t37 90t24 105.5l82 463h351l-181 -1024h-338l37 209q-124 -240 -428 -240q-76 0 -145 17l-68 -385h-317z" />
<glyph unicode="&#xb6;" horiz-adv-x="1634" d="M221 1042q0 433 631 433h795l-29 -164h-191l-268 -1514h-184l266 1514h-248l-266 -1514h-184l157 899q-61 0 -120 7.5t-126.5 31t-117 60t-82.5 100.5t-33 147z" />
<glyph unicode="&#xb7;" horiz-adv-x="632" d="M129 522l59 334h379l-59 -334h-379z" />
<glyph unicode="&#xb8;" horiz-adv-x="1228" d="M115 -322l188 52q21 -52 98 -52q45 0 74 22t29 64q0 29 -21 45.5t-63 16.5q-56 0 -86 -33l-141 33l137 186h162l-99 -114q42 30 123 30q98 0 149.5 -38t51.5 -107q0 -116 -87 -172.5t-229 -56.5q-230 0 -286 124z" />
<glyph unicode="&#xba;" horiz-adv-x="1144" d="M162 969q0 85 30 160.5t90.5 138.5t164.5 100t239 37q67 0 128 -8.5t125.5 -33t111 -63t76.5 -103t30 -148.5q0 -67 -18 -129t-59 -118.5t-100.5 -98.5t-149 -66.5t-199.5 -24.5q-66 0 -127 9t-125 33.5t-110.5 63t-76.5 103t-30 148.5zM467 965q0 -85 49 -122.5 t123 -37.5q55 0 97.5 23.5t66 61.5t35.5 79.5t12 83.5q0 85 -48 122t-122 37q-54 0 -97 -23.5t-67 -61.5t-36.5 -79.5t-12.5 -82.5z" />
<glyph unicode="&#xbb;" horiz-adv-x="1355" d="M-31 137l490 432l-318 418h316l323 -428l-481 -422h-330zM512 137l489 432l-317 418h315l324 -428l-481 -422h-330z" />
<glyph unicode="&#xbc;" horiz-adv-x="1888" d="M121 -35l1300 1524h252l-1298 -1524h-254zM160 1135l30 190h41q91 0 146 33t86 96h180l-139 -803h-217l94 520q-39 -36 -154 -36h-67zM946 168l25 143l547 492h235l-86 -479h156l-27 -156h-154l-30 -168h-215l30 168h-481zM1184 324h272l72 319z" />
<glyph unicode="&#xbd;" horiz-adv-x="1988" d="M121 -35l1300 1524h252l-1298 -1524h-254zM160 1135l30 190h41q91 0 146 33t86 96h180l-139 -803h-217l94 520q-39 -36 -154 -36h-67zM1063 0l27 158q62 24 94.5 37t88 35t85.5 36t75.5 35.5t70.5 37.5t57.5 37t50 40.5t34.5 41.5t24 45t7 48q0 106 -137 106 q-87 0 -127.5 -48t-28.5 -128l-221 25q-12 151 93.5 235t299.5 84q67 0 126 -11.5t114 -37.5t87 -76t32 -120q0 -232 -457 -406h391l-26 -174h-760z" />
<glyph unicode="&#xbe;" horiz-adv-x="2168" d="M119 901l225 21q11 -75 59.5 -102t120.5 -27q78 0 114 28t36 72q0 94 -158 94h-61l24 143h86q148 0 148 99q0 86 -142 86q-87 0 -126.5 -36t-49.5 -103l-211 28q14 125 115 199t276 74q52 0 98 -4.5t97.5 -19t88.5 -37t61 -62.5t24 -92q0 -86 -63.5 -141t-159.5 -64 q182 -29 182 -170q0 -107 -96 -182.5t-279 -75.5q-78 0 -144 12.5t-127.5 41.5t-98 84.5t-39.5 133.5zM401 -35l1301 1524h252l-1299 -1524h-254zM1227 168l24 143l547 492h236l-86 -479h155l-26 -156h-154l-31 -168h-215l31 168h-481zM1464 324h273l71 319z" />
<glyph unicode="&#xbf;" horiz-adv-x="1339" d="M-25 84q0 138 78.5 230.5t233.5 164.5l141 64q69 33 97 70.5t38 95.5l8 51h340l-12 -82q-15 -99 -63 -161t-150 -107l-168 -72q-172 -76 -172 -219q0 -53 22 -91.5t59.5 -58.5t79.5 -29.5t91 -9.5q85 0 146 21.5t92.5 60t45 80.5t13.5 92t-6 80l338 -28q10 -42 10 -86 q0 -70 -20 -135t-68.5 -127.5t-122 -108t-188.5 -73.5t-260 -28q-89 0 -169.5 10.5t-161.5 39t-139.5 73t-95.5 117t-37 166.5zM565 872l56 316h385l-54 -316h-387z" />
<glyph unicode="&#xc0;" horiz-adv-x="1722" d="M-66 0l875 1454h436l361 -1454h-363l-65 317h-666l-178 -317h-400zM590 1790h328l290 -242h-282zM651 567h473l-75 365q-33 125 -45 272h-5q-41 -98 -143 -272z" />
<glyph unicode="&#xc1;" horiz-adv-x="1722" d="M-66 0l875 1454h436l361 -1454h-363l-65 317h-666l-178 -317h-400zM651 567h473l-75 365q-33 125 -45 272h-5q-41 -98 -143 -272zM901 1548l291 242h328l-336 -242h-283z" />
<glyph unicode="&#xc2;" horiz-adv-x="1722" d="M-66 0l875 1454h436l361 -1454h-363l-65 317h-666l-178 -317h-400zM600 1548l301 242h369l217 -242h-277l-133 146l-184 -146h-293zM651 567h473l-75 365q-33 125 -45 272h-5q-41 -98 -143 -272z" />
<glyph unicode="&#xc3;" horiz-adv-x="1722" d="M-66 0l875 1454h436l361 -1454h-363l-65 317h-666l-178 -317h-400zM594 1602q87 235 301 235q63 0 115.5 -18.5t82 -41t69 -41t79.5 -18.5q51 0 83.5 25.5t53.5 85.5l162 -64q-84 -235 -299 -235q-52 0 -95.5 12.5t-73 30t-56 34.5t-57 29.5t-62.5 12.5q-52 0 -83 -24 t-56 -89zM651 567h473l-75 365q-33 125 -45 272h-5q-41 -98 -143 -272z" />
<glyph unicode="&#xc4;" horiz-adv-x="1722" d="M-66 0l875 1454h436l361 -1454h-363l-65 317h-666l-178 -317h-400zM614 1548l43 240h308l-41 -240h-310zM651 567h473l-75 365q-33 125 -45 272h-5q-41 -98 -143 -272zM1163 1548l43 240h310l-43 -240h-310z" />
<glyph unicode="&#xc5;" horiz-adv-x="1722" d="M-66 0l875 1454h436l361 -1454h-363l-65 317h-666l-178 -317h-400zM651 567h473l-75 365q-33 125 -45 272h-5q-41 -98 -143 -272zM801 1745q0 114 84 187t211 73q122 0 192 -61t70 -162q0 -113 -83.5 -185.5t-209.5 -72.5q-122 0 -193 60t-71 161zM967 1745 q0 -43 26 -66.5t72 -23.5q64 0 96.5 34t32.5 93q0 42 -26.5 67t-71.5 25q-64 0 -96.5 -34.5t-32.5 -94.5z" />
<glyph unicode="&#xc6;" horiz-adv-x="2568" d="M-16 0l1267 1454h1356l-47 -266h-823l-58 -318h791l-47 -258h-789l-61 -344h840l-48 -268h-1206l53 307h-587l-252 -307h-389zM831 557h426l117 660z" />
<glyph unicode="&#xc7;" horiz-adv-x="1701" d="M90 637q0 124 29.5 242t98.5 231t169.5 197.5t255.5 136t344 51.5q147 0 270.5 -30t224 -92.5t164.5 -167t80 -244.5l-383 -64q-42 309 -370 309q-111 0 -199 -35.5t-143 -91.5t-91 -131.5t-50.5 -149t-14.5 -149.5q0 -93 22.5 -164.5t59 -115t88.5 -71.5t105 -38 t114 -10q321 0 416 299l365 -80q-195 -510 -791 -510h-6l-53 -61q42 30 123 30q97 0 148.5 -37.5t51.5 -107.5q0 -116 -86.5 -172.5t-228.5 -56.5q-231 0 -287 124l189 52q21 -52 98 -52q45 0 73.5 22t28.5 64q0 29 -21 45.5t-63 16.5q-56 0 -86 -33l-141 33l104 141 q-106 13 -196 44.5t-167 86.5t-131 129.5t-84 179t-30 230.5z" />
<glyph unicode="&#xc8;" horiz-adv-x="1486" d="M78 0l256 1454h1192l-47 -266h-824l-57 -318h791l-46 -258h-790l-61 -344h839l-47 -268h-1206zM524 1790h328l291 -242h-283z" />
<glyph unicode="&#xc9;" horiz-adv-x="1486" d="M78 0l256 1454h1192l-47 -266h-824l-57 -318h791l-46 -258h-790l-61 -344h839l-47 -268h-1206zM836 1548l290 242h328l-336 -242h-282z" />
<glyph unicode="&#xca;" horiz-adv-x="1486" d="M78 0l256 1454h1192l-47 -266h-824l-57 -318h791l-46 -258h-790l-61 -344h839l-47 -268h-1206zM535 1548l301 242h368l217 -242h-276l-133 146l-185 -146h-292z" />
<glyph unicode="&#xcb;" horiz-adv-x="1486" d="M78 0l256 1454h1192l-47 -266h-824l-57 -318h791l-46 -258h-790l-61 -344h839l-47 -268h-1206zM549 1548l43 240h307l-41 -240h-309zM1098 1548l43 240h309l-43 -240h-309z" />
<glyph unicode="&#xcc;" horiz-adv-x="702" d="M78 0l256 1454h366l-256 -1454h-366zM125 1790h313l228 -242h-279z" />
<glyph unicode="&#xcd;" horiz-adv-x="702" d="M78 0l256 1454h366l-256 -1454h-366zM395 1548l228 242h313l-262 -242h-279z" />
<glyph unicode="&#xce;" horiz-adv-x="702" d="M78 0l256 1454h366l-256 -1454h-366zM207 1548l199 242h346l112 -242h-231l-62 152l-114 -152h-250z" />
<glyph unicode="&#xcf;" horiz-adv-x="702" d="M78 0l256 1454h366l-256 -1454h-366zM213 1548l43 240h279l-43 -240h-279zM580 1548l41 240h278l-43 -240h-276z" />
<glyph unicode="&#xd0;" horiz-adv-x="1744" d="M25 649l36 207h168l105 598h649q128 0 238.5 -22t206 -70.5t162.5 -122t105 -181.5t38 -243q0 -128 -33.5 -245.5t-106.5 -222t-180 -181t-264 -121.5t-348 -45h-723l115 649h-168zM492 264h307q123 0 220 32.5t157 84.5t99.5 123t55 142.5t15.5 148.5q0 109 -31.5 188.5 t-87 123t-120.5 63.5t-142 20h-310l-59 -334h381l-37 -207h-381z" />
<glyph unicode="&#xd1;" horiz-adv-x="1779" d="M78 0l256 1454h393l453 -836q53 -99 77 -180h7q28 169 32 199l146 817h336l-256 -1454h-371l-473 850q-58 109 -80 172h-6l-33 -201l-145 -821h-336zM627 1602q87 235 301 235q63 0 115.5 -18.5t82 -41t69 -41t79.5 -18.5q51 0 83.5 25.5t53.5 85.5l162 -64 q-84 -235 -299 -235q-52 0 -95.5 12.5t-73 30t-56 34.5t-57 29.5t-62.5 12.5q-52 0 -83 -24t-56 -89z" />
<glyph unicode="&#xd2;" horiz-adv-x="1785" d="M88 633q0 128 30 248t99 233t170.5 196.5t255 134t342.5 50.5q133 0 249.5 -24.5t216.5 -77t171 -130.5t111.5 -190.5t40.5 -251.5q0 -128 -30 -248t-99 -233t-170.5 -196.5t-255 -134t-342.5 -50.5q-134 0 -250.5 24.5t-216.5 77t-171 130.5t-111 190.5t-40 251.5z M473 651q0 -91 23 -162.5t61 -117t91 -75.5t110 -42t121 -12q110 0 199 33.5t146 88t95 128.5t54 151t16 160q0 91 -23 162.5t-61 117t-91.5 75.5t-110.5 42t-122 12q-110 0 -198 -33.5t-145 -88t-95 -128.5t-54 -151t-16 -160zM575 1790h328l291 -242h-283z" />
<glyph unicode="&#xd3;" horiz-adv-x="1785" d="M88 633q0 128 30 248t99 233t170.5 196.5t255 134t342.5 50.5q133 0 249.5 -24.5t216.5 -77t171 -130.5t111.5 -190.5t40.5 -251.5q0 -128 -30 -248t-99 -233t-170.5 -196.5t-255 -134t-342.5 -50.5q-134 0 -250.5 24.5t-216.5 77t-171 130.5t-111 190.5t-40 251.5z M473 651q0 -91 23 -162.5t61 -117t91 -75.5t110 -42t121 -12q110 0 199 33.5t146 88t95 128.5t54 151t16 160q0 91 -23 162.5t-61 117t-91.5 75.5t-110.5 42t-122 12q-110 0 -198 -33.5t-145 -88t-95 -128.5t-54 -151t-16 -160zM887 1548l291 242h327l-336 -242h-282z" />
<glyph unicode="&#xd4;" horiz-adv-x="1785" d="M88 633q0 128 30 248t99 233t170.5 196.5t255 134t342.5 50.5q133 0 249.5 -24.5t216.5 -77t171 -130.5t111.5 -190.5t40.5 -251.5q0 -128 -30 -248t-99 -233t-170.5 -196.5t-255 -134t-342.5 -50.5q-134 0 -250.5 24.5t-216.5 77t-171 130.5t-111 190.5t-40 251.5z M473 651q0 -91 23 -162.5t61 -117t91 -75.5t110 -42t121 -12q110 0 199 33.5t146 88t95 128.5t54 151t16 160q0 91 -23 162.5t-61 117t-91.5 75.5t-110.5 42t-122 12q-110 0 -198 -33.5t-145 -88t-95 -128.5t-54 -151t-16 -160zM586 1548l301 242h368l218 -242h-277 l-133 146l-184 -146h-293z" />
<glyph unicode="&#xd5;" horiz-adv-x="1785" d="M88 633q0 128 30 248t99 233t170.5 196.5t255 134t342.5 50.5q133 0 249.5 -24.5t216.5 -77t171 -130.5t111.5 -190.5t40.5 -251.5q0 -128 -30 -248t-99 -233t-170.5 -196.5t-255 -134t-342.5 -50.5q-134 0 -250.5 24.5t-216.5 77t-171 130.5t-111 190.5t-40 251.5z M473 651q0 -91 23 -162.5t61 -117t91 -75.5t110 -42t121 -12q110 0 199 33.5t146 88t95 128.5t54 151t16 160q0 91 -23 162.5t-61 117t-91.5 75.5t-110.5 42t-122 12q-110 0 -198 -33.5t-145 -88t-95 -128.5t-54 -151t-16 -160zM580 1602q87 235 301 235q63 0 115.5 -18.5 t82 -41t69 -41t79.5 -18.5q51 0 83.5 25.5t53.5 85.5l162 -64q-84 -235 -299 -235q-52 0 -95.5 12.5t-73 30t-56 34.5t-57 29.5t-62.5 12.5q-52 0 -83.5 -24t-56.5 -89z" />
<glyph unicode="&#xd6;" horiz-adv-x="1785" d="M88 633q0 128 30 248t99 233t170.5 196.5t255 134t342.5 50.5q133 0 249.5 -24.5t216.5 -77t171 -130.5t111.5 -190.5t40.5 -251.5q0 -128 -30 -248t-99 -233t-170.5 -196.5t-255 -134t-342.5 -50.5q-134 0 -250.5 24.5t-216.5 77t-171 130.5t-111 190.5t-40 251.5z M473 651q0 -91 23 -162.5t61 -117t91 -75.5t110 -42t121 -12q110 0 199 33.5t146 88t95 128.5t54 151t16 160q0 91 -23 162.5t-61 117t-91.5 75.5t-110.5 42t-122 12q-110 0 -198 -33.5t-145 -88t-95 -128.5t-54 -151t-16 -160zM600 1548l43 240h307l-41 -240h-309z M1149 1548l43 240h309l-43 -240h-309z" />
<glyph unicode="&#xd7;" horiz-adv-x="1554" d="M178 305l455 365l-324 362l193 162l327 -367l457 367l141 -162l-454 -362l325 -363l-192 -166l-330 369l-459 -367z" />
<glyph unicode="&#xd8;" horiz-adv-x="1785" d="M66 43l170 152q-148 171 -148 438q0 128 30 248t99 233t170.5 196.5t255 134t342.5 50.5q335 0 539 -145l170 153l100 -92l-170 -151q150 -169 150 -439q0 -128 -30 -248t-99 -233t-170.5 -196.5t-255 -134t-342.5 -50.5q-337 0 -539 145l-172 -153zM473 651 q0 -121 39 -207l756 676q-106 92 -287 92q-110 0 -198 -33.5t-145 -88t-95 -128.5t-54 -151t-16 -160zM594 334q103 -92 285 -92q110 0 199 33.5t146 88t95 128.5t54 151t16 160q0 125 -41 209z" />
<glyph unicode="&#xd9;" horiz-adv-x="1693" d="M144 434.5q-7 103.5 14 233.5l139 786h369l-146 -819q-18 -86 -7.5 -150.5t36 -109t70 -72t95.5 -39.5t113 -12q323 0 385 348l150 854h369l-160 -905q-104 -590 -760 -590q-109 0 -202.5 16.5t-176.5 51.5t-142 90.5t-99 134.5t-47 182.5zM578 1790h327l291 -242h-283z " />
<glyph unicode="&#xda;" horiz-adv-x="1693" d="M144 434.5q-7 103.5 14 233.5l139 786h369l-146 -819q-18 -86 -7.5 -150.5t36 -109t70 -72t95.5 -39.5t113 -12q323 0 385 348l150 854h369l-160 -905q-104 -590 -760 -590q-109 0 -202.5 16.5t-176.5 51.5t-142 90.5t-99 134.5t-47 182.5zM889 1548l291 242h327 l-336 -242h-282z" />
<glyph unicode="&#xdb;" horiz-adv-x="1693" d="M144 434.5q-7 103.5 14 233.5l139 786h369l-146 -819q-18 -86 -7.5 -150.5t36 -109t70 -72t95.5 -39.5t113 -12q323 0 385 348l150 854h369l-160 -905q-104 -590 -760 -590q-109 0 -202.5 16.5t-176.5 51.5t-142 90.5t-99 134.5t-47 182.5zM588 1548l301 242h368 l218 -242h-277l-133 146l-184 -146h-293z" />
<glyph unicode="&#xdc;" horiz-adv-x="1693" d="M144 434.5q-7 103.5 14 233.5l139 786h369l-146 -819q-18 -86 -7.5 -150.5t36 -109t70 -72t95.5 -39.5t113 -12q323 0 385 348l150 854h369l-160 -905q-104 -590 -760 -590q-109 0 -202.5 16.5t-176.5 51.5t-142 90.5t-99 134.5t-47 182.5zM602 1548l43 240h307l-41 -240 h-309zM1151 1548l43 240h309l-43 -240h-309z" />
<glyph unicode="&#xdd;" horiz-adv-x="1525" d="M156 1454h385l231 -563q23 -64 23 -96h4q18 44 57 96l436 563h410l-756 -944l-90 -510h-369l88 510zM807 1548l291 242h327l-335 -242h-283z" />
<glyph unicode="&#xde;" horiz-adv-x="1470" d="M78 0l256 1454h366l-38 -225h272q85 0 159 -11t147.5 -40.5t125.5 -75.5t84.5 -121.5t32.5 -173.5q0 -109 -37.5 -201t-114 -164.5t-204.5 -113.5t-296 -41h-335l-52 -287h-366zM539 541h233q176 0 249 64.5t73 180.5q0 183 -238 183h-242z" />
<glyph unicode="&#xdf;" horiz-adv-x="1538" d="M63 0l175 977q51 287 216 409.5t457 122.5q278 0 425 -91.5t147 -276.5q0 -64 -24 -122.5t-72 -109t-129 -83t-185 -38.5q171 -14 273 -102.5t102 -243.5q0 -227 -164 -347t-450 -120q-165 0 -277 33l41 238q79 -29 201 -29q295 0 295 242q0 104 -77.5 156.5t-217.5 52.5 h-123l39 225h112q147 0 218 58.5t71 166.5q0 77 -57 118.5t-170 41.5q-120 0 -195.5 -58.5t-101.5 -207.5l-178 -1012h-351z" />
<glyph unicode="&#xe0;" d="M31 266q0 152 114 236q123 95 402 110l397 19l6 39q12 85 -40.5 126.5t-166.5 41.5q-107 0 -169.5 -37.5t-79.5 -120.5h-357q31 173 182 274t429 101q303 0 442 -118t98 -359l-49 -279q-31 -166 -31 -299h-344q0 74 17 174q-61 -101 -175 -153t-266 -52q-188 0 -298.5 75 t-110.5 222zM279 1487h342l329 -322h-280zM397 305q0 -123 189 -123q137 0 223 62t104 164l11 61l-279 -12q-248 -13 -248 -152z" />
<glyph unicode="&#xe1;" d="M31 266q0 152 114 236q123 95 402 110l397 19l6 39q12 85 -40.5 126.5t-166.5 41.5q-107 0 -169.5 -37.5t-79.5 -120.5h-357q31 173 182 274t429 101q303 0 442 -118t98 -359l-49 -279q-31 -166 -31 -299h-344q0 74 17 174q-61 -101 -175 -153t-266 -52q-188 0 -298.5 75 t-110.5 222zM397 305q0 -123 189 -123q137 0 223 62t104 164l11 61l-279 -12q-248 -13 -248 -152zM649 1165l330 322h342l-391 -322h-281z" />
<glyph unicode="&#xe2;" d="M31 266q0 152 114 236q123 95 402 110l397 19l6 39q12 85 -40.5 126.5t-166.5 41.5q-107 0 -169.5 -37.5t-79.5 -120.5h-357q31 173 182 274t429 101q303 0 442 -118t98 -359l-49 -279q-31 -166 -31 -299h-344q0 74 17 174q-61 -101 -175 -153t-266 -52q-188 0 -298.5 75 t-110.5 222zM352 1165l320 322h356l205 -322h-258l-135 215l-211 -215h-277zM397 305q0 -123 189 -123q137 0 223 62t104 164l11 61l-279 -12q-248 -13 -248 -152z" />
<glyph unicode="&#xe3;" d="M31 266q0 152 114 236q123 95 402 110l397 19l6 39q12 85 -40.5 126.5t-166.5 41.5q-107 0 -169.5 -37.5t-79.5 -120.5h-357q31 173 182 274t429 101q303 0 442 -118t98 -359l-49 -279q-31 -166 -31 -299h-344q0 74 17 174q-61 -101 -175 -153t-266 -52q-188 0 -298.5 75 t-110.5 222zM328 1249q93 258 305 258q62 0 117 -21t88 -45.5t75 -45.5t80 -21q51 0 87 27.5t63 93.5l160 -61q-41 -123 -118 -190.5t-177 -67.5q-68 0 -125.5 20.5t-90 45t-75 45t-84.5 20.5q-101 0 -144 -119zM397 305q0 -123 189 -123q137 0 223 62t104 164l11 61 l-279 -12q-248 -13 -248 -152z" />
<glyph unicode="&#xe4;" d="M31 266q0 152 114 236q123 95 402 110l397 19l6 39q12 85 -40.5 126.5t-166.5 41.5q-107 0 -169.5 -37.5t-79.5 -120.5h-357q31 173 182 274t429 101q303 0 442 -118t98 -359l-49 -279q-31 -166 -31 -299h-344q0 74 17 174q-61 -101 -175 -153t-266 -52q-188 0 -298.5 75 t-110.5 222zM365 1178l49 280h317l-49 -280h-317zM397 305q0 -123 189 -123q137 0 223 62t104 164l11 61l-279 -12q-248 -13 -248 -152zM909 1178l49 280h318l-47 -280h-320z" />
<glyph unicode="&#xe5;" d="M31 266q0 152 114 236q123 95 402 110l397 19l6 39q12 85 -40.5 126.5t-166.5 41.5q-107 0 -169.5 -37.5t-79.5 -120.5h-357q31 173 182 274t429 101q303 0 442 -118t98 -359l-49 -279q-31 -166 -31 -299h-344q0 74 17 174q-61 -101 -175 -153t-266 -52q-188 0 -298.5 75 t-110.5 222zM397 305q0 -123 189 -123q137 0 223 62t104 164l11 61l-279 -12q-248 -13 -248 -152zM485 1354q0 116 90.5 188t239.5 72q136 0 215.5 -61.5t79.5 -163.5q0 -116 -91 -188.5t-239 -72.5q-135 0 -215 62t-80 164zM655 1354q0 -42 33 -68t92 -26q77 0 118.5 34 t41.5 95q0 42 -33 68t-92 26q-77 0 -118.5 -34t-41.5 -95z" />
<glyph unicode="&#xe6;" horiz-adv-x="2152" d="M29 256q0 154 116 240q125 89 410 104l371 16l4 52q13 86 -35.5 128t-161.5 42q-110 0 -169.5 -38.5t-71.5 -123.5h-357q30 171 180 275t426 104q290 0 402 -127q166 127 405 127q112 0 207 -23.5t173.5 -73.5t123.5 -137t45 -203q0 -93 -26 -184h-838q-1 -114 72 -169.5 t186 -55.5q192 0 285 149l243 -118q-173 -271 -553 -271q-152 0 -283 50.5t-202 160.5q-179 -211 -541 -211q-189 0 -300 74t-111 213zM395 295q0 -57 47.5 -85t132.5 -28q124 0 212 57t106 158l10 62l-266 -13q-242 -11 -242 -151zM1255 625h508q6 18 6 55q0 88 -63.5 132 t-165.5 44q-116 0 -187.5 -62t-97.5 -169z" />
<glyph unicode="&#xe7;" horiz-adv-x="1363" d="M55 457q0 86 21 167t71.5 160.5t126.5 138.5t195.5 95.5t269.5 36.5q111 0 208 -20t181.5 -62.5t140 -117.5t70.5 -177l-354 -60q-19 103 -87 146t-161 43q-72 0 -129.5 -21.5t-92 -56t-57.5 -80t-31.5 -90t-8.5 -90.5q0 -69 21 -118.5t58 -77t80.5 -40t96.5 -12.5 q210 0 274 193l334 -68q-56 -164 -203.5 -267t-384.5 -110l-61 -71q42 30 123 30q97 0 148.5 -37.5t51.5 -107.5q0 -116 -86.5 -172.5t-228.5 -56.5q-231 0 -287 124l189 52q21 -52 98 -52q45 0 73.5 22t28.5 64q0 29 -21 45.5t-63 16.5q-56 0 -86 -33l-141 33l111 149 q-77 9 -143.5 28t-131.5 56.5t-111 89.5t-74 131t-28 177z" />
<glyph unicode="&#xe8;" horiz-adv-x="1368" d="M55 455q0 88 22 170.5t73 161.5t127 138t193 94.5t261 35.5q91 0 172 -13.5t157 -46.5t130.5 -82.5t87.5 -126.5t33 -174q0 -89 -25 -178h-895q5 -63 32.5 -108.5t71 -70t92.5 -35.5t105 -11q115 0 184.5 38.5t114.5 110.5l242 -120q-167 -269 -559 -269q-59 0 -116.5 6 t-120 21.5t-116.5 39.5t-104 62.5t-85 87.5t-56 118t-21 151zM289 1487h342l330 -322h-281zM403 625h576q6 15 6 45q0 91 -77 138.5t-189 47.5q-136 0 -215 -63t-101 -168z" />
<glyph unicode="&#xe9;" horiz-adv-x="1368" d="M55 455q0 88 22 170.5t73 161.5t127 138t193 94.5t261 35.5q91 0 172 -13.5t157 -46.5t130.5 -82.5t87.5 -126.5t33 -174q0 -89 -25 -178h-895q5 -63 32.5 -108.5t71 -70t92.5 -35.5t105 -11q115 0 184.5 38.5t114.5 110.5l242 -120q-167 -269 -559 -269q-59 0 -116.5 6 t-120 21.5t-116.5 39.5t-104 62.5t-85 87.5t-56 118t-21 151zM403 625h576q6 15 6 45q0 91 -77 138.5t-189 47.5q-136 0 -215 -63t-101 -168zM659 1165l330 322h342l-391 -322h-281z" />
<glyph unicode="&#xea;" horiz-adv-x="1368" d="M55 455q0 88 22 170.5t73 161.5t127 138t193 94.5t261 35.5q91 0 172 -13.5t157 -46.5t130.5 -82.5t87.5 -126.5t33 -174q0 -89 -25 -178h-895q5 -63 32.5 -108.5t71 -70t92.5 -35.5t105 -11q115 0 184.5 38.5t114.5 110.5l242 -120q-167 -269 -559 -269q-59 0 -116.5 6 t-120 21.5t-116.5 39.5t-104 62.5t-85 87.5t-56 118t-21 151zM362 1165l320 322h356l205 -322h-258l-135 215l-211 -215h-277zM403 625h576q6 15 6 45q0 91 -77 138.5t-189 47.5q-136 0 -215 -63t-101 -168z" />
<glyph unicode="&#xeb;" horiz-adv-x="1368" d="M55 455q0 88 22 170.5t73 161.5t127 138t193 94.5t261 35.5q91 0 172 -13.5t157 -46.5t130.5 -82.5t87.5 -126.5t33 -174q0 -89 -25 -178h-895q5 -63 32.5 -108.5t71 -70t92.5 -35.5t105 -11q115 0 184.5 38.5t114.5 110.5l242 -120q-167 -269 -559 -269q-59 0 -116.5 6 t-120 21.5t-116.5 39.5t-104 62.5t-85 87.5t-56 118t-21 151zM375 1178l49 280h317l-49 -280h-317zM403 625h576q6 15 6 45q0 91 -77 138.5t-189 47.5q-136 0 -215 -63t-101 -168zM920 1178l49 280h317l-47 -280h-319z" />
<glyph unicode="&#xec;" horiz-adv-x="657" d="M10 1487h316l247 -322h-276zM61 0l187 1024h348l-186 -1024h-349z" />
<glyph unicode="&#xed;" horiz-adv-x="657" d="M61 0l187 1024h348l-186 -1024h-349zM309 1165l248 322h315l-286 -322h-277z" />
<glyph unicode="&#xee;" horiz-adv-x="657" d="M61 0l187 1024h348l-186 -1024h-349zM125 1165l215 322h328l100 -322h-221l-53 219l-129 -219h-240z" />
<glyph unicode="&#xef;" horiz-adv-x="657" d="M61 0l187 1024h348l-186 -1024h-349zM119 1178l49 280h283l-50 -280h-282zM498 1178l49 280h282l-49 -280h-282z" />
<glyph unicode="&#xf0;" horiz-adv-x="1445" d="M59 442q0 83 18 163t62.5 159t110 138.5t170 96.5t233.5 37q292 0 396 -190h4q-9 183 -154 344l-266 -76l-19 94l207 58q-65 54 -153 110l329 137q108 -67 183 -147l196 55l17 -94l-146 -41q152 -212 152 -504q0 -76 -9.5 -150t-33.5 -156t-62 -153.5t-98.5 -137.5 t-138 -113t-186.5 -75t-238 -28q-88 0 -166 12.5t-154.5 45.5t-131.5 85t-88.5 136.5t-33.5 193.5zM422 457q0 -70 21 -120t59 -77t82.5 -39t99.5 -12q72 0 131 24t96 62t62 86.5t35 95.5t10 92q0 122 -72 180t-196 58q-76 0 -135.5 -23.5t-94.5 -59.5t-58 -84t-31.5 -92.5 t-8.5 -90.5z" />
<glyph unicode="&#xf1;" horiz-adv-x="1482" d="M61 0l181 1024h340l-37 -209q69 112 171 176t259 64q58 0 108.5 -9t105 -35.5t93 -68.5t63.5 -114.5t25 -168.5q0 -77 -18 -176l-86 -483h-351l82 459q15 71 15 123q0 213 -213 213q-74 0 -130 -27t-90.5 -76.5t-54 -103.5t-32.5 -125l-80 -463h-351zM451 1249 q93 258 305 258q62 0 117 -21t88 -45.5t75 -45.5t80 -21q51 0 87 27.5t63 93.5l159 -61q-41 -123 -118 -190.5t-177 -67.5q-68 0 -125.5 20.5t-89.5 45t-74.5 45t-84.5 20.5q-101 0 -144 -119z" />
<glyph unicode="&#xf2;" horiz-adv-x="1411" d="M55 455q0 91 24 176t77 162.5t131.5 135t195.5 92t260 34.5q89 0 170 -12.5t164 -47t143 -87t98 -140t38 -199.5q0 -91 -24 -176t-77 -162.5t-131.5 -135t-195.5 -92t-260 -34.5q-89 0 -170 12.5t-164 47t-143 87t-98 140t-38 199.5zM299 1487h342l330 -322h-281z M412 453q0 -68 22.5 -118t61.5 -77.5t84 -40t98 -12.5q69 0 124.5 23.5t91.5 61t60.5 86.5t34.5 97.5t10 97.5q0 68 -22.5 118t-61.5 77.5t-84 40t-98 12.5q-69 0 -124.5 -23.5t-91.5 -61t-60.5 -86.5t-34.5 -97.5t-10 -97.5z" />
<glyph unicode="&#xf3;" horiz-adv-x="1411" d="M55 455q0 91 24 176t77 162.5t131.5 135t195.5 92t260 34.5q89 0 170 -12.5t164 -47t143 -87t98 -140t38 -199.5q0 -91 -24 -176t-77 -162.5t-131.5 -135t-195.5 -92t-260 -34.5q-89 0 -170 12.5t-164 47t-143 87t-98 140t-38 199.5zM412 453q0 -68 22.5 -118t61.5 -77.5 t84 -40t98 -12.5q69 0 124.5 23.5t91.5 61t60.5 86.5t34.5 97.5t10 97.5q0 68 -22.5 118t-61.5 77.5t-84 40t-98 12.5q-69 0 -124.5 -23.5t-91.5 -61t-60.5 -86.5t-34.5 -97.5t-10 -97.5zM670 1165l329 322h342l-391 -322h-280z" />
<glyph unicode="&#xf4;" horiz-adv-x="1411" d="M55 455q0 91 24 176t77 162.5t131.5 135t195.5 92t260 34.5q89 0 170 -12.5t164 -47t143 -87t98 -140t38 -199.5q0 -91 -24 -176t-77 -162.5t-131.5 -135t-195.5 -92t-260 -34.5q-89 0 -170 12.5t-164 47t-143 87t-98 140t-38 199.5zM373 1165l319 322h357l204 -322h-258 l-135 215l-211 -215h-276zM412 453q0 -68 22.5 -118t61.5 -77.5t84 -40t98 -12.5q69 0 124.5 23.5t91.5 61t60.5 86.5t34.5 97.5t10 97.5q0 68 -22.5 118t-61.5 77.5t-84 40t-98 12.5q-69 0 -124.5 -23.5t-91.5 -61t-60.5 -86.5t-34.5 -97.5t-10 -97.5z" />
<glyph unicode="&#xf5;" horiz-adv-x="1411" d="M55 455q0 91 24 176t77 162.5t131.5 135t195.5 92t260 34.5q89 0 170 -12.5t164 -47t143 -87t98 -140t38 -199.5q0 -91 -24 -176t-77 -162.5t-131.5 -135t-195.5 -92t-260 -34.5q-89 0 -170 12.5t-164 47t-143 87t-98 140t-38 199.5zM348 1249q93 258 305 258 q62 0 117.5 -21t88.5 -45.5t75 -45.5t80 -21q51 0 86.5 27.5t62.5 93.5l160 -61q-41 -123 -118 -190.5t-177 -67.5q-68 0 -125.5 20.5t-90 45t-75 45t-84.5 20.5q-100 0 -143 -119zM412 453q0 -68 22.5 -118t61.5 -77.5t84 -40t98 -12.5q69 0 124.5 23.5t91.5 61t60.5 86.5 t34.5 97.5t10 97.5q0 68 -22.5 118t-61.5 77.5t-84 40t-98 12.5q-69 0 -124.5 -23.5t-91.5 -61t-60.5 -86.5t-34.5 -97.5t-10 -97.5z" />
<glyph unicode="&#xf6;" horiz-adv-x="1411" d="M55 455q0 91 24 176t77 162.5t131.5 135t195.5 92t260 34.5q89 0 170 -12.5t164 -47t143 -87t98 -140t38 -199.5q0 -91 -24 -176t-77 -162.5t-131.5 -135t-195.5 -92t-260 -34.5q-89 0 -170 12.5t-164 47t-143 87t-98 140t-38 199.5zM385 1178l49 280h318l-50 -280h-317z M412 453q0 -68 22.5 -118t61.5 -77.5t84 -40t98 -12.5q69 0 124.5 23.5t91.5 61t60.5 86.5t34.5 97.5t10 97.5q0 68 -22.5 118t-61.5 77.5t-84 40t-98 12.5q-69 0 -124.5 -23.5t-91.5 -61t-60.5 -86.5t-34.5 -97.5t-10 -97.5zM930 1178l49 280h317l-47 -280h-319z" />
<glyph unicode="&#xf7;" horiz-adv-x="1269" d="M100 559l41 223h1086l-41 -223h-1086zM449 293q0 65 40.5 105t104.5 40t105.5 -40t41.5 -105q0 -64 -42 -106t-105 -42t-104 41t-41 107zM569 1057q0 65 42 106t106 41t105.5 -40.5t41.5 -106.5q0 -63 -42 -104.5t-105 -41.5q-64 0 -106 41t-42 105z" />
<glyph unicode="&#xf8;" horiz-adv-x="1411" d="M29 23l141 114q-115 122 -115 318q0 91 24 176t77 162.5t131.5 135t195.5 92t260 34.5q261 0 418 -103l146 119l69 -74l-135 -110q115 -122 115 -318q0 -91 -24 -176t-77 -162.5t-131.5 -135t-195.5 -92t-260 -34.5q-260 0 -420 105l-148 -121zM412 453q0 -57 16 -103 l498 408q-69 61 -193 61q-69 0 -124.5 -23.5t-91.5 -61t-60.5 -86.5t-34.5 -97.5t-10 -97.5zM483 266q69 -61 195 -61q69 0 124.5 23.5t91.5 61t60.5 86.5t34.5 97.5t10 97.5q0 55 -16 105z" />
<glyph unicode="&#xf9;" horiz-adv-x="1466" d="M104 313q0 71 27 228l86 483h350l-82 -459q-18 -133 -18 -155q0 -98 53 -140.5t139 -42.5q64 0 114 18t82.5 46.5t56.5 74t37 90.5t24 105l82 463h350l-180 -1024h-338l37 209q-124 -240 -428 -240q-58 0 -109 8t-104.5 31t-91.5 59.5t-62.5 99.5t-24.5 146zM319 1487 h343l329 -322h-280z" />
<glyph unicode="&#xfa;" horiz-adv-x="1466" d="M104 313q0 71 27 228l86 483h350l-82 -459q-18 -133 -18 -155q0 -98 53 -140.5t139 -42.5q64 0 114 18t82.5 46.5t56.5 74t37 90.5t24 105l82 463h350l-180 -1024h-338l37 209q-124 -240 -428 -240q-58 0 -109 8t-104.5 31t-91.5 59.5t-62.5 99.5t-24.5 146zM690 1165 l330 322h342l-391 -322h-281z" />
<glyph unicode="&#xfb;" horiz-adv-x="1466" d="M104 313q0 71 27 228l86 483h350l-82 -459q-18 -133 -18 -155q0 -98 53 -140.5t139 -42.5q64 0 114 18t82.5 46.5t56.5 74t37 90.5t24 105l82 463h350l-180 -1024h-338l37 209q-124 -240 -428 -240q-58 0 -109 8t-104.5 31t-91.5 59.5t-62.5 99.5t-24.5 146zM393 1165 l320 322h356l205 -322h-258l-135 215l-211 -215h-277z" />
<glyph unicode="&#xfc;" horiz-adv-x="1466" d="M104 313q0 71 27 228l86 483h350l-82 -459q-18 -133 -18 -155q0 -98 53 -140.5t139 -42.5q64 0 114 18t82.5 46.5t56.5 74t37 90.5t24 105l82 463h350l-180 -1024h-338l37 209q-124 -240 -428 -240q-58 0 -109 8t-104.5 31t-91.5 59.5t-62.5 99.5t-24.5 146zM406 1178 l49 280h317l-49 -280h-317zM950 1178l49 280h318l-47 -280h-320z" />
<glyph unicode="&#xfd;" horiz-adv-x="1298" d="M-80 -385l45 256q85 -29 187 -29q151 0 225 123l18 37l-305 1022h375l137 -627q12 -82 12 -116h7q19 55 49 114l344 629h375l-668 -1104q-53 -89 -108 -151.5t-105.5 -99t-112 -57t-114 -26.5t-123.5 -6q-122 0 -238 35zM631 1165l330 322h342l-392 -322h-280z" />
<glyph unicode="&#xfe;" horiz-adv-x="1497" d="M2 -399l70 399l262 1485h350l-106 -608q65 83 167 130.5t228 47.5q66 0 129 -13.5t126 -46.5t109.5 -83t75.5 -130.5t29 -181.5q0 -85 -19 -169.5t-63.5 -169t-110.5 -148.5t-168 -104t-227 -40q-137 0 -242.5 44t-162.5 132l-97 -544h-350zM496 508q-27 -127 43.5 -215 t210.5 -88q71 0 128 24.5t93 63.5t60 89.5t34 99t10 96.5q0 69 -22 118.5t-60.5 75t-79.5 36.5t-88 11q-121 0 -205.5 -66.5t-107.5 -166.5z" />
<glyph unicode="&#xff;" horiz-adv-x="1298" d="M-80 -385l45 256q85 -29 187 -29q151 0 225 123l18 37l-305 1022h375l137 -627q12 -82 12 -116h7q19 55 49 114l344 629h375l-668 -1104q-53 -89 -108 -151.5t-105.5 -99t-112 -57t-114 -26.5t-123.5 -6q-122 0 -238 35zM346 1178l49 280h318l-49 -280h-318zM891 1178 l49 280h317l-47 -280h-319z" />
<glyph unicode="&#x152;" horiz-adv-x="2373" d="M86 631q0 78 14 156t46.5 160t82 155t126 138t171.5 112t225.5 74.5t282.5 27.5h1376l-47 -266h-823l-57 -318h790l-45 -258h-790l-62 -344h840l-47 -268h-1295q-125 0 -233.5 17t-213 61.5t-178 114t-118.5 181.5t-45 257zM469 641q0 -377 446 -377h95l161 926h-131 q-128 0 -230 -35.5t-164.5 -91t-103.5 -130t-57 -146.5t-16 -146z" />
<glyph unicode="&#x153;" horiz-adv-x="2304" d="M55 455q0 91 24 176t77.5 162.5t131.5 135.5t194 92t257 34q310 0 451 -170q170 170 479 170q90 0 170.5 -13.5t156.5 -46.5t130.5 -82.5t87.5 -126.5t33 -174q0 -89 -25 -178h-895q5 -63 32.5 -108.5t71 -70t92.5 -35.5t105 -11q115 0 184.5 38.5t114.5 110.5l242 -120 q-167 -269 -557 -269q-141 0 -271 39.5t-213 132.5q-165 -172 -464 -172q-87 0 -167.5 12.5t-163 47t-142.5 87t-98 140t-38 199.5zM412 453q0 -68 22.5 -118t61.5 -77.5t84 -40t98 -12.5q85 0 149.5 35t100 91t52.5 117t17 123q0 68 -22 118t-60.5 77.5t-83.5 40t-98 12.5 q-69 0 -124.5 -23.5t-91.5 -61t-60.5 -86.5t-34.5 -97.5t-10 -97.5zM1341 625h574q6 15 6 45q0 91 -76.5 138.5t-189.5 47.5q-135 0 -213.5 -63.5t-100.5 -167.5z" />
<glyph unicode="&#x178;" horiz-adv-x="1525" d="M156 1454h385l231 -563q23 -64 23 -96h4q18 44 57 96l436 563h410l-756 -944l-90 -510h-369l88 510zM520 1548l43 240h307l-41 -240h-309zM1069 1548l43 240h309l-43 -240h-309z" />
<glyph unicode="&#x2c6;" horiz-adv-x="1228" d="M76 1165l319 322h357l204 -322h-258l-135 215l-211 -215h-276z" />
<glyph unicode="&#x2dc;" horiz-adv-x="1228" d="M109 1249q93 258 305 258q62 0 117 -21t88 -45.5t75 -45.5t80 -21q51 0 87 27.5t63 93.5l159 -61q-41 -123 -118 -190.5t-177 -67.5q-68 0 -125.5 20.5t-89.5 45t-74.5 45t-84.5 20.5q-101 0 -144 -119z" />
<glyph unicode="&#x2000;" horiz-adv-x="1002" />
<glyph unicode="&#x2001;" horiz-adv-x="2005" />
<glyph unicode="&#x2002;" horiz-adv-x="1002" />
<glyph unicode="&#x2003;" horiz-adv-x="2005" />
<glyph unicode="&#x2004;" horiz-adv-x="668" />
<glyph unicode="&#x2005;" horiz-adv-x="501" />
<glyph unicode="&#x2006;" horiz-adv-x="334" />
<glyph unicode="&#x2007;" horiz-adv-x="334" />
<glyph unicode="&#x2008;" horiz-adv-x="250" />
<glyph unicode="&#x2009;" horiz-adv-x="401" />
<glyph unicode="&#x200a;" horiz-adv-x="111" />
<glyph unicode="&#x2010;" horiz-adv-x="1030" d="M80 432l47 277h844l-49 -277h-842z" />
<glyph unicode="&#x2011;" horiz-adv-x="1030" d="M80 432l47 277h844l-49 -277h-842z" />
<glyph unicode="&#x2012;" horiz-adv-x="1030" d="M80 432l47 277h844l-49 -277h-842z" />
<glyph unicode="&#x2013;" horiz-adv-x="1437" d="M80 434l47 268h1251l-47 -268h-1251z" />
<glyph unicode="&#x2014;" horiz-adv-x="1949" d="M80 432l47 273h1763l-47 -273h-1763z" />
<glyph unicode="&#x2018;" horiz-adv-x="626" d="M186 836l62 350q13 71 43.5 127t66.5 89.5t82 57t82.5 33t75.5 14.5l31 -141q-167 -26 -191 -162l-4 -20h184l-61 -348h-371z" />
<glyph unicode="&#x2019;" horiz-adv-x="626" d="M221 924q168 26 191 161l4 21h-185l62 348h371l-62 -350q-13 -71 -43.5 -127t-66.5 -89.5t-82 -57t-82.5 -33.5t-75.5 -15z" />
<glyph unicode="&#x201a;" horiz-adv-x="626" d="M27 -182q166 26 190 162l4 20h-184l61 348h371l-61 -350q-13 -71 -43.5 -127t-67 -89.5t-82.5 -57t-82.5 -33.5t-75.5 -15z" />
<glyph unicode="&#x201c;" horiz-adv-x="1105" d="M186 836l62 350q13 71 43.5 127t66.5 89.5t82 57t82.5 33t75.5 14.5l31 -141q-167 -26 -191 -162l-4 -20h184l-61 -348h-371zM664 836l61 350q13 71 43.5 127t66.5 89.5t82 57t82.5 33t75.5 14.5l31 -141q-167 -26 -191 -162l-4 -20h185l-62 -348h-370z" />
<glyph unicode="&#x201d;" horiz-adv-x="1103" d="M223 926q168 26 191 161l4 21h-185l62 348h371l-62 -350q-13 -71 -43.5 -127t-66.5 -89.5t-82 -57t-82.5 -33.5t-75.5 -15zM700 926q168 26 191 161l4 21h-184l61 348h371l-62 -350q-13 -71 -43.5 -127t-66.5 -89.5t-82 -57t-82.5 -33.5t-75.5 -15z" />
<glyph unicode="&#x201e;" horiz-adv-x="1103" d="M29 -180q166 26 190 162l4 20h-184l61 348h371l-61 -350q-13 -71 -43.5 -127t-67 -89.5t-82.5 -57t-82.5 -33.5t-75.5 -15zM506 -180q166 26 190 162l4 20h-184l62 348h370l-61 -350q-13 -71 -43.5 -127t-66.5 -89.5t-82 -57t-82.5 -33.5t-75.5 -15z" />
<glyph unicode="&#x2022;" horiz-adv-x="796" d="M166 694q0 117 74.5 190.5t189.5 73.5q117 0 191.5 -72t74.5 -192q0 -116 -75 -188t-191 -72q-115 0 -189.5 72t-74.5 188z" />
<glyph unicode="&#x2026;" horiz-adv-x="1943" d="M37 0l59 328h379l-59 -328h-379zM692 0l60 328h378l-59 -328h-379zM1346 0l59 328h379l-60 -328h-378z" />
<glyph unicode="&#x202f;" horiz-adv-x="401" />
<glyph unicode="&#x2039;" horiz-adv-x="813" d="M51 565l481 422h330l-489 -432l317 -418h-315z" />
<glyph unicode="&#x203a;" horiz-adv-x="813" d="M-31 137l490 432l-318 418h316l323 -428l-481 -422h-330z" />
<glyph unicode="&#x205f;" horiz-adv-x="501" />
<glyph unicode="&#x20ac;" horiz-adv-x="1679" d="M29 618l22 136h2l10 57h121q21 104 63 196t113.5 176.5t165.5 145t226 96t288 35.5q113 0 216 -18t201.5 -58.5t170.5 -116.5t101 -180v-2l-353 -94q-73 199 -340 199q-111 0 -198.5 -32t-143 -88t-89.5 -119.5t-52 -139.5h623l-23 -135h-2l-10 -58h-606 q12 -385 383 -385q257 0 376 213l318 -100q-39 -62 -82 -113.5t-107 -103.5t-137 -87.5t-173 -58t-214 -22.5q-110 0 -209 18t-197 64.5t-168.5 118.5t-114.5 189t-44 267h-137z" />
<glyph unicode="&#x2122;" horiz-adv-x="2037" d="M145 1280l33 178h811l-33 -178h-299l-116 -653h-222l115 653h-289zM934 627l147 831h312l71 -473q14 -89 11 -151h4q30 88 63 151l240 473h319l-147 -831h-199l86 479q12 75 37 180h-4q-28 -61 -70 -151l-262 -508h-194l-82 508q-15 102 -19 151h-2q-9 -74 -28 -180 l-84 -479h-199z" />
<glyph unicode="&#x25fc;" horiz-adv-x="1024" d="M0 0v1024h1024v-1024h-1024z" />
</font>
</defs>
</svg>
