<?xml version="1.0" standalone="no"?>
<!DOCTYPE svg PUBLIC "-//W3C//DTD SVG 1.1//EN" "http://www.w3.org/Graphics/SVG/1.1/DTD/svg11.dtd" >
<svg xmlns="http://www.w3.org/2000/svg" xmlns:xlink="http://www.w3.org/1999/xlink" version="1.1">
<metadata></metadata>
<defs>
<font id="gt_americaextended_bold" horiz-adv-x="1757" >
<font-face units-per-em="2048" ascent="1638" descent="-410" />
<missing-glyph horiz-adv-x="638" />
<glyph unicode="&#xfb01;" horiz-adv-x="1626" d="M35 795v229h225v70q0 407 475 407q107 0 203 -22v-246q-74 14 -150 14q-94 0 -136 -37t-42 -120v-66h328v-229h-328v-795h-350v795h-225zM1116 1171v306h369v-306h-369zM1124 0v1024h351v-1024h-351z" />
<glyph unicode="&#xfb02;" horiz-adv-x="1646" d="M35 795v229h225v70q0 407 475 407q107 0 203 -22v-246q-74 14 -150 14q-94 0 -136 -37t-42 -120v-66h328v-229h-328v-795h-350v795h-225zM1135 0v1485h350v-1485h-350z" />
<glyph horiz-adv-x="0" />
<glyph horiz-adv-x="0" />
<glyph horiz-adv-x="682" />
<glyph unicode="&#xd;" horiz-adv-x="0" />
<glyph unicode=" "  horiz-adv-x="638" />
<glyph unicode="&#x09;" horiz-adv-x="638" />
<glyph unicode="&#xa0;" horiz-adv-x="638" />
<glyph unicode="!" horiz-adv-x="741" d="M172 1485h397l-55 -1004h-289zM174 0v315h391v-315h-391z" />
<glyph unicode="&#x22;" horiz-adv-x="1030" d="M127 1454h332l-47 -643h-238zM573 1454h332l-47 -643h-237z" />
<glyph unicode="#" horiz-adv-x="1517" d="M29 356v224h284l49 262h-251v223h292l68 352h266l-67 -352h303l67 352h265l-68 -352h252v-223h-293l-49 -262h272v-224h-315l-68 -356h-266l68 356h-303l-68 -356h-264l67 356h-241zM578 580h303l49 262h-303z" />
<glyph unicode="$" horiz-adv-x="1492" d="M0 291l262 176q127 -217 412 -248v391l-133 21q-453 74 -453 411q0 186 154.5 295.5t431.5 120.5v178h139v-178q403 -21 600 -270l-235 -189q-109 186 -365 213v-348l150 -20q248 -42 362.5 -142.5t114.5 -283.5q0 -199 -167.5 -320t-459.5 -133v-182h-139v182 q-240 10 -415 95.5t-259 230.5zM414 1061q0 -72 58 -111.5t202 -64.5v334q-260 -9 -260 -158zM813 215q142 6 217.5 52.5t75.5 129.5q0 82 -59 123.5t-199 65.5l-35 4v-375z" />
<glyph unicode="%" horiz-adv-x="2045" d="M31 1085q-1 177 123.5 283.5t330.5 106.5q204 0 330 -108.5t125 -285.5q1 -176 -124.5 -282.5t-328.5 -106.5q-208 0 -332.5 107t-123.5 286zM291 1085q0 -99 52 -150.5t144 -51.5q88 0 139.5 51t51.5 147q0 99 -51.5 151t-141.5 52t-142 -51.5t-52 -147.5zM311 -33 l1180 1516h248l-1180 -1516h-248zM1106 362q-1 176 124 283t331 107q204 0 329.5 -108t124.5 -286q1 -176 -124.5 -282.5t-327.5 -106.5q-208 0 -333 107t-124 286zM1366 362q0 -99 52.5 -150.5t144.5 -51.5q88 0 139 51t51 147q0 99 -51 151t-141 52t-142.5 -51.5 t-52.5 -147.5z" />
<glyph unicode="&#x26;" horiz-adv-x="1622" d="M25 381q0 131 77 225t248 174q-95 97 -137.5 178t-42.5 175q0 177 131 276.5t346 99.5q219 0 349 -96t130 -258q0 -124 -85.5 -224.5t-231.5 -168.5l-14 -6l313 -285q92 148 127 367l268 -54q-44 -289 -192 -487q91 -61 194 -61q52 0 88 10v-246q-83 -27 -155 -27 q-179 0 -332 127q-215 -141 -496 -141q-278 0 -431.5 116.5t-153.5 305.5zM379 410q0 -93 80.5 -152t204.5 -59q136 0 251 71l-397 357q-74 -44 -106.5 -95.5t-32.5 -121.5zM485 1145q0 -55 32 -109t118 -137l22 10q81 35 122.5 95.5t41.5 138.5q0 76 -44 120t-126 44 q-77 0 -121.5 -42.5t-44.5 -119.5z" />
<glyph unicode="'" horiz-adv-x="585" d="M127 1454h332l-47 -643h-238z" />
<glyph unicode="(" horiz-adv-x="786" d="M115 666q0 268 105.5 510t297.5 428l260 -105q-172 -190 -253 -395t-81 -440q0 -471 336 -846l-264 -107q-190 192 -295.5 441t-105.5 514z" />
<glyph unicode=")" horiz-adv-x="786" d="M6 -182q336 375 336 846q0 235 -81 440t-253 395l260 105q192 -186 298 -428t106 -510q0 -265 -105.5 -514t-296.5 -441z" />
<glyph unicode="*" horiz-adv-x="829" d="M20 1110l78 240l250 -148l-61 277h258l-62 -277l248 148l80 -240l-287 -33l221 -194l-206 -148l-123 266l-125 -266l-205 148l221 194z" />
<glyph unicode="+" horiz-adv-x="1269" d="M92 563v221h420v371h244v-371h422v-221h-422v-393h-244v393h-420z" />
<glyph unicode="," horiz-adv-x="624" d="M127 0v348h371v-325q0 -283 -293 -347l-58 142q90 24 125 65t35 111v6h-180z" />
<glyph unicode="-" horiz-adv-x="1028" d="M92 432v277h844v-277h-844z" />
<glyph unicode="." horiz-adv-x="632" d="M127 0v334h379v-334h-379z" />
<glyph unicode="/" horiz-adv-x="1224" d="M86 -240l733 1796h320l-733 -1796h-320z" />
<glyph unicode="0" horiz-adv-x="1562" d="M76 711q0 351 189.5 551t514.5 200t516 -200t191 -551q0 -349 -191 -549.5t-516 -200.5q-324 0 -514 200t-190 550zM440 711q0 -235 91 -359.5t249 -124.5q160 0 251 124.5t91 359.5q0 237 -91 361t-251 124q-159 0 -249.5 -124t-90.5 -361z" />
<glyph unicode="1" horiz-adv-x="972" d="M43 874v308h45q146 3 239 62t140 179h293v-1423h-352v969q-44 -44 -122.5 -69.5t-170.5 -25.5h-72z" />
<glyph unicode="2" horiz-adv-x="1423" d="M63 0v252q445 208 666 369q118 86 166.5 167t48.5 181q0 104 -63 164.5t-187 60.5q-123 0 -192.5 -63.5t-69.5 -176.5q0 -36 10 -94l-362 35q-8 41 -8 96q0 213 173.5 342t459.5 129q292 0 454 -124t162 -343q0 -146 -71.5 -262.5t-211.5 -218.5q-190 -133 -467 -240h772 v-274h-1280z" />
<glyph unicode="3" horiz-adv-x="1439" d="M55 440l359 33q8 -120 85.5 -185t213.5 -65q134 0 205 51.5t71 145.5q0 98 -72 142t-217 44h-116v228h114q128 0 195.5 47t67.5 137q0 89 -67.5 137.5t-193.5 48.5q-133 0 -205 -68t-75 -192l-352 43q3 214 174 344.5t469 130.5q295 0 454.5 -107.5t159.5 -299.5 q0 -129 -88.5 -213t-228.5 -107q170 -22 262 -107.5t92 -232.5q0 -197 -173 -315.5t-478 -118.5q-299 0 -473.5 128.5t-182.5 350.5z" />
<glyph unicode="4" horiz-adv-x="1452" d="M23 311v232l763 880h394v-862h254v-250h-254v-311h-351v311h-806zM356 561h484v408q0 123 6 168h-6q-26 -57 -109 -152l-256 -301q-72 -83 -119 -123z" />
<glyph unicode="5" horiz-adv-x="1413" d="M68 377l348 51q20 -95 95 -149t189 -54q135 0 210 67t75 187t-72.5 188t-199.5 68q-213 0 -285 -176l-317 29l92 835h1052v-268h-786l-43 -332q54 75 156.5 116.5t236.5 41.5q246 0 385 -131t139 -363q0 -244 -172.5 -385t-470.5 -141q-259 0 -428 111t-204 305z" />
<glyph unicode="6" horiz-adv-x="1452" d="M74 690q0 363 182 567.5t506 204.5q251 0 406.5 -101t193.5 -290l-346 -49q-50 182 -262 182q-156 0 -244 -109.5t-96 -310.5q135 183 434 183q253 0 393.5 -128.5t140.5 -357.5q0 -231 -173.5 -375.5t-452.5 -144.5q-324 0 -503 191.5t-179 537.5zM426 506 q26 -139 109.5 -213t214.5 -74q130 0 207 68t77 184q0 117 -74 183.5t-206 66.5q-115 0 -201 -56.5t-127 -158.5z" />
<glyph unicode="7" horiz-adv-x="1259" d="M35 1141v282h1200v-264q-264 -225 -404.5 -494t-140.5 -602v-63h-389v29q0 308 151 593t427 519h-844z" />
<glyph unicode="8" horiz-adv-x="1468" d="M61 369q0 264 312 340q-139 54 -205 139t-66 211q0 183 170 293t453 110q285 0 456 -102.5t171 -272.5q0 -229 -267 -303q168 -57 246 -150.5t78 -238.5q0 -200 -181.5 -317t-492.5 -117t-492.5 110t-181.5 298zM424 416q0 -97 83.5 -152t231.5 -55q141 0 224.5 52.5 t83.5 141.5q0 82 -67 131t-220 80l-144 31q-100 -37 -146 -92t-46 -137zM453 1059q0 -72 62 -117t202 -74l131 -26q82 35 119 83t37 119q0 89 -72.5 139t-204.5 50q-129 0 -201.5 -46t-72.5 -128z" />
<glyph unicode="9" horiz-adv-x="1452" d="M70 969q0 222 171.5 357.5t458.5 135.5q328 0 503 -186t175 -541q0 -369 -174 -571.5t-510 -202.5q-247 0 -406.5 105t-199.5 296l346 56q26 -93 96.5 -143t178.5 -50q161 0 245 114.5t86 324.5q-62 -79 -167.5 -121.5t-245.5 -42.5q-259 0 -408 125t-149 344zM418 975 q0 -104 75.5 -165.5t204.5 -61.5q120 0 209 54t123 146q-21 124 -102 195t-221 71q-133 0 -211 -64.5t-78 -174.5z" />
<glyph unicode=":" horiz-adv-x="632" d="M127 0v334h379v-334h-379zM127 690v334h379v-334h-379z" />
<glyph unicode=";" horiz-adv-x="632" d="M127 0v348h371v-325q0 -283 -293 -347l-58 142q90 24 125 65t35 111v6h-180zM127 690v334h379v-334h-379z" />
<glyph unicode="&#x3c;" horiz-adv-x="1427" d="M150 555v225l1046 410v-248l-764 -272l764 -273v-252z" />
<glyph unicode="=" horiz-adv-x="1257" d="M92 369v217h1073v-217h-1073zM92 762v217h1073v-217h-1073z" />
<glyph unicode="&#x3e;" horiz-adv-x="1427" d="M231 145v252l764 273l-764 272v248l1047 -410v-225z" />
<glyph unicode="?" horiz-adv-x="1316" d="M33 1063q0 203 169 324.5t460 121.5q285 0 448.5 -111.5t163.5 -305.5q0 -226 -236 -371l-129 -74q-60 -36 -83 -72.5t-23 -91.5v-55h-340v86q0 80 37.5 143t126.5 113l139 76q75 42 111 91.5t36 123.5q0 87 -66.5 141.5t-184.5 54.5q-130 0 -205.5 -60.5t-75.5 -172.5 q0 -60 12 -100l-348 28q-12 49 -12 111zM442 0v315h385v-315h-385z" />
<glyph unicode="@" horiz-adv-x="1875" d="M51 565q0 230 112.5 410t318.5 280.5t472 100.5q397 0 634 -205t237 -545q0 -219 -107.5 -346t-290.5 -127q-238 0 -292 170q-51 -86 -144.5 -133t-216.5 -47q-149 0 -238.5 71t-89.5 189q0 121 85.5 186t273.5 90l313 35v29q0 151 -176 151q-165 0 -174 -135h-295 q7 145 138 233.5t335 88.5q222 0 336.5 -90.5t114.5 -268.5v-268q0 -77 24.5 -111t81.5 -34q77 0 121.5 83.5t44.5 229.5q0 290 -188.5 453.5t-528.5 163.5q-342 0 -540.5 -177t-198.5 -477q0 -293 200 -465t543 -172q103 0 218 22.5t198 59.5l58 -125q-203 -98 -496 -98 q-410 0 -646.5 208.5t-236.5 569.5zM741 414q0 -46 40 -74.5t106 -28.5q103 0 168 53.5t65 139.5v51l-221 -25q-158 -21 -158 -116z" />
<glyph unicode="A" horiz-adv-x="1722" d="M25 0l618 1454h436l617 -1454h-381l-121 317h-666l-122 -317h-381zM625 567h473l-140 365q-71 165 -96 270h-4q-20 -100 -94 -270z" />
<glyph unicode="B" horiz-adv-x="1624" d="M168 0v1454h848q245 0 370 -102t125 -269q0 -119 -70 -205.5t-202 -117.5q151 -23 230 -113.5t79 -234.5q0 -87 -31 -160.5t-92.5 -130.5t-162 -89t-230.5 -32h-864zM535 252h401q114 0 171.5 51t57.5 137t-57 134.5t-168 48.5h-405v-371zM535 860h380q113 0 163 48.5 t50 127.5q0 74 -51.5 120t-161.5 46h-380v-342z" />
<glyph unicode="C" horiz-adv-x="1683" d="M51 723q0 230 101.5 405t288.5 271t433 96q309 0 509 -142t247 -392l-377 -66q-28 150 -127.5 230.5t-259.5 80.5q-202 0 -318 -128.5t-116 -350.5q0 -218 119 -347.5t323 -129.5q155 0 254.5 77t131.5 222l374 -80q-70 -242 -268.5 -376t-499.5 -134q-381 0 -598 206.5 t-217 557.5z" />
<glyph unicode="D" horiz-adv-x="1728" d="M168 0v1454h723q359 0 572.5 -191.5t213.5 -519.5q0 -334 -218 -538.5t-574 -204.5h-717zM535 264h323q205 0 320.5 131.5t115.5 345.5q0 206 -116 327.5t-320 121.5h-323v-926z" />
<glyph unicode="E" horiz-adv-x="1486" d="M168 0v1454h1192v-266h-825v-318h790v-258h-790v-344h839v-268h-1206z" />
<glyph unicode="F" horiz-adv-x="1425" d="M168 0v1454h1192v-274h-825v-324h788v-268h-788v-588h-367z" />
<glyph unicode="G" horiz-adv-x="1734" d="M51 719q0 172 58 315.5t164 245.5t261.5 158.5t344.5 56.5q302 0 497 -125.5t246 -333.5l-379 -69q-31 116 -125.5 186t-245.5 70q-208 0 -324 -133.5t-116 -364.5q0 -229 116 -361.5t326 -132.5q94 0 172.5 27t129 71t78.5 98t30 110v22h-442v252h780v-811h-268l-17 227 q-66 -124 -205 -196t-341 -72q-227 0 -395.5 95t-256.5 266.5t-88 398.5z" />
<glyph unicode="H" horiz-adv-x="1777" d="M168 0v1454h367v-580h706v580h369v-1454h-369v600h-706v-600h-367z" />
<glyph unicode="I" horiz-adv-x="702" d="M168 0v1454h367v-1454h-367z" />
<glyph unicode="J" horiz-adv-x="946" d="M33 -6v293q106 -13 162 -13q124 0 189 62t65 207v911h366v-979q0 -132 -38 -229t-110 -156.5t-169 -88t-222 -28.5q-148 0 -243 21z" />
<glyph unicode="K" horiz-adv-x="1675" d="M168 0v1454h367v-653l639 653h436l-566 -575l598 -879h-423l-437 641l-247 -246v-395h-367z" />
<glyph unicode="L" horiz-adv-x="1339" d="M168 0v1454h367v-1159h761v-295h-1128z" />
<glyph unicode="M" horiz-adv-x="2117" d="M168 0v1454h524l322 -891q33 -105 41 -168h4q7 56 43 170l315 889h533v-1454h-336v973q0 88 10 190h-6q-15 -72 -51 -168l-357 -995h-323l-359 995q-33 88 -47 166h-8q10 -66 10 -188v-973h-315z" />
<glyph unicode="N" horiz-adv-x="1779" d="M168 0v1454h401l605 -833q58 -85 98 -177h4v193v817h336v-1454h-381l-627 844q-74 117 -96 170h-6q2 -61 2 -195v-819h-336z" />
<glyph unicode="O" d="M51 727q0 351 225.5 559.5t602.5 208.5t602 -208.5t225 -559.5t-225 -559.5t-602 -208.5t-602.5 208.5t-225.5 559.5zM434 727q0 -223 120.5 -354t324.5 -131t324 130.5t120 354.5t-120 354.5t-324 130.5t-324.5 -130.5t-120.5 -354.5z" />
<glyph unicode="P" horiz-adv-x="1546" d="M168 0v1454h793q255 0 405 -126t150 -341q0 -224 -153.5 -354.5t-414.5 -130.5h-413v-502h-367zM535 756h335q123 0 190.5 57.5t67.5 163.5q0 105 -67 162t-191 57h-335v-440z" />
<glyph unicode="Q" d="M51 727q0 351 225.5 559.5t602.5 208.5t602 -208.5t225 -559.5q0 -253 -120.5 -435.5t-336.5 -266.5q96 -80 264 -80q56 0 138 14v-285q-80 -12 -156 -12q-195 0 -330.5 77t-203.5 222q-27 -2 -82 -2q-377 0 -602.5 208.5t-225.5 559.5zM434 727q0 -223 120.5 -354 t324.5 -131t324 130.5t120 354.5t-120 354.5t-324 130.5t-324.5 -130.5t-120.5 -354.5z" />
<glyph unicode="R" horiz-adv-x="1619" d="M168 0v1454h790q147 0 256.5 -35t174 -97.5t96 -142t31.5 -175.5q0 -90 -30.5 -169t-101 -144.5t-174.5 -98.5l349 -592h-406l-307 543h-311v-543h-367zM535 788h344q130 0 190.5 57t60.5 154q0 92 -60.5 146.5t-190.5 54.5h-344v-412z" />
<glyph unicode="S" horiz-adv-x="1505" d="M0 313l270 189q73 -127 199.5 -196.5t302.5 -69.5q311 0 311 170q0 74 -51 110t-176 55l-301 45q-227 36 -340 143t-113 294q0 207 173.5 324.5t480.5 117.5q237 0 413 -74t277 -221l-240 -201q-68 110 -189.5 170t-281.5 60q-134 0 -208 -40.5t-74 -113.5q0 -70 51 -106 t182 -58l293 -43q243 -39 355 -140t112 -290q0 -224 -181 -351.5t-509 -127.5q-271 0 -467.5 93.5t-288.5 260.5z" />
<glyph unicode="T" horiz-adv-x="1406" d="M16 1163v291h1375v-291h-504v-1163h-367v1163h-504z" />
<glyph unicode="U" horiz-adv-x="1691" d="M129 571v883h369v-860q0 -155 92.5 -248.5t255.5 -93.5t255.5 93.5t92.5 248.5v860h369v-885q0 -280 -190 -445t-527 -165t-527 166t-190 446z" />
<glyph unicode="V" horiz-adv-x="1609" d="M0 1454h401l353 -958q37 -109 47 -177h8q12 79 45 177l354 958h402l-588 -1454h-434z" />
<glyph unicode="W" horiz-adv-x="2304" d="M39 1454h373l233 -944q16 -73 19 -129h8q2 48 24 129l269 944h374l269 -944q22 -81 24 -129h8q1 30 19 129l233 944h375l-414 -1454h-415l-262 969q-16 64 -19 116h-10q-3 -52 -19 -116l-262 -969h-415z" />
<glyph unicode="X" horiz-adv-x="1652" d="M14 0l578 752l-551 702h426l301 -412q41 -57 55 -92h4q13 32 56 92l305 412h418l-545 -715l579 -739h-432l-321 432q-52 68 -68 105h-4q-12 -33 -63 -103l-318 -434h-420z" />
<glyph unicode="Y" horiz-adv-x="1525" d="M-10 1454h403l330 -563q32 -59 39 -96h4q7 37 39 96l338 563h393l-590 -944v-510h-368v510z" />
<glyph unicode="Z" horiz-adv-x="1480" d="M88 0v254l846 926h-815v274h1265v-254l-843 -928h880v-272h-1333z" />
<glyph unicode="[" horiz-adv-x="798" d="M168 -240v1796h600v-235h-281v-1325h281v-236h-600z" />
<glyph unicode="\" horiz-adv-x="1224" d="M86 1556h320l733 -1796h-320z" />
<glyph unicode="]" horiz-adv-x="798" d="M31 -4h280v1325h-280v235h600v-1796h-600v236z" />
<glyph unicode="^" horiz-adv-x="1067" d="M41 909l356 543h273l356 -543h-278l-213 340l-216 -340h-278z" />
<glyph unicode="_" horiz-adv-x="1138" d="M0 -174h1139v-193h-1139v193z" />
<glyph unicode="`" horiz-adv-x="1228" d="M-37 1487h342l273 -322h-281z" />
<glyph unicode="a" horiz-adv-x="1398" d="M68 281q0 145 110 223q108 73 357 98l380 35v31q0 170 -217 170q-106 0 -167 -40.5t-72 -117.5h-359q20 175 180.5 275t419.5 100q291 0 429.5 -108t138.5 -331v-317q0 -191 24 -299h-346q-14 86 -14 174q-51 -97 -167 -151t-278 -54q-194 0 -306.5 83.5t-112.5 228.5z M426 303q0 -57 52 -89t143 -32q135 0 219 61.5t84 162.5v65l-283 -29q-116 -13 -165.5 -45.5t-49.5 -93.5z" />
<glyph unicode="b" horiz-adv-x="1488" d="M162 0v1485h350v-613q61 86 167 134.5t239 48.5q232 0 372 -148t140 -391q0 -247 -144.5 -397t-382.5 -150q-137 0 -241.5 52t-161.5 143l-23 -164h-315zM502 483q0 -129 76.5 -203.5t207.5 -74.5t206 81.5t75 227.5q0 143 -74.5 224t-204.5 81q-129 -2 -207.5 -75.5 t-78.5 -196.5v-64z" />
<glyph unicode="c" horiz-adv-x="1351" d="M55 514q0 252 173.5 396.5t473.5 144.5q248 0 403 -98t195 -279l-346 -60q-22 92 -89 140.5t-173 48.5q-131 0 -204.5 -76t-73.5 -211q0 -141 74.5 -220t205.5 -79q106 0 172.5 48.5t89.5 142.5l344 -66q-38 -174 -200.5 -275.5t-403.5 -101.5q-292 0 -466.5 148 t-174.5 397z" />
<glyph unicode="d" horiz-adv-x="1488" d="M59 512q0 244 146 393.5t381 149.5q271 0 391 -176v606h350v-1485h-336v186q-57 -102 -167.5 -159.5t-254.5 -57.5q-226 0 -368 150.5t-142 392.5zM422 516q0 -143 76.5 -227t206.5 -84q125 0 201.5 74.5t76.5 195.5v68q0 128 -77.5 202t-207.5 74q-131 0 -203.5 -79.5 t-72.5 -223.5z" />
<glyph unicode="e" horiz-adv-x="1353" d="M55 504q0 256 168 403.5t453 147.5q291 0 451.5 -142.5t160.5 -396.5v-82h-897q7 -106 90.5 -165.5t223.5 -59.5q208 0 301 149l262 -118q-80 -130 -228 -200.5t-344 -70.5q-300 0 -470.5 142t-170.5 393zM389 625h555v4q0 105 -74 165t-198 60q-126 0 -200.5 -61 t-82.5 -168z" />
<glyph unicode="f" horiz-adv-x="972" d="M35 795v229h225v70q0 407 475 407q107 0 203 -22v-246q-74 14 -150 14q-94 0 -136 -37t-42 -120v-66h328v-229h-328v-795h-350v795h-225z" />
<glyph unicode="g" horiz-adv-x="1392" d="M55 -184q0 132 181 184q-72 28 -111 77.5t-39 115.5q0 85 55.5 145t159.5 90q-90 47 -137 118.5t-47 160.5q0 163 149.5 255.5t411.5 92.5q171 0 299 -41q26 92 106.5 141t206.5 49q30 0 64 -6v-227q-52 12 -105 12q-88 0 -141 -35q129 -91 129 -241 q0 -162 -150.5 -258.5t-408.5 -96.5q-153 0 -272 35q-41 -21 -41 -57q0 -80 137 -80h440q404 -3 404 -301q0 -187 -175.5 -283t-525.5 -96q-295 0 -442.5 63.5t-147.5 182.5zM315 -119q0 -69 88 -101t263 -32q208 0 296.5 30t88.5 95q0 94 -146 94l-477 2q-24 0 -70 4 q-43 -37 -43 -92zM459 707q0 -82 59 -130.5t160 -48.5q100 0 158.5 48.5t58.5 130.5t-58 128t-159 46q-103 0 -161 -46t-58 -128z" />
<glyph unicode="h" horiz-adv-x="1492" d="M162 0v1485h350v-660q58 114 164.5 173t249.5 59q215 0 327.5 -126.5t112.5 -369.5v-561h-350v524q0 135 -60.5 204t-179.5 69q-125 0 -194.5 -77t-69.5 -216v-504h-350z" />
<glyph unicode="i" horiz-adv-x="653" d="M143 1171v306h369v-306h-369zM152 0v1024h350v-1024h-350z" />
<glyph unicode="j" horiz-adv-x="671" d="M-78 -152q53 -6 107 -6q76 0 108.5 42.5t32.5 148.5v991h350v-1024q0 -102 -22 -176.5t-71 -130t-134 -83.5t-207 -28q-95 0 -164 15v251zM158 1171v306h368v-306h-368z" />
<glyph unicode="k" horiz-adv-x="1429" d="M162 0v1485h350v-877l442 416h430l-419 -389l434 -635h-393l-299 444l-195 -165v-279h-350z" />
<glyph unicode="l" horiz-adv-x="673" d="M162 0v1485h350v-1485h-350z" />
<glyph unicode="m" horiz-adv-x="2160" d="M152 0v1024h340v-205q105 236 378 236q272 0 363 -238q127 238 401 238q192 0 296 -116.5t104 -332.5v-606h-351v543q0 250 -196 250q-103 0 -161 -67.5t-58 -188.5v-537h-350v543q0 250 -197 250q-103 0 -161 -69.5t-58 -193.5v-530h-350z" />
<glyph unicode="n" horiz-adv-x="1482" d="M152 0v1024h340v-215q123 246 428 246q215 0 325.5 -122t110.5 -360v-573h-350v520q0 275 -236 275q-127 0 -197.5 -76.5t-70.5 -214.5v-504h-350z" />
<glyph unicode="o" horiz-adv-x="1390" d="M55 514q0 254 176.5 397.5t462.5 143.5q188 0 331.5 -62t226.5 -186t83 -293q0 -254 -177.5 -399.5t-463.5 -145.5q-187 0 -331 63.5t-226 188t-82 293.5zM410 514q0 -149 76 -229t208 -80q133 0 209 80t76 229q0 148 -76 226.5t-209 78.5t-208.5 -78.5t-75.5 -226.5z " />
<glyph unicode="p" horiz-adv-x="1478" d="M152 -399v1423h340v-172q62 99 171 151t246 52q231 0 370.5 -147.5t139.5 -391.5q0 -247 -145 -397t-379 -150q-127 0 -227 45.5t-166 128.5v-542h-350zM494 489q0 -129 77 -206.5t205 -77.5q131 0 206 83t75 228q0 144 -73.5 223.5t-205.5 79.5q-130 0 -207 -76 t-77 -211v-43z" />
<glyph unicode="q" horiz-adv-x="1478" d="M59 512q0 248 144 396.5t381 148.5q138 0 243 -51t162 -146l21 164h317v-1423h-350v563q-57 -90 -162.5 -143.5t-241.5 -53.5q-230 0 -372 151t-142 394zM418 518q0 -147 76.5 -230t207.5 -83q130 0 203.5 75.5t73.5 200.5v70q0 122 -75.5 196t-207.5 74 q-129 0 -203.5 -78.5t-74.5 -224.5z" />
<glyph unicode="r" horiz-adv-x="968" d="M152 0v1024h319v-283q43 148 144.5 229t250.5 81q33 0 68 -7v-319q-47 8 -105 8q-154 0 -235 -78q-92 -85 -92 -270v-385h-350z" />
<glyph unicode="s" horiz-adv-x="1253" d="M33 213l188 160q147 -176 455 -176q207 0 207 94q0 44 -31 63.5t-117 28.5l-272 27q-187 23 -278 101.5t-91 213.5q0 157 140 243.5t397 86.5q186 0 331.5 -50.5t231.5 -144.5l-164 -168q-154 139 -418 139q-198 0 -198 -86q0 -37 30.5 -56.5t100.5 -26.5l301 -31 q185 -21 268.5 -98.5t83.5 -215.5q0 -165 -138 -256.5t-401 -91.5q-432 0 -626 244z" />
<glyph unicode="t" horiz-adv-x="991" d="M10 795v229h232v244l350 131v-375h338v-229h-338v-359q0 -180 192 -180q68 0 146 16v-266q-116 -29 -238 -29q-231 0 -340.5 96t-109.5 285v437h-232z" />
<glyph unicode="u" horiz-adv-x="1466" d="M127 408v616h350v-547q0 -129 59 -189.5t162 -60.5q128 0 197.5 77t69.5 194v526h350v-1024h-338v211q-51 -115 -161.5 -178.5t-254.5 -63.5q-216 0 -325 113t-109 326z" />
<glyph unicode="v" horiz-adv-x="1306" d="M0 1024h371l243 -616q7 -21 37 -127h6q15 65 37 127l242 616h373l-461 -1024h-389z" />
<glyph unicode="w" horiz-adv-x="1904" d="M29 1024h340l176 -631q10 -49 18 -100h4q4 39 21 100l205 631h319l205 -631q15 -55 20 -100h4q2 16 19 100l174 631h342l-338 -1024h-358l-203 604q-20 55 -23 96h-6q-4 -51 -20 -96l-203 -604h-358z" />
<glyph unicode="x" horiz-adv-x="1351" d="M14 0l445 528l-422 496h405l176 -219q43 -52 60 -100h4q15 43 59 100l177 219h387l-418 -489l452 -535h-411l-203 242q-45 55 -61 100h-5q-18 -39 -65 -100l-203 -242h-377z" />
<glyph unicode="y" horiz-adv-x="1300" d="M0 1024h387l246 -627q22 -55 33 -114h6q6 40 30 112l236 629h362l-462 -1071q-86 -199 -222 -286t-358 -87q-94 0 -174 14v261q77 -13 139 -13q195 0 256 129l8 31z" />
<glyph unicode="z" horiz-adv-x="1212" d="M66 0v213l632 578h-604v233h1034v-207l-624 -579h655v-238h-1093z" />
<glyph unicode="{" horiz-adv-x="819" d="M49 565v217q60 1 95.5 11.5t53.5 35.5t23.5 55t5.5 83v272q0 155 100.5 238.5t286.5 83.5h170v-238h-77q-84 0 -122 -37.5t-38 -120.5v-192q0 -124 -43.5 -196.5t-159.5 -100.5q115 -32 159 -109t44 -202v-224q0 -78 36.5 -110.5t114.5 -32.5h90v-238h-174 q-199 0 -292 76t-93 244v293q0 51 -6 82t-24.5 57.5t-55 39t-94.5 13.5z" />
<glyph unicode="|" horiz-adv-x="536" d="M162 -240v1796h213v-1796h-213z" />
<glyph unicode="}" horiz-adv-x="819" d="M31 -2h90q78 0 114.5 32.5t36.5 110.5v224q0 125 44 202t159 109q-116 28 -159.5 100.5t-43.5 196.5v192q0 83 -38 120.5t-121 37.5h-78v238h170q186 0 286.5 -83.5t100.5 -238.5v-272q0 -53 5.5 -83t23.5 -55t53.5 -35.5t95.5 -11.5v-217q-58 -1 -94.5 -13.5t-55 -39 t-24.5 -57.5t-6 -82v-293q0 -168 -93 -244t-292 -76h-174v238z" />
<glyph unicode="~" horiz-adv-x="1427" d="M145 485q29 144 122.5 221.5t226.5 77.5q58 0 111.5 -16t93 -39t75.5 -45.5t74 -38.5t74 -16q123 0 159 145l199 -45q-28 -149 -122.5 -227t-225.5 -78q-70 0 -134.5 24.5t-105 53.5t-90.5 53.5t-94 24.5q-63 0 -105 -37.5t-57 -106.5z" />
<glyph unicode="&#xa1;" horiz-adv-x="741" d="M172 -297l53 1004h289l55 -1004h-397zM174 872v316h391v-316h-391z" />
<glyph unicode="&#xa2;" horiz-adv-x="1357" d="M55 512q0 236 154 380t426 161v161h131v-161q223 -12 364.5 -111.5t178.5 -269.5l-308 -47q-45 183 -235 209v-635q193 26 238 209l303 -58q-35 -164 -179.5 -264.5t-361.5 -114.5v-182h-131v182q-269 15 -424.5 160t-155.5 381zM367 512q0 -134 70 -216t198 -97v635 q-127 -15 -197.5 -100t-70.5 -222z" />
<glyph unicode="&#xa3;" horiz-adv-x="1515" d="M18 172q149 41 221 125t72 215q0 74 -12 135h-215v166h178q-22 101 -22 176q0 222 153.5 346.5t423.5 124.5q253 0 403.5 -96.5t190.5 -282.5l-334 -67q-19 95 -84 146.5t-168 51.5q-245 0 -245 -221q0 -77 22 -178h430v-166h-393q6 -43 6 -94q0 -219 -205 -303 q82 18 172 18q68 0 181 -16t182 -16q83 0 136 46.5t65 131.5l325 -45q-29 -189 -152 -296.5t-309 -107.5q-102 0 -269.5 29t-297.5 29q-182 0 -389 -39z" />
<glyph unicode="&#xa4;" horiz-adv-x="1277" d="M55 211l131 129q-88 117 -88 281q0 158 88 280l-131 131l148 139l143 -135q133 68 301 68q159 0 289 -62l139 132l148 -140l-125 -123q96 -123 96 -290t-96 -293l121 -119l-148 -139l-135 129q-130 -62 -289 -62q-171 0 -305 70l-139 -135zM362 621q0 -115 79 -183.5 t206 -68.5t204 68.5t77 183.5q0 113 -77 181t-204 68t-206 -68t-79 -181z" />
<glyph unicode="&#xa5;" horiz-adv-x="1513" d="M-10 1423h397l256 -383q75 -123 113 -206h6q41 90 112 206l261 383h389l-561 -790h415v-144h-446v-116h446v-144h-446v-229h-352v229h-441v144h441v116h-441v144h410z" />
<glyph unicode="&#xa6;" horiz-adv-x="536" d="M162 -240v781h213v-781h-213zM162 788v768h213v-768h-213z" />
<glyph unicode="&#xa7;" horiz-adv-x="1208" d="M0 20l188 160q124 -168 402 -168q213 0 213 113q0 46 -32.5 71.5t-119.5 47.5l-295 65q-173 38 -252 113.5t-79 200.5q0 170 170 245q-127 82 -127 242q0 168 142.5 261t389.5 93q171 0 307 -49.5t217 -142.5l-182 -166q-131 137 -354 137q-197 0 -197 -104q0 -44 30 -68 t109 -43l297 -59q171 -35 249.5 -112t78.5 -208q0 -165 -133 -256q106 -79 106 -237q0 -178 -148.5 -274.5t-412.5 -96.5q-198 0 -344 59.5t-223 175.5zM322 680q0 -54 40.5 -83.5t149.5 -55.5l295 -60q2 0 6 -1t6 -1q47 36 47 99q0 55 -38.5 86t-141.5 57l-289 67 q-75 -37 -75 -108z" />
<glyph unicode="&#xa8;" horiz-adv-x="1228" d="M98 1178v280h318v-280h-318zM643 1178v280h320v-280h-320z" />
<glyph unicode="&#xa9;" horiz-adv-x="1748" d="M51 727q0 233 108 409t294 267.5t421 91.5q236 0 422 -91.5t294 -267.5t108 -409q0 -232 -108 -408t-294 -268t-422 -92q-235 0 -421 92t-294 268t-108 408zM193 727q0 -147 52.5 -269t143.5 -204t216 -127t269 -45q193 0 347 77t244.5 225t90.5 343q0 196 -90.5 344 t-244.5 224.5t-347 76.5q-144 0 -268.5 -45t-216 -126.5t-144 -204t-52.5 -269.5zM430 729q0 200 123 318t340 118q184 0 297.5 -80.5t134.5 -218.5l-242 -39q-9 71 -60 113.5t-134 42.5q-101 0 -161 -69t-60 -185q0 -117 60 -186.5t163 -69.5q78 0 130 42.5t64 111.5 l242 -43q-31 -136 -144 -215.5t-290 -79.5q-217 0 -340 118.5t-123 321.5z" />
<glyph unicode="&#xaa;" horiz-adv-x="1097" d="M66 840q0 60 23.5 103t70.5 68.5t102.5 39.5t134.5 22l287 29v26q0 109 -137 109q-139 0 -154 -104h-305q17 129 139 200.5t320 71.5q227 0 332.5 -79t105.5 -245v-245q0 -129 16 -201h-292q-10 58 -13 123q-32 -68 -117 -107t-200 -39q-145 0 -229 61t-84 167zM358 864 q0 -40 38 -65t102 -25q86 0 140 40.5t54 103.5v67l-176 -16q-85 -10 -121.5 -34.5t-36.5 -70.5z" />
<glyph unicode="&#xab;" horiz-adv-x="1341" d="M41 565l408 422h315l-402 -420l398 -430h-320zM584 565l407 422h316l-402 -420l398 -430h-320z" />
<glyph unicode="&#xac;" horiz-adv-x="1427" d="M174 573v218h1051v-541h-228v323h-823z" />
<glyph unicode="&#xad;" horiz-adv-x="1028" d="M92 432v277h844v-277h-844z" />
<glyph unicode="&#xae;" horiz-adv-x="1748" d="M51 727q0 233 108 409t294 267.5t421 91.5q236 0 422 -91.5t294 -267.5t108 -409q0 -232 -108 -408t-294 -268t-422 -92q-235 0 -421 92t-294 268t-108 408zM193 727q0 -147 52.5 -269t143.5 -204t216 -127t269 -45q193 0 347 77t244.5 225t90.5 343q0 196 -90.5 344 t-244.5 224.5t-347 76.5q-144 0 -268.5 -45t-216 -126.5t-144 -204t-52.5 -269.5zM516 319v832h469q154 0 237 -69t83 -197q0 -87 -49 -149.5t-136 -88.5l201 -328h-256l-172 302h-145v-302h-232zM748 772h182q66 0 100.5 28.5t34.5 82.5q0 108 -135 108h-182v-219z" />
<glyph unicode="&#xaf;" horiz-adv-x="1228" d="M106 1212v201h836v-201h-836z" />
<glyph unicode="&#xb0;" horiz-adv-x="933" d="M39 1057q0 184 121.5 297.5t306.5 113.5t307.5 -113.5t122.5 -297.5q0 -187 -122.5 -301.5t-307.5 -114.5t-306.5 114.5t-121.5 301.5zM244 1057q0 -104 62 -168t161 -64t162 64t63 168q0 102 -63 164.5t-162 62.5t-161 -62.5t-62 -164.5z" />
<glyph unicode="&#xb1;" horiz-adv-x="1427" d="M168 0v219h1089v-219h-1089zM168 588v223h422v313h244v-313h423v-223h-423v-301h-244v301h-422z" />
<glyph unicode="&#xb4;" horiz-adv-x="1228" d="M98 1165l273 322h342l-334 -322h-281z" />
<glyph unicode="&#xb5;" horiz-adv-x="1490" d="M152 -399v1423h350v-547q0 -129 59 -189.5t162 -60.5q128 0 197 77t69 194v526h350v-1024h-338v211q-51 -115 -161 -178.5t-254 -63.5q-51 0 -119 11v-379h-315z" />
<glyph unicode="&#xb6;" horiz-adv-x="1624" d="M119 1083q0 201 149 296.5t412 95.5h788v-164h-192v-1514h-184v1514h-248v-1514h-185v899q-124 0 -219 20t-169 64t-113 120.5t-39 182.5z" />
<glyph unicode="&#xb7;" horiz-adv-x="632" d="M127 522v334h379v-334h-379z" />
<glyph unicode="&#xb8;" horiz-adv-x="1228" d="M115 -322l178 52q32 -52 102 -52q43 0 68.5 20.5t25.5 55.5q0 32 -24.5 52t-65.5 20q-57 0 -86 -33l-147 33l100 186h166l-78 -114q50 30 129 30q102 0 160.5 -46t58.5 -134q0 -94 -81 -144t-222 -50q-214 0 -284 124z" />
<glyph unicode="&#xba;" horiz-adv-x="1089" d="M55 1010q0 189 135 292t355 103q219 0 353 -103.5t134 -291.5t-134.5 -293t-352.5 -105q-219 0 -354.5 105t-135.5 293zM356 1010q0 -100 50.5 -153.5t138.5 -53.5q86 0 136 53.5t50 153.5t-49.5 152t-136.5 52q-88 0 -138.5 -52t-50.5 -152z" />
<glyph unicode="&#xbb;" horiz-adv-x="1341" d="M35 987h315l408 -422l-400 -428h-319l397 430zM578 987h315l407 -422l-399 -428h-319l397 430z" />
<glyph unicode="&#xbc;" horiz-adv-x="1894" d="M49 1137v188h31q163 0 217 129h180v-803h-215v523q-48 -37 -164 -37h-49zM217 -35l1032 1524h258l-1032 -1524h-258zM1022 170v141l448 492h246v-479h154v-154h-154v-170h-211v170h-483zM1233 324h272v303z" />
<glyph unicode="&#xbd;" horiz-adv-x="1988" d="M49 1137v188h31q163 0 217 129h180v-803h-215v523q-48 -37 -164 -37h-49zM217 -35l1032 1524h258l-1032 -1524h-258zM1155 0v158q73 32 118 52.5t106 50.5t98 52.5t78.5 52t63.5 56.5t37 58.5t15 64.5q0 54 -37 83t-106 29q-66 0 -107 -31t-41 -89q0 -13 9 -54l-224 21 q-6 30 -6 53q0 123 104 195.5t271 72.5q172 0 271.5 -69t99.5 -197q0 -59 -25 -112t-63 -92t-94.5 -74.5t-107.5 -59t-114 -47.5h414v-174h-760z" />
<glyph unicode="&#xbe;" horiz-adv-x="2168" d="M51 901l219 21q4 -64 50 -96.5t126 -32.5q75 0 117.5 24.5t42.5 73.5q0 50 -38.5 70t-133.5 20h-74v152h76q150 0 150 92q0 45 -39.5 67.5t-108.5 22.5q-158 0 -164 -139l-213 28q3 126 106.5 199.5t281.5 73.5q168 0 264 -59.5t96 -168.5q0 -72 -49 -119t-133 -61 q106 -17 156.5 -62t50.5 -126q0 -117 -106.5 -184.5t-283.5 -67.5q-179 0 -284 72.5t-109 199.5zM492 -35l1032 1524h258l-1032 -1524h-258zM1296 170v141l449 492h246v-479h153v-154h-153v-170h-211v170h-484zM1507 324h273v303z" />
<glyph unicode="&#xbf;" horiz-adv-x="1316" d="M43 96q0 226 236 371l129 74q60 36 83 72.5t23 91.5v55h340v-86q0 -80 -37.5 -143t-126.5 -113l-139 -76q-75 -42 -111.5 -91.5t-36.5 -123.5q0 -87 67 -142t185 -55q130 0 205.5 61t75.5 173q0 60 -12 100l348 -28q12 -49 12 -111q0 -203 -169 -325t-460 -122 q-285 0 -448.5 112t-163.5 306zM489 872v316h385v-316h-385z" />
<glyph unicode="&#xc0;" horiz-adv-x="1722" d="M25 0l618 1454h436l617 -1454h-381l-121 317h-666l-122 -317h-381zM412 1790h327l248 -242h-282zM625 567h473l-140 365q-71 165 -96 270h-4q-20 -100 -94 -270z" />
<glyph unicode="&#xc1;" horiz-adv-x="1722" d="M25 0l618 1454h436l617 -1454h-381l-121 317h-666l-122 -317h-381zM625 567h473l-140 365q-71 165 -96 270h-4q-20 -100 -94 -270zM719 1548l248 242h327l-293 -242h-282z" />
<glyph unicode="&#xc2;" horiz-adv-x="1722" d="M25 0l618 1454h436l617 -1454h-381l-121 317h-666l-122 -317h-381zM418 1548l260 242h366l261 -242h-285l-160 146l-158 -146h-284zM625 567h473l-140 365q-71 165 -96 270h-4q-20 -100 -94 -270z" />
<glyph unicode="&#xc3;" horiz-adv-x="1722" d="M25 0l618 1454h436l617 -1454h-381l-121 317h-666l-122 -317h-381zM401 1602q26 115 99.5 175t187.5 60q59 0 111 -18.5t83.5 -41t71.5 -41t76 -18.5q87 0 115 111l174 -64q-26 -116 -98.5 -175.5t-186.5 -59.5q-59 0 -111.5 18.5t-84 41t-71 41t-75.5 18.5 q-44 0 -72 -26.5t-45 -86.5zM625 567h473l-140 365q-71 165 -96 270h-4q-20 -100 -94 -270z" />
<glyph unicode="&#xc4;" horiz-adv-x="1722" d="M25 0l618 1454h436l617 -1454h-381l-121 317h-666l-122 -317h-381zM430 1548v240h309v-240h-309zM625 567h473l-140 365q-71 165 -96 270h-4q-20 -100 -94 -270zM979 1548v240h309v-240h-309z" />
<glyph unicode="&#xc5;" horiz-adv-x="1722" d="M25 0l618 1454h436l617 -1454h-381l-121 317h-666l-122 -317h-381zM586 1763q0 109 75.5 175.5t198.5 66.5t199 -66.5t76 -175.5q0 -107 -76 -173t-199 -66t-198.5 66t-75.5 173zM625 567h473l-140 365q-71 165 -96 270h-4q-20 -100 -94 -270zM748 1763q0 -48 30.5 -78 t81.5 -30q49 0 80 30.5t31 77.5q0 49 -30.5 80t-80.5 31q-51 0 -81.5 -30.5t-30.5 -80.5z" />
<glyph unicode="&#xc6;" horiz-adv-x="2478" d="M-16 0l1011 1454h1356v-266h-825v-318h790v-258h-790v-344h839v-268h-1206v307h-588l-198 -307h-389zM733 557h426v660z" />
<glyph unicode="&#xc7;" horiz-adv-x="1683" d="M51 723q0 230 101.5 405t288.5 271t433 96q309 0 509 -142t247 -392l-377 -66q-28 150 -127.5 230.5t-259.5 80.5q-202 0 -318 -128.5t-116 -350.5q0 -218 119 -347.5t323 -129.5q155 0 254.5 77t131.5 222l374 -80q-65 -228 -245 -360.5t-453 -147.5l-43 -63 q49 30 129 30q102 0 160.5 -46t58.5 -134q0 -94 -81 -144t-222 -50q-215 0 -285 124l178 52q32 -52 103 -52q43 0 68.5 20.5t25.5 55.5q0 32 -24.5 52t-65.5 20q-57 0 -86 -33l-147 33l73 137q-343 25 -535 227.5t-192 532.5z" />
<glyph unicode="&#xc8;" horiz-adv-x="1486" d="M168 0v1454h1192v-266h-825v-318h790v-258h-790v-344h839v-268h-1206zM332 1790h327l248 -242h-282z" />
<glyph unicode="&#xc9;" horiz-adv-x="1486" d="M168 0v1454h1192v-266h-825v-318h790v-258h-790v-344h839v-268h-1206zM639 1548l248 242h327l-292 -242h-283z" />
<glyph unicode="&#xca;" horiz-adv-x="1486" d="M168 0v1454h1192v-266h-825v-318h790v-258h-790v-344h839v-268h-1206zM338 1548l260 242h367l260 -242h-285l-160 146l-157 -146h-285z" />
<glyph unicode="&#xcb;" horiz-adv-x="1486" d="M168 0v1454h1192v-266h-825v-318h790v-258h-790v-344h839v-268h-1206zM350 1548v240h309v-240h-309zM899 1548v240h309v-240h-309z" />
<glyph unicode="&#xcc;" horiz-adv-x="702" d="M-8 1790h313l184 -242h-278zM168 0v1454h367v-1454h-367z" />
<glyph unicode="&#xcd;" horiz-adv-x="702" d="M168 0v1454h367v-1454h-367zM213 1548l184 242h314l-219 -242h-279z" />
<glyph unicode="&#xce;" horiz-adv-x="702" d="M25 1548l155 242h346l156 -242h-240l-88 152l-88 -152h-241zM168 0v1454h367v-1454h-367z" />
<glyph unicode="&#xcf;" horiz-adv-x="702" d="M31 1548v240h278v-240h-278zM168 0v1454h367v-1454h-367zM397 1548v240h277v-240h-277z" />
<glyph unicode="&#xd0;" horiz-adv-x="1728" d="M8 649v207h160v598h723q359 0 572.5 -191.5t213.5 -519.5q0 -334 -218 -538.5t-574 -204.5h-717v649h-160zM535 264h323q205 0 320.5 131.5t115.5 345.5q0 206 -116 327.5t-320 121.5h-323v-334h389v-207h-389v-385z" />
<glyph unicode="&#xd1;" horiz-adv-x="1779" d="M168 0v1454h401l605 -833q58 -85 98 -177h4v193v817h336v-1454h-381l-627 844q-74 117 -96 170h-6q2 -61 2 -195v-819h-336zM434 1602q26 115 99.5 175t187.5 60q59 0 111 -18.5t83.5 -41t71.5 -41t76 -18.5q87 0 115 111l174 -64q-26 -116 -98.5 -175.5t-186.5 -59.5 q-59 0 -111.5 18.5t-84 41t-71 41t-75.5 18.5q-44 0 -72 -26.5t-45 -86.5z" />
<glyph unicode="&#xd2;" d="M51 727q0 351 225.5 559.5t602.5 208.5t602 -208.5t225 -559.5t-225 -559.5t-602 -208.5t-602.5 208.5t-225.5 559.5zM430 1790h328l248 -242h-283zM434 727q0 -223 120.5 -354t324.5 -131t324 130.5t120 354.5t-120 354.5t-324 130.5t-324.5 -130.5t-120.5 -354.5z" />
<glyph unicode="&#xd3;" d="M51 727q0 351 225.5 559.5t602.5 208.5t602 -208.5t225 -559.5t-225 -559.5t-602 -208.5t-602.5 208.5t-225.5 559.5zM434 727q0 -223 120.5 -354t324.5 -131t324 130.5t120 354.5t-120 354.5t-324 130.5t-324.5 -130.5t-120.5 -354.5zM737 1548l248 242h328l-293 -242 h-283z" />
<glyph unicode="&#xd4;" d="M51 727q0 351 225.5 559.5t602.5 208.5t602 -208.5t225 -559.5t-225 -559.5t-602 -208.5t-602.5 208.5t-225.5 559.5zM434 727q0 -223 120.5 -354t324.5 -131t324 130.5t120 354.5t-120 354.5t-324 130.5t-324.5 -130.5t-120.5 -354.5zM436 1548l260 242h367l260 -242 h-285l-159 146l-158 -146h-285z" />
<glyph unicode="&#xd5;" d="M51 727q0 351 225.5 559.5t602.5 208.5t602 -208.5t225 -559.5t-225 -559.5t-602 -208.5t-602.5 208.5t-225.5 559.5zM420 1602q26 115 99.5 175t187.5 60q59 0 111 -18.5t83.5 -41t71.5 -41t76 -18.5q86 0 114 111l174 -64q-26 -116 -98 -175.5t-186 -59.5 q-59 0 -111.5 18.5t-84 41t-71 41t-75.5 18.5q-44 0 -72 -26.5t-45 -86.5zM434 727q0 -223 120.5 -354t324.5 -131t324 130.5t120 354.5t-120 354.5t-324 130.5t-324.5 -130.5t-120.5 -354.5z" />
<glyph unicode="&#xd6;" d="M51 727q0 351 225.5 559.5t602.5 208.5t602 -208.5t225 -559.5t-225 -559.5t-602 -208.5t-602.5 208.5t-225.5 559.5zM434 727q0 -223 120.5 -354t324.5 -131t324 130.5t120 354.5t-120 354.5t-324 130.5t-324.5 -130.5t-120.5 -354.5zM449 1548v240h309v-240h-309z M997 1548v240h310v-240h-310z" />
<glyph unicode="&#xd7;" horiz-adv-x="1427" d="M154 305l389 363l-389 364l168 162l391 -365l391 365l170 -162l-389 -362l387 -363l-166 -166l-393 369l-394 -367z" />
<glyph unicode="&#xd8;" d="M51 727q0 351 225.5 559.5t602.5 208.5q295 0 499 -129l129 137l117 -92l-129 -137q211 -208 211 -547q0 -351 -225 -559.5t-602 -208.5q-294 0 -498 129l-129 -137l-117 92l129 137q-213 207 -213 547zM434 727q0 -170 72 -289l647 688q-113 86 -274 86 q-204 0 -324.5 -130.5t-120.5 -354.5zM604 326q117 -84 275 -84q204 0 324 130.5t120 354.5q0 170 -72 289z" />
<glyph unicode="&#xd9;" horiz-adv-x="1691" d="M129 571v883h369v-860q0 -155 92.5 -248.5t255.5 -93.5t255.5 93.5t92.5 248.5v860h369v-885q0 -280 -190 -445t-527 -165t-527 166t-190 446zM397 1790h328l248 -242h-283z" />
<glyph unicode="&#xda;" horiz-adv-x="1691" d="M129 571v883h369v-860q0 -155 92.5 -248.5t255.5 -93.5t255.5 93.5t92.5 248.5v860h369v-885q0 -280 -190 -445t-527 -165t-527 166t-190 446zM705 1548l247 242h328l-293 -242h-282z" />
<glyph unicode="&#xdb;" horiz-adv-x="1691" d="M129 571v883h369v-860q0 -155 92.5 -248.5t255.5 -93.5t255.5 93.5t92.5 248.5v860h369v-885q0 -280 -190 -445t-527 -165t-527 166t-190 446zM403 1548l261 242h366l260 -242h-284l-160 146l-158 -146h-285z" />
<glyph unicode="&#xdc;" horiz-adv-x="1691" d="M129 571v883h369v-860q0 -155 92.5 -248.5t255.5 -93.5t255.5 93.5t92.5 248.5v860h369v-885q0 -280 -190 -445t-527 -165t-527 166t-190 446zM416 1548v240h309v-240h-309zM965 1548v240h309v-240h-309z" />
<glyph unicode="&#xdd;" horiz-adv-x="1525" d="M-10 1454h403l330 -563q32 -59 39 -96h4q7 37 39 96l338 563h393l-590 -944v-510h-368v510zM625 1548l247 242h328l-293 -242h-282z" />
<glyph unicode="&#xde;" horiz-adv-x="1466" d="M168 0v1454h367v-225h358q251 0 397 -125.5t146 -341.5q0 -222 -146.5 -348.5t-402.5 -126.5h-352v-287h-367zM535 541h266q119 0 183.5 55.5t64.5 157.5q0 103 -63.5 159t-184.5 56h-266v-428z" />
<glyph unicode="&#xdf;" horiz-adv-x="1525" d="M154 0v981q0 261 157 394.5t469 133.5q278 0 433 -100t155 -283q0 -132 -87 -218.5t-239 -106.5q200 -17 307 -114t107 -261q0 -218 -156.5 -334.5t-445.5 -116.5q-87 0 -207 19v237q69 -14 150 -14q303 0 303 229q0 108 -84 164.5t-248 57.5h-121v225h113q122 1 186 53 t64 148q0 89 -62 136.5t-178 47.5q-135 0 -200.5 -65t-65.5 -201v-1012h-350z" />
<glyph unicode="&#xe0;" horiz-adv-x="1398" d="M68 281q0 145 110 223q108 73 357 98l380 35v31q0 170 -217 170q-106 0 -167 -40.5t-72 -117.5h-359q20 175 180.5 275t419.5 100q291 0 429.5 -108t138.5 -331v-317q0 -191 24 -299h-346q-14 86 -14 174q-51 -97 -167 -151t-278 -54q-194 0 -306.5 83.5t-112.5 228.5z M233 1487h342l273 -322h-281zM426 303q0 -57 52 -89t143 -32q135 0 219 61.5t84 162.5v65l-283 -29q-116 -13 -165.5 -45.5t-49.5 -93.5z" />
<glyph unicode="&#xe1;" horiz-adv-x="1398" d="M68 281q0 145 110 223q108 73 357 98l380 35v31q0 170 -217 170q-106 0 -167 -40.5t-72 -117.5h-359q20 175 180.5 275t419.5 100q291 0 429.5 -108t138.5 -331v-317q0 -191 24 -299h-346q-14 86 -14 174q-51 -97 -167 -151t-278 -54q-194 0 -306.5 83.5t-112.5 228.5z M426 303q0 -57 52 -89t143 -32q135 0 219 61.5t84 162.5v65l-283 -29q-116 -13 -165.5 -45.5t-49.5 -93.5zM563 1165l273 322h342l-334 -322h-281z" />
<glyph unicode="&#xe2;" horiz-adv-x="1398" d="M68 281q0 145 110 223q108 73 357 98l380 35v31q0 170 -217 170q-106 0 -167 -40.5t-72 -117.5h-359q20 175 180.5 275t419.5 100q291 0 429.5 -108t138.5 -331v-317q0 -191 24 -299h-346q-14 86 -14 174q-51 -97 -167 -151t-278 -54q-194 0 -306.5 83.5t-112.5 228.5z M266 1165l262 322h357l262 -322h-266l-174 215l-172 -215h-269zM426 303q0 -57 52 -89t143 -32q135 0 219 61.5t84 162.5v65l-283 -29q-116 -13 -165.5 -45.5t-49.5 -93.5z" />
<glyph unicode="&#xe3;" horiz-adv-x="1398" d="M68 281q0 145 110 223q108 73 357 98l380 35v31q0 170 -217 170q-106 0 -167 -40.5t-72 -117.5h-359q20 175 180.5 275t419.5 100q291 0 429.5 -108t138.5 -331v-317q0 -191 24 -299h-346q-14 86 -14 174q-51 -97 -167 -151t-278 -54q-194 0 -306.5 83.5t-112.5 228.5z M240 1249q23 124 96.5 191t189.5 67q61 0 116 -21t88.5 -45.5t75 -45.5t79.5 -21q46 0 75 29t46 94l176 -63q-23 -124 -97 -191t-190 -67q-61 0 -115.5 20.5t-88 45t-75 45t-79.5 20.5q-46 0 -75 -28.5t-46 -92.5zM426 303q0 -57 52 -89t143 -32q135 0 219 61.5t84 162.5v65 l-283 -29q-116 -13 -165.5 -45.5t-49.5 -93.5z" />
<glyph unicode="&#xe4;" horiz-adv-x="1398" d="M68 281q0 145 110 223q108 73 357 98l380 35v31q0 170 -217 170q-106 0 -167 -40.5t-72 -117.5h-359q20 175 180.5 275t419.5 100q291 0 429.5 -108t138.5 -331v-317q0 -191 24 -299h-346q-14 86 -14 174q-51 -97 -167 -151t-278 -54q-194 0 -306.5 83.5t-112.5 228.5z M274 1178v280h318v-280h-318zM426 303q0 -57 52 -89t143 -32q135 0 219 61.5t84 162.5v65l-283 -29q-116 -13 -165.5 -45.5t-49.5 -93.5zM819 1178v280h320v-280h-320z" />
<glyph unicode="&#xe5;" horiz-adv-x="1398" d="M68 281q0 145 110 223q108 73 357 98l380 35v31q0 170 -217 170q-106 0 -167 -40.5t-72 -117.5h-359q20 175 180.5 275t419.5 100q291 0 429.5 -108t138.5 -331v-317q0 -191 24 -299h-346q-14 86 -14 174q-51 -97 -167 -151t-278 -54q-194 0 -306.5 83.5t-112.5 228.5z M399 1370q0 111 83 177.5t225 66.5t225.5 -66.5t83.5 -177.5q0 -109 -83.5 -175.5t-225.5 -66.5t-225 66t-83 176zM426 303q0 -57 52 -89t143 -32q135 0 219 61.5t84 162.5v65l-283 -29q-116 -13 -165.5 -45.5t-49.5 -93.5zM567 1370q0 -50 37.5 -80t102.5 -30t102 30t37 80 q0 52 -37 82.5t-102 30.5t-102.5 -30.5t-37.5 -82.5z" />
<glyph unicode="&#xe6;" horiz-adv-x="2146" d="M68 283q0 137 107.5 213.5t328.5 95.5l389 31v32q0 181 -211 181q-103 0 -163.5 -41t-67.5 -117h-355q19 175 175.5 276t408.5 101q277 0 407 -133q155 133 412 133q276 0 429 -142.5t153 -398.5v-76h-844q8 -106 84 -167.5t203 -61.5q187 0 274 149l262 -118 q-77 -130 -218 -200.5t-326 -70.5q-169 0 -297.5 54t-204.5 155q-150 -209 -502 -209q-209 0 -326.5 83t-117.5 231zM426 301q0 -56 49.5 -87.5t138.5 -31.5q125 0 206 58.5t81 160.5v60l-274 -21q-201 -21 -201 -139zM1237 629h500q-3 105 -69.5 165t-174.5 60 q-116 0 -184 -58.5t-72 -166.5z" />
<glyph unicode="&#xe7;" horiz-adv-x="1351" d="M55 514q0 252 173.5 396.5t473.5 144.5q248 0 403 -98t195 -279l-346 -60q-22 92 -89 140.5t-173 48.5q-131 0 -204.5 -76t-73.5 -211q0 -141 74.5 -220t205.5 -79q106 0 172.5 48.5t89.5 142.5l344 -66q-35 -162 -180 -261.5t-362 -113.5l-49 -73q49 30 129 30 q102 0 160.5 -46t58.5 -134q0 -94 -81 -144t-222 -50q-215 0 -285 124l178 52q32 -52 103 -52q43 0 68.5 20.5t25.5 55.5q0 32 -24.5 52t-65.5 20q-57 0 -86 -33l-148 33l80 147q-251 25 -398 170t-147 371z" />
<glyph unicode="&#xe8;" horiz-adv-x="1353" d="M55 504q0 256 168 403.5t453 147.5q291 0 451.5 -142.5t160.5 -396.5v-82h-897q7 -106 90.5 -165.5t223.5 -59.5q208 0 301 149l262 -118q-80 -130 -228 -200.5t-344 -70.5q-300 0 -470.5 142t-170.5 393zM203 1487h342l272 -322h-280zM389 625h555v4q0 105 -74 165 t-198 60q-126 0 -200.5 -61t-82.5 -168z" />
<glyph unicode="&#xe9;" horiz-adv-x="1353" d="M55 504q0 256 168 403.5t453 147.5q291 0 451.5 -142.5t160.5 -396.5v-82h-897q7 -106 90.5 -165.5t223.5 -59.5q208 0 301 149l262 -118q-80 -130 -228 -200.5t-344 -70.5q-300 0 -470.5 142t-170.5 393zM389 625h555v4q0 105 -74 165t-198 60q-126 0 -200.5 -61 t-82.5 -168zM532 1165l273 322h342l-334 -322h-281z" />
<glyph unicode="&#xea;" horiz-adv-x="1353" d="M55 504q0 256 168 403.5t453 147.5q291 0 451.5 -142.5t160.5 -396.5v-82h-897q7 -106 90.5 -165.5t223.5 -59.5q208 0 301 149l262 -118q-80 -130 -228 -200.5t-344 -70.5q-300 0 -470.5 142t-170.5 393zM236 1165l262 322h356l262 -322h-266l-174 215l-172 -215h-268z M389 625h555v4q0 105 -74 165t-198 60q-126 0 -200.5 -61t-82.5 -168z" />
<glyph unicode="&#xeb;" horiz-adv-x="1353" d="M55 504q0 256 168 403.5t453 147.5q291 0 451.5 -142.5t160.5 -396.5v-82h-897q7 -106 90.5 -165.5t223.5 -59.5q208 0 301 149l262 -118q-80 -130 -228 -200.5t-344 -70.5q-300 0 -470.5 142t-170.5 393zM244 1178v280h317v-280h-317zM389 625h555v4q0 105 -74 165 t-198 60q-126 0 -200.5 -61t-82.5 -168zM788 1178v280h320v-280h-320z" />
<glyph unicode="&#xec;" horiz-adv-x="653" d="M-45 1487h315l191 -322h-277zM152 0v1024h350v-1024h-350z" />
<glyph unicode="&#xed;" horiz-adv-x="653" d="M152 0v1024h350v-1024h-350zM188 1165l191 322h315l-229 -322h-277z" />
<glyph unicode="&#xee;" horiz-adv-x="653" d="M6 1165l158 322h328l157 -322h-229l-92 219l-90 -219h-232zM152 0v1024h350v-1024h-350z" />
<glyph unicode="&#xef;" horiz-adv-x="653" d="M-2 1178v280h283v-280h-283zM152 0v1024h350v-1024h-350zM377 1178v280h282v-280h-282z" />
<glyph unicode="&#xf0;" horiz-adv-x="1427" d="M59 502q0 243 145 388.5t394 145.5q130 0 226 -51t153 -139h4q-43 188 -213 344l-254 -76l-35 94l197 58q-70 51 -172 110l305 137q118 -67 207 -147l186 55l35 -94l-139 -41q254 -279 254 -692q0 -291 -177.5 -458t-488.5 -167q-308 0 -467.5 140.5t-159.5 392.5z M418 508q0 -137 74.5 -218t209.5 -81q142 0 219.5 79.5t77.5 219.5q0 137 -78 218t-214 81q-141 0 -215 -78t-74 -221z" />
<glyph unicode="&#xf1;" horiz-adv-x="1482" d="M152 0v1024h340v-215q123 246 428 246q215 0 325.5 -122t110.5 -360v-573h-350v520q0 275 -236 275q-127 0 -197.5 -76.5t-70.5 -214.5v-504h-350zM342 1249q23 124 97 191t190 67q61 0 115.5 -21t88 -45.5t75 -45.5t79.5 -21q46 0 75 29t46 94l176 -63 q-23 -124 -97 -191t-190 -67q-61 0 -115.5 20.5t-88 45t-75 45t-79.5 20.5q-46 0 -75 -28.5t-46 -92.5z" />
<glyph unicode="&#xf2;" horiz-adv-x="1390" d="M55 514q0 254 176.5 397.5t462.5 143.5q188 0 331.5 -62t226.5 -186t83 -293q0 -254 -177.5 -399.5t-463.5 -145.5q-187 0 -331 63.5t-226 188t-82 293.5zM221 1487h342l273 -322h-281zM410 514q0 -149 76 -229t208 -80q133 0 209 80t76 229q0 148 -76 226.5t-209 78.5 t-208.5 -78.5t-75.5 -226.5z" />
<glyph unicode="&#xf3;" horiz-adv-x="1390" d="M55 514q0 254 176.5 397.5t462.5 143.5q188 0 331.5 -62t226.5 -186t83 -293q0 -254 -177.5 -399.5t-463.5 -145.5q-187 0 -331 63.5t-226 188t-82 293.5zM410 514q0 -149 76 -229t208 -80q133 0 209 80t76 229q0 148 -76 226.5t-209 78.5t-208.5 -78.5t-75.5 -226.5z M551 1165l272 322h342l-334 -322h-280z" />
<glyph unicode="&#xf4;" horiz-adv-x="1390" d="M55 514q0 254 176.5 397.5t462.5 143.5q188 0 331.5 -62t226.5 -186t83 -293q0 -254 -177.5 -399.5t-463.5 -145.5q-187 0 -331 63.5t-226 188t-82 293.5zM254 1165l262 322h356l263 -322h-267l-174 215l-172 -215h-268zM410 514q0 -149 76 -229t208 -80q133 0 209 80 t76 229q0 148 -76 226.5t-209 78.5t-208.5 -78.5t-75.5 -226.5z" />
<glyph unicode="&#xf5;" horiz-adv-x="1390" d="M55 514q0 254 176.5 397.5t462.5 143.5q188 0 331.5 -62t226.5 -186t83 -293q0 -254 -177.5 -399.5t-463.5 -145.5q-187 0 -331 63.5t-226 188t-82 293.5zM227 1249q23 124 97 191t190 67q61 0 115.5 -21t88 -45.5t75 -45.5t79.5 -21q46 0 75 29t46 94l176 -63 q-23 -124 -96.5 -191t-189.5 -67q-61 0 -116 20.5t-88.5 45t-75 45t-79.5 20.5q-46 0 -75 -28.5t-46 -92.5zM410 514q0 -149 76 -229t208 -80q133 0 209 80t76 229q0 148 -76 226.5t-209 78.5t-208.5 -78.5t-75.5 -226.5z" />
<glyph unicode="&#xf6;" horiz-adv-x="1390" d="M55 514q0 254 176.5 397.5t462.5 143.5q188 0 331.5 -62t226.5 -186t83 -293q0 -254 -177.5 -399.5t-463.5 -145.5q-187 0 -331 63.5t-226 188t-82 293.5zM262 1178v280h318v-280h-318zM410 514q0 -149 76 -229t208 -80q133 0 209 80t76 229q0 148 -76 226.5t-209 78.5 t-208.5 -78.5t-75.5 -226.5zM807 1178v280h319v-280h-319z" />
<glyph unicode="&#xf7;" horiz-adv-x="1269" d="M92 559v223h1086v-223h-1086zM485 293q0 65 41 105t105 40t105.5 -40t41.5 -105q0 -64 -42 -106t-105 -42t-104.5 41.5t-41.5 106.5zM485 1042q0 66 41.5 107t104.5 41q64 0 105.5 -40.5t41.5 -107.5q0 -63 -42 -104t-105 -41t-104.5 40.5t-41.5 104.5z" />
<glyph unicode="&#xf8;" horiz-adv-x="1390" d="M55 514q0 254 176.5 397.5t462.5 143.5q226 0 391 -92l113 108l84 -74l-106 -102q159 -143 159 -381q0 -254 -177.5 -399.5t-463.5 -145.5q-226 0 -389 94l-115 -110l-84 70l111 106q-162 146 -162 385zM410 514q0 -101 34 -168l435 418q-70 55 -185 55 q-133 0 -208.5 -78.5t-75.5 -226.5zM512 260q70 -55 182 -55q133 0 209 80t76 229q0 100 -33 162z" />
<glyph unicode="&#xf9;" horiz-adv-x="1466" d="M127 408v616h350v-547q0 -129 59 -189.5t162 -60.5q128 0 197.5 77t69.5 194v526h350v-1024h-338v211q-51 -115 -161.5 -178.5t-254.5 -63.5q-216 0 -325 113t-109 326zM244 1487h342l272 -322h-280z" />
<glyph unicode="&#xfa;" horiz-adv-x="1466" d="M127 408v616h350v-547q0 -129 59 -189.5t162 -60.5q128 0 197.5 77t69.5 194v526h350v-1024h-338v211q-51 -115 -161.5 -178.5t-254.5 -63.5q-216 0 -325 113t-109 326zM573 1165l273 322h342l-334 -322h-281z" />
<glyph unicode="&#xfb;" horiz-adv-x="1466" d="M127 408v616h350v-547q0 -129 59 -189.5t162 -60.5q128 0 197.5 77t69.5 194v526h350v-1024h-338v211q-51 -115 -161.5 -178.5t-254.5 -63.5q-216 0 -325 113t-109 326zM276 1165l263 322h356l262 -322h-266l-174 215l-172 -215h-269z" />
<glyph unicode="&#xfc;" horiz-adv-x="1466" d="M127 408v616h350v-547q0 -129 59 -189.5t162 -60.5q128 0 197.5 77t69.5 194v526h350v-1024h-338v211q-51 -115 -161.5 -178.5t-254.5 -63.5q-216 0 -325 113t-109 326zM285 1178v280h317v-280h-317zM829 1178v280h320v-280h-320z" />
<glyph unicode="&#xfd;" horiz-adv-x="1300" d="M0 1024h387l246 -627q22 -55 33 -114h6q6 40 30 112l236 629h362l-462 -1071q-86 -199 -222 -286t-358 -87q-94 0 -174 14v261q77 -13 139 -13q195 0 256 129l8 31zM516 1165l272 322h342l-333 -322h-281z" />
<glyph unicode="&#xfe;" horiz-adv-x="1488" d="M162 -399v1884h350v-615q63 89 170.5 137t241.5 48q228 0 367 -148.5t139 -390.5q0 -244 -144.5 -395.5t-378.5 -151.5q-128 0 -231.5 46.5t-163.5 131.5v-546h-350zM504 489q0 -129 77.5 -206.5t206.5 -77.5q128 0 203.5 84.5t75.5 226.5q0 140 -74 221.5t-205 81.5 t-207.5 -76t-76.5 -208v-46z" />
<glyph unicode="&#xff;" horiz-adv-x="1300" d="M0 1024h387l246 -627q22 -55 33 -114h6q6 40 30 112l236 629h362l-462 -1071q-86 -199 -222 -286t-358 -87q-94 0 -174 14v261q77 -13 139 -13q195 0 256 129l8 31zM227 1178v280h318v-280h-318zM772 1178v280h320v-280h-320z" />
<glyph unicode="&#x152;" horiz-adv-x="2459" d="M51 739q0 223 99.5 385.5t277.5 246t414 83.5h1491v-266h-826v-318h791v-258h-791v-344h840v-268h-1522q-353 0 -563.5 199t-210.5 540zM432 735q0 -218 118.5 -344.5t323.5 -126.5h267v926h-264q-210 0 -327.5 -120t-117.5 -335z" />
<glyph unicode="&#x153;" horiz-adv-x="2285" d="M55 512q0 247 175.5 395t467.5 148q276 0 451 -154q171 154 459 154q291 0 451.5 -142.5t160.5 -396.5v-82h-897q7 -106 90 -165.5t223 -59.5q208 0 301 149l263 -118q-80 -130 -228 -200.5t-344 -70.5q-309 0 -481 152q-168 -152 -449 -152q-290 0 -466.5 149 t-176.5 394zM410 512q0 -141 76 -223t212 -82q138 0 213.5 82t75.5 223t-75.5 223t-213.5 82q-136 0 -212 -82t-76 -223zM1321 625h555v4q0 105 -74 165t-198 60q-126 0 -200.5 -61t-82.5 -168z" />
<glyph unicode="&#x178;" horiz-adv-x="1525" d="M-10 1454h403l330 -563q32 -59 39 -96h4q7 37 39 96l338 563h393l-590 -944v-510h-368v510zM336 1548v240h309v-240h-309zM885 1548v240h309v-240h-309z" />
<glyph unicode="&#x2c6;" horiz-adv-x="1228" d="M76 1165l262 322h356l262 -322h-266l-174 215l-172 -215h-268z" />
<glyph unicode="&#x2dc;" horiz-adv-x="1228" d="M109 1249q23 124 96.5 191t189.5 67q61 0 116 -21t88.5 -45.5t75 -45.5t79.5 -21q46 0 74.5 28.5t45.5 94.5l177 -63q-23 -124 -97 -191t-190 -67q-61 0 -115.5 20.5t-88 45t-75 45t-79.5 20.5q-46 0 -75 -28.5t-46 -92.5z" />
<glyph unicode="&#x2000;" horiz-adv-x="1002" />
<glyph unicode="&#x2001;" horiz-adv-x="2005" />
<glyph unicode="&#x2002;" horiz-adv-x="1002" />
<glyph unicode="&#x2003;" horiz-adv-x="2005" />
<glyph unicode="&#x2004;" horiz-adv-x="668" />
<glyph unicode="&#x2005;" horiz-adv-x="501" />
<glyph unicode="&#x2006;" horiz-adv-x="334" />
<glyph unicode="&#x2007;" horiz-adv-x="334" />
<glyph unicode="&#x2008;" horiz-adv-x="250" />
<glyph unicode="&#x2009;" horiz-adv-x="401" />
<glyph unicode="&#x200a;" horiz-adv-x="111" />
<glyph unicode="&#x2010;" horiz-adv-x="1028" d="M92 432v277h844v-277h-844z" />
<glyph unicode="&#x2011;" horiz-adv-x="1028" d="M92 432v277h844v-277h-844z" />
<glyph unicode="&#x2012;" horiz-adv-x="1028" d="M92 432v277h844v-277h-844z" />
<glyph unicode="&#x2013;" horiz-adv-x="1435" d="M92 434v268h1251v-268h-1251z" />
<glyph unicode="&#x2014;" horiz-adv-x="1949" d="M92 432v273h1763v-273h-1763z" />
<glyph unicode="&#x2018;" horiz-adv-x="624" d="M127 836v325q0 282 293 346l57 -141q-90 -24 -125 -65t-35 -111v-6h181v-348h-371z" />
<glyph unicode="&#x2019;" horiz-adv-x="624" d="M127 1106v348h371v-326q0 -282 -293 -346l-58 142q90 24 125 65t35 111v6h-180z" />
<glyph unicode="&#x201a;" horiz-adv-x="624" d="M127 0v348h371v-325q0 -283 -293 -347l-58 142q90 24 125 65t35 111v6h-180z" />
<glyph unicode="&#x201c;" horiz-adv-x="1103" d="M127 836v325q0 282 293 346l57 -141q-90 -24 -125 -65t-35 -111v-6h181v-348h-371zM606 836v325q0 282 293 346l57 -141q-90 -24 -124.5 -64.5t-34.5 -111.5v-6h180v-348h-371z" />
<glyph unicode="&#x201d;" horiz-adv-x="1103" d="M127 1108v348h371v-326q0 -282 -293 -346l-58 142q90 24 125 65t35 111v6h-180zM606 1108v348h371v-326q0 -282 -293 -346l-57 142q90 24 124.5 64.5t34.5 111.5v6h-180z" />
<glyph unicode="&#x201e;" horiz-adv-x="1103" d="M127 2v348h371v-325q0 -283 -293 -347l-58 142q90 24 125 65t35 111v6h-180zM606 2v348h371v-325q0 -283 -293 -347l-57 142q90 24 124.5 64.5t34.5 111.5v6h-180z" />
<glyph unicode="&#x2022;" horiz-adv-x="786" d="M127 694q0 117 74.5 190.5t189.5 73.5q118 0 192 -72t74 -192q0 -116 -74 -188t-192 -72q-115 0 -189.5 72t-74.5 188z" />
<glyph unicode="&#x2026;" horiz-adv-x="1943" d="M127 0v328h379v-328h-379zM782 0v328h379v-328h-379zM1436 0v328h379v-328h-379z" />
<glyph unicode="&#x202f;" horiz-adv-x="401" />
<glyph unicode="&#x2039;" horiz-adv-x="798" d="M41 565l408 422h315l-402 -420l398 -430h-320z" />
<glyph unicode="&#x203a;" horiz-adv-x="798" d="M35 987h315l408 -422l-400 -428h-319l397 430z" />
<glyph unicode="&#x205f;" horiz-adv-x="501" />
<glyph unicode="&#x20ac;" horiz-adv-x="1671" d="M10 518v135h137q-2 25 -2 74q0 35 2 51h-137v133h154q55 254 256 401.5t518 147.5q256 0 436.5 -98.5t251.5 -271.5l-336 -99q-44 95 -134.5 147t-223.5 52q-162 0 -262 -73t-138 -206h594v-133h-616q-2 -16 -2 -51q0 -24 4 -74h614v-135h-587q42 -134 143 -209.5 t254 -75.5q127 0 220.5 56.5t141.5 159.5l330 -101q-89 -186 -268.5 -286.5t-435.5 -100.5q-311 0 -505.5 150.5t-250.5 406.5h-158z" />
<glyph unicode="&#x2122;" horiz-adv-x="2037" d="M10 1280v178h811v-178h-299v-653h-223v653h-289zM913 627v831h318l155 -473q29 -92 35 -151h6q11 76 35 151l156 473h317v-831h-198v479q0 114 4 180h-2q-4 -16 -45 -151l-172 -508h-195l-172 508q-29 94 -43 151h-4q4 -66 4 -180v-479h-199z" />
<glyph unicode="&#x25fc;" horiz-adv-x="1024" d="M0 0v1024h1024v-1024h-1024z" />
</font>
</defs>
</svg>
