<?xml version="1.0" standalone="no"?>
<!DOCTYPE svg PUBLIC "-//W3C//DTD SVG 1.1//EN" "http://www.w3.org/Graphics/SVG/1.1/DTD/svg11.dtd" >
<svg xmlns="http://www.w3.org/2000/svg" xmlns:xlink="http://www.w3.org/1999/xlink" version="1.1">
<metadata></metadata>
<defs>
<font id="gt_americaExLtIt" horiz-adv-x="1579" >
<font-face units-per-em="2048" ascent="1638" descent="-410" />
<missing-glyph horiz-adv-x="686" />
<glyph unicode="&#xfb01;" horiz-adv-x="1406" d="M119 903l22 121h244l29 154q58 323 360 323q102 0 195 -33l-25 -127q-74 29 -164 29q-56 0 -96 -14t-65 -43t-39.5 -65t-24.5 -89l-23 -135h355l-21 -121h-354l-160 -903h-147l160 903h-246zM963 0l180 1024h145l-180 -1024h-145zM1159 1208l39 230h170l-39 -230h-170z " />
<glyph unicode="&#xfb02;" horiz-adv-x="1427" d="M119 903l22 121h244l29 154q58 323 360 323q102 0 195 -33l-25 -127q-74 29 -164 29q-56 0 -96 -14t-65 -43t-39.5 -65t-24.5 -89l-23 -135h355l-21 -121h-354l-160 -903h-147l160 903h-246zM973 0l262 1485h145l-262 -1485h-145z" />
<glyph horiz-adv-x="0" />
<glyph horiz-adv-x="0" />
<glyph horiz-adv-x="682" />
<glyph unicode="&#xd;" horiz-adv-x="0" />
<glyph unicode=" "  horiz-adv-x="686" />
<glyph unicode="&#x09;" horiz-adv-x="686" />
<glyph unicode="&#xa0;" horiz-adv-x="686" />
<glyph unicode="!" horiz-adv-x="661" d="M141 0l39 213h197l-37 -213h-199zM254 387l154 1098h190l-236 -1098h-108z" />
<glyph unicode="&#x22;" horiz-adv-x="813" d="M276 944l58 510h162l-119 -510h-101zM590 944l57 510h162l-119 -510h-100z" />
<glyph unicode="#" horiz-adv-x="1331" d="M37 428v115h291l65 340h-274v112h295l82 426h135l-82 -426h395l82 426h135l-82 -426h275v-112h-295l-66 -340h291v-115h-311l-82 -428h-135l82 428h-398l-82 -428h-133l82 428h-270zM463 543h395l66 340h-396z" />
<glyph unicode="$" horiz-adv-x="1478" d="M63 416l168 22q8 -295 377 -340l103 576l-66 10q-198 38 -299.5 130t-101.5 247q0 84 33 154.5t100.5 126t183.5 87t270 31.5h19l31 174h104l-31 -180q104 -10 187.5 -37t149.5 -74t104.5 -120t44.5 -168l-162 -33q-9 141 -96.5 214t-249.5 91l-94 -524l106 -21 q204 -39 303 -131.5t99 -259.5q0 -93 -34 -168.5t-105 -135t-191.5 -92t-282.5 -32.5h-43l-31 -178h-106l33 186q-158 16 -271.5 67t-181 147.5t-70.5 230.5zM408 1075q0 -103 73.5 -161.5t229.5 -88.5l26 -4l90 510h-4q-119 0 -204 -21.5t-129 -59.5t-63 -80.5t-19 -94.5z M713 92h26q219 0 331 73t112 214q0 119 -75 178.5t-233 87.5l-61 10z" />
<glyph unicode="%" horiz-adv-x="1845" d="M158 1044q0 74 23.5 145t70.5 133t128.5 100t186.5 38q70 0 132 -18t114.5 -54t83.5 -99.5t31 -145.5q0 -74 -24.5 -145.5t-72 -133.5t-130 -100.5t-187.5 -38.5q-68 0 -129 17.5t-113 53t-83 99.5t-31 149zM236 -35l1298 1501h149l-1300 -1501h-147zM285 1053 q0 -49 14 -87.5t36.5 -62.5t53 -39.5t61.5 -21.5t64 -6q73 0 130.5 28t90.5 73t49.5 95.5t16.5 102.5q0 61 -21 105t-56.5 67t-73.5 33t-81 10q-73 0 -130 -27.5t-89.5 -72t-48.5 -94.5t-16 -103zM985 276q0 58 14 115.5t46 112t78.5 96t116.5 67t155 25.5q55 0 106 -10.5 t97.5 -35t81 -60.5t55 -90.5t20.5 -120.5q0 -74 -24.5 -145.5t-72 -133.5t-130 -100.5t-187.5 -38.5q-68 0 -129 17.5t-113 53t-83 99.5t-31 149zM1112 285q0 -49 14 -87.5t36.5 -62.5t53 -39.5t61.5 -21.5t64 -6q73 0 130.5 28t90.5 73t49.5 95.5t16.5 102.5q0 61 -21 105 t-56 67t-73 33t-81 10q-73 0 -130.5 -27.5t-89.5 -72t-48.5 -94.5t-16.5 -103z" />
<glyph unicode="&#x26;" horiz-adv-x="1523" d="M35 334q0 145 94 254.5t303 195.5l17 7q-68 95 -104 179.5t-36 174.5q0 52 11.5 101t40.5 97.5t72 84.5t112 58.5t155 22.5q70 0 131.5 -14.5t117.5 -47t89 -95.5t33 -150q0 -56 -16 -110t-54.5 -113.5t-113 -114.5t-180.5 -98l-37 -14l370 -459q169 181 246 510v2 l135 -19q-34 -158 -106.5 -314t-188.5 -275q83 -80 193 -80q49 0 108 16l-24 -135q-47 -16 -127 -16q-154 0 -268 114q-199 -139 -471 -139q-68 0 -131.5 8.5t-133 34t-120.5 66t-84 109.5t-33 159zM193 348q0 -66 26.5 -115.5t64.5 -76t90.5 -43t93 -21t83.5 -4.5 q214 0 373 107l-400 499l-24 -10q-168 -69 -237.5 -152.5t-69.5 -183.5zM465 1159q0 -75 31.5 -148t99.5 -165l33 12q289 118 289 324q0 207 -220 207q-58 0 -102 -16t-68 -39.5t-39 -56.5t-19.5 -60.5t-4.5 -57.5z" />
<glyph unicode="'" horiz-adv-x="499" d="M276 944l58 510h162l-119 -510h-101z" />
<glyph unicode="(" horiz-adv-x="690" d="M154 530q0 157 34.5 299.5t88 249.5t133 206t154.5 167.5t167 136.5l105 -73q-99 -81 -169 -148t-143 -160.5t-117.5 -188.5t-73 -221t-28.5 -270q0 -192 51.5 -365t178.5 -372l-113 -65q-136 183 -202 389t-66 415z" />
<glyph unicode=")" horiz-adv-x="690" d="M-94 -201q81 67 141.5 123t125 128.5t109 147.5t81.5 165t55 196t18 227q0 193 -51 366t-178 372l112 65q136 -183 202.5 -389.5t66.5 -415.5q0 -157 -34.5 -299.5t-88.5 -249t-133.5 -206t-154.5 -167.5t-167 -136z" />
<glyph unicode="*" horiz-adv-x="716" d="M178 1225l62 116l209 -102l16 242h129l-68 -242l244 102l18 -120l-253 -54l141 -188l-117 -78l-90 225l-172 -225l-90 84l201 182z" />
<glyph unicode="+" horiz-adv-x="1273" d="M133 612l23 125h446l72 402h145l-71 -402h450l-22 -125h-449l-76 -426h-145l76 426h-449z" />
<glyph unicode="," horiz-adv-x="548" d="M41 -195q124 33 149 179l3 16h-113l41 236h211l-41 -228q-13 -73 -36 -125t-55.5 -82.5t-62.5 -46t-69 -26.5z" />
<glyph unicode="-" horiz-adv-x="1005" d="M115 502l22 135h774l-24 -135h-772z" />
<glyph unicode="." horiz-adv-x="546" d="M78 0l41 227h209l-41 -227h-209z" />
<glyph unicode="/" horiz-adv-x="1069" d="M-37 -240l1051 1796h145l-1053 -1796h-143z" />
<glyph unicode="0" horiz-adv-x="1519" d="M143 578q0 81 11 164t36.5 170.5t64 166.5t96.5 149.5t129.5 122t168.5 81.5t209 30q94 0 177 -19t159.5 -65t131.5 -115t87.5 -175.5t32.5 -241.5q0 -115 -22 -231.5t-75.5 -236t-132.5 -210.5t-204.5 -149t-280.5 -58q-93 0 -176 19.5t-159.5 65t-131.5 115t-88 176 t-33 241.5zM299 569q0 -109 26 -194.5t68 -138t99.5 -86.5t116 -47t122.5 -13q104 0 191 34.5t146.5 94.5t103.5 135t69 163t37 171t12 166q0 109 -26 194.5t-68 138t-99.5 86.5t-116 47t-122.5 13q-104 0 -191 -34.5t-146.5 -94.5t-103.5 -135t-69 -163t-37 -171t-12 -166z " />
<glyph unicode="1" horiz-adv-x="864" d="M158 1024l24 139h49q152 0 252.5 69t141.5 191h131l-252 -1423h-152l205 1155q-93 -131 -328 -131h-71z" />
<glyph unicode="2" horiz-adv-x="1329" d="M-8 0l24 135q467 205 772 420q161 114 246.5 229.5t85.5 257.5q0 69 -22 121.5t-57 83.5t-85 50.5t-98.5 26.5t-103.5 7q-400 0 -408 -366q0 -12 1 -37t1 -33l-153 16q-4 43 -2 76q1 70 19 135t60.5 128t106 109.5t162 74.5t221.5 28q82 0 154.5 -12t141 -42t118 -75 t79 -115.5t29.5 -160.5q0 -76 -22 -147.5t-57.5 -128.5t-91.5 -116t-111 -104.5t-130 -99.5q-254 -177 -581 -322h864l-25 -139h-1138z" />
<glyph unicode="3" horiz-adv-x="1392" d="M78 408l155 18q8 -84 39 -146.5t73 -98t101.5 -57t112.5 -28t117 -6.5q112 0 195.5 25.5t130 70.5t68.5 99t22 118q0 271 -353 271h-135l23 127h151q187 0 284 77t97 207q0 60 -23.5 105t-59.5 71.5t-87.5 43.5t-99.5 22.5t-103 5.5q-395 0 -438 -352l-141 29 q13 101 53.5 182t110.5 142t176.5 94.5t243.5 33.5q80 0 152 -10t142 -36t120 -65.5t81 -103.5t31 -145q0 -149 -101 -247t-274 -118q64 -9 116 -31t96 -60t68.5 -99t24.5 -141q0 -67 -18 -128.5t-61 -120t-107 -101.5t-163.5 -69t-223.5 -26q-88 0 -166.5 12t-157 43.5 t-135.5 80t-94.5 128.5t-42.5 183z" />
<glyph unicode="4" horiz-adv-x="1325" d="M4 375l19 106l981 942h167l-163 -927h278l-20 -121h-281l-65 -375h-146l66 375h-836zM199 496h661l117 608q18 96 39 194h-4q-44 -68 -138 -157l-514 -496q-106 -103 -161 -149z" />
<glyph unicode="5" horiz-adv-x="1359" d="M84 358l162 23q50 -289 403 -289q104 0 184.5 26t129 67t79.5 98t42.5 112.5t11.5 116.5q0 79 -22 139.5t-56.5 96.5t-83 59t-95.5 31t-100 8q-167 0 -266.5 -67.5t-165.5 -196.5l-147 14l231 827h944l-22 -133h-832l-157 -540q59 103 176 164t272 61q68 0 131.5 -12 t128.5 -43.5t113 -79.5t78 -128t30 -182q0 -113 -35.5 -212.5t-106.5 -180.5t-192.5 -128.5t-279.5 -47.5q-101 0 -189 20t-166.5 64t-131.5 124t-68 189z" />
<glyph unicode="6" horiz-adv-x="1419" d="M141 588q0 120 21 236t73.5 233.5t131 205.5t204 143.5t281.5 55.5q71 0 136.5 -10.5t133.5 -38t120 -69.5t89.5 -110t48.5 -155l-153 -32q-52 286 -375 286q-112 0 -203 -36t-151.5 -95.5t-103.5 -144.5t-65.5 -175.5t-31.5 -195.5q65 129 195.5 198.5t298.5 69.5 q77 0 148.5 -15t138.5 -49.5t116.5 -86t79 -130t29.5 -175.5q0 -105 -34.5 -198.5t-102.5 -170.5t-182 -122.5t-261 -45.5q-92 0 -172.5 18t-157.5 62.5t-131.5 114t-87.5 180t-33 252.5zM295 512q6 -97 34 -172.5t69.5 -121.5t98 -75.5t112.5 -41t120 -11.5 q93 0 166.5 24.5t120 64t77 93t42.5 108t12 112.5q0 79 -24.5 140t-62 96.5t-89.5 58t-100 30.5t-101 8q-169 0 -293.5 -81.5t-181.5 -231.5z" />
<glyph unicode="7" horiz-adv-x="1189" d="M188 1284l25 139h1100l-23 -120q-358 -242 -574.5 -567t-262.5 -679l-7 -57h-174l7 41q53 350 259 668.5t566 574.5h-916z" />
<glyph unicode="8" horiz-adv-x="1415" d="M78 350q0 150 105 257.5t323 142.5q-252 93 -252 319q0 48 11.5 92.5t36 90t68.5 82.5t104 66.5t146.5 45.5t192.5 16q79 0 152 -10t146.5 -35.5t127.5 -64.5t87.5 -101.5t33.5 -142.5q0 -134 -96 -227t-295 -127q67 -21 119.5 -48.5t99.5 -69t72.5 -103.5t25.5 -140 q0 -88 -33 -162.5t-102 -136.5t-191 -97.5t-286 -35.5q-94 0 -177.5 12t-161.5 40.5t-134 72t-89.5 111t-33.5 153.5zM240 369q0 -66 27 -117t70 -81t103.5 -49.5t119 -26.5t124.5 -7q105 0 185 17.5t128 45.5t78.5 68t41.5 79t11 83q0 215 -292 287l-170 37 q-227 -32 -326.5 -120.5t-99.5 -215.5zM412 1083q0 -191 270 -256l145 -34q211 40 294 113t83 181q0 63 -26 111t-65 75t-93 44.5t-101 23t-98 5.5q-100 0 -176 -17.5t-119 -44t-70 -63.5t-35.5 -69.5t-8.5 -68.5z" />
<glyph unicode="9" horiz-adv-x="1429" d="M111 354l155 35q7 -71 36 -126t68 -87t90 -52t96 -27t93 -7q93 0 171 23t133.5 62t98.5 94.5t69.5 115.5t44.5 131t26 135t10 133q-148 -260 -500 -260q-97 0 -184.5 24.5t-162 74.5t-118.5 137t-44 201q0 75 17.5 144t60 135t106.5 114.5t164.5 78t226.5 29.5 q91 0 170 -16t157.5 -59.5t134 -111.5t90 -180t34.5 -257q0 -76 -6 -148t-25 -162.5t-49.5 -167t-84.5 -152.5t-125 -128.5t-177 -85.5t-234 -33q-72 0 -139.5 10t-138.5 37.5t-124.5 70t-92 113.5t-47.5 162zM348 969q0 -73 23 -130t59.5 -91.5t87.5 -56.5t101 -30t106 -8 q179 0 298 80t175 215q-11 94 -43.5 165.5t-74 112t-97.5 66t-105 33.5t-104 8q-101 0 -178.5 -23t-123 -58.5t-74.5 -85.5t-39.5 -97.5t-10.5 -99.5z" />
<glyph unicode=":" horiz-adv-x="546" d="M78 0l41 227h209l-41 -227h-209zM217 797l41 227h209l-41 -227h-209z" />
<glyph unicode=";" horiz-adv-x="569" d="M61 -195q125 33 150 179l2 16h-113l41 236h211l-41 -228q-13 -73 -36 -125t-55.5 -82.5t-62.5 -46t-69 -26.5zM223 797l41 227h209l-41 -227h-209z" />
<glyph unicode="&#x3c;" horiz-adv-x="1523" d="M342 606l23 123l1105 432l-22 -147l-924 -357l797 -352l-25 -131z" />
<glyph unicode="=" horiz-adv-x="1271" d="M98 416l25 137h1040l-24 -137h-1041zM166 795l24 137h1041l-25 -137h-1040z" />
<glyph unicode="&#x3e;" horiz-adv-x="1525" d="M109 174l22 148l924 356l-797 352l25 131l954 -432l-23 -123z" />
<glyph unicode="?" horiz-adv-x="1198" d="M145 1044q0 62 15.5 121.5t56.5 123t103 110.5t164.5 77.5t232.5 30.5q81 0 153.5 -11.5t142 -39t119.5 -70t80.5 -108.5t30.5 -150q0 -278 -313 -421l-148 -68q-74 -36 -106 -85.5t-43 -125.5l-10 -63h-152l12 81q19 106 65.5 174.5t149.5 116.5l164 72q217 102 217 299 q0 76 -32 131t-87 83.5t-114.5 41t-128.5 12.5q-99 0 -174.5 -22.5t-120 -57t-72.5 -82.5t-37.5 -93.5t-9.5 -96.5q0 -48 6 -86l-157 18q-7 44 -7 88zM387 0l37 217h194l-36 -217h-195z" />
<glyph unicode="@" horiz-adv-x="1929" d="M102 510q0 85 13.5 167t45.5 167.5t80.5 159.5t123.5 140t168.5 113t220.5 74t276 27q134 0 251.5 -21.5t224.5 -72t183 -127.5t121 -194.5t45 -266.5q0 -148 -41.5 -265t-131.5 -190.5t-216 -73.5q-104 0 -163 48.5t-62 136.5q-56 -90 -163 -146.5t-242 -56.5 q-44 0 -86 6t-87.5 23.5t-78.5 44t-54.5 71t-21.5 101.5q0 253 387 272l379 17l4 32q7 66 -10 112.5t-53.5 71t-80 34.5t-98.5 10q-67 0 -117 -11.5t-79.5 -28t-50 -43t-29 -49t-15.5 -53.5h-135q53 295 426 295q39 0 73.5 -3.5t72 -12t67.5 -22.5t59.5 -35t48 -49.5 t32.5 -66.5t14 -86.5t-8 -107.5l-35 -209q-15 -95 11 -141.5t104 -46.5q67 0 119 37t81 98.5t43.5 132.5t14.5 148q0 112 -28.5 203.5t-80 153.5t-117 107t-146.5 70t-161 36t-168 11q-183 0 -326.5 -47t-231 -121t-145 -173.5t-79 -195.5t-21.5 -196q0 -135 42.5 -244.5 t110.5 -178.5t159 -115.5t182.5 -66t185.5 -19.5q98 0 215 18.5t211 48.5l29 -98q-94 -36 -215.5 -57t-235.5 -21q-116 0 -226.5 23t-218 77.5t-187.5 135.5t-129.5 207t-49.5 282zM649 383q0 -145 201 -145q152 0 262.5 74.5t132.5 195.5l10 61l-350 -16 q-256 -15 -256 -170z" />
<glyph unicode="A" d="M-43 0l920 1454h159l408 -1454h-162l-102 395h-801l-242 -395h-180zM461 532h684l-146 564q-41 119 -57 215h-4q-29 -59 -133 -215z" />
<glyph unicode="B" horiz-adv-x="1587" d="M139 0l254 1454h686q206 0 319 -89t113 -253q0 -148 -85 -243t-252 -124q122 -22 190 -101.5t68 -215.5q0 -92 -31 -168t-94 -135t-168.5 -92t-245.5 -33h-754zM326 137h565q379 0 379 295q0 124 -73.5 184t-227.5 60h-549zM444 813h539q102 0 175.5 23t113 63.5t57 87 t17.5 103.5q0 227 -279 227h-535z" />
<glyph unicode="C" horiz-adv-x="1656" d="M123 612q0 92 14.5 181.5t47 177.5t80.5 165.5t118 144t156 114.5t199 75t243 27q106 0 197.5 -17.5t173 -57t141.5 -100t99 -150.5t48 -203l-167 -15q-9 106 -50.5 185t-109 126.5t-152.5 70t-188 22.5q-146 0 -264 -44.5t-194 -117.5t-126.5 -170t-72 -197t-21.5 -204 q0 -103 20.5 -186t59 -139.5t87 -97t110 -62.5t123 -32t130.5 -10q224 0 360.5 98t203.5 287l159 -26q-172 -500 -725 -500q-116 0 -216.5 20.5t-191 69.5t-154 123t-101 186.5t-37.5 255.5z" />
<glyph unicode="D" horiz-adv-x="1701" d="M137 0l256 1454h563q118 0 219 -20.5t190.5 -68t153 -119.5t100 -180.5t36.5 -246.5q0 -129 -31 -246t-100.5 -222.5t-171.5 -182.5t-254.5 -122.5t-339.5 -45.5h-621zM324 137h436q118 0 218 21t173 57t130.5 87.5t95 109.5t62 125.5t34.5 133.5t10 136q0 116 -29.5 206 t-78 146.5t-119 92.5t-145.5 50.5t-163 14.5h-418z" />
<glyph unicode="E" horiz-adv-x="1482" d="M139 0l256 1454h1090l-25 -137h-928l-88 -504h893l-24 -135h-893l-94 -541h940l-23 -137h-1104z" />
<glyph unicode="F" horiz-adv-x="1415" d="M139 0l256 1454h1090l-25 -137h-928l-88 -504h893l-24 -137h-893l-119 -676h-162z" />
<glyph unicode="G" horiz-adv-x="1714" d="M121 604q0 130 29.5 254t96 241.5t164.5 204.5t246 140t328 53q178 0 314 -49t225 -153.5t112 -256.5l-168 -26q-31 180 -162.5 264t-334.5 84q-147 0 -265.5 -45.5t-194.5 -120t-127.5 -174t-73 -202.5t-21.5 -212q0 -114 27.5 -203t73.5 -146t112.5 -94t139.5 -52 t159 -15q138 0 253 41.5t189 109.5t119 148t59 166l11 55h-555l24 138h703l-134 -754h-122l28 268q-82 -149 -236 -230t-358 -81q-106 0 -200 21t-179.5 70t-147 122t-98 184t-36.5 250z" />
<glyph unicode="H" horiz-adv-x="1757" d="M139 0l256 1454h162l-113 -641h975l113 641h162l-256 -1454h-162l119 676h-975l-119 -676h-162z" />
<glyph unicode="I" horiz-adv-x="620" d="M139 0l256 1454h162l-256 -1454h-162z" />
<glyph unicode="J" horiz-adv-x="897" d="M-47 2l29 150q112 -33 217 -33q136 0 220 68t113 231l183 1036h162l-189 -1059q-21 -121 -65 -205.5t-109 -132.5t-142 -69t-175 -21q-131 0 -244 35z" />
<glyph unicode="K" d="M139 0l256 1454h162l-141 -809l1007 809h215l-692 -559l486 -895h-191l-422 788l-440 -346l-78 -442h-162z" />
<glyph unicode="L" horiz-adv-x="1327" d="M139 0l256 1454h162l-231 -1315h880l-24 -139h-1043z" />
<glyph unicode="M" horiz-adv-x="2054" d="M139 0l256 1454h232l309 -1186q16 -68 16 -112h6q10 27 58 112l731 1186h244l-256 -1454h-150l209 1178q11 70 29 135h-6q-42 -88 -72 -135l-733 -1178h-156l-315 1178q-14 59 -19 135h-8q-3 -51 -18 -135l-207 -1178h-150z" />
<glyph unicode="N" horiz-adv-x="1746" d="M139 0l256 1454h191l647 -1126q51 -94 78 -156h4q8 68 26 176l197 1106h145l-256 -1454h-180l-655 1137q-50 96 -76 155h-6q-4 -53 -25 -170l-198 -1122h-148z" />
<glyph unicode="O" horiz-adv-x="1751" d="M123 621q0 127 29.5 248.5t96 236.5t163.5 201t243 138t324 52q116 0 218.5 -21t196.5 -70t162 -123.5t108 -189.5t40 -259q0 -127 -29.5 -249t-96 -236.5t-163.5 -201t-243 -138.5t-324 -52q-116 0 -219 21t-197 70.5t-161.5 124t-107.5 189.5t-40 259zM295 629 q0 -122 32.5 -216.5t85.5 -153.5t127 -97t150.5 -53t163.5 -15q147 0 265 45t193.5 118t126.5 170.5t72 196t21 201.5q0 122 -32.5 216.5t-85.5 153.5t-127 97t-150.5 53t-163.5 15q-147 0 -265 -45.5t-193.5 -118.5t-126.5 -170.5t-72 -196t-21 -200.5z" />
<glyph unicode="P" horiz-adv-x="1468" d="M137 0l256 1454h627q79 0 147 -11.5t132 -39.5t109 -71.5t72 -111.5t27 -155q0 -72 -18 -138t-61.5 -128.5t-109 -108.5t-168.5 -74t-232 -28h-515l-104 -588h-162zM428 725h479q101 0 179 20.5t124 52.5t75 77.5t39.5 89t10.5 92.5q0 76 -25 129t-72 80.5t-100.5 39 t-123.5 11.5h-482z" />
<glyph unicode="Q" horiz-adv-x="1761" d="M123 621q0 127 29.5 248.5t96 236.5t163.5 201t243 138t324 52q116 0 218.5 -21t196.5 -70t162 -123.5t108 -189.5t40 -259q0 -102 -19.5 -201.5t-62 -197.5t-105 -179.5t-155 -148t-205.5 -103.5q71 -133 270 -133q70 0 134 12l-25 -145q-90 -12 -127 -12 q-300 0 -399 243q-74 -12 -162 -12q-116 0 -219 21t-197 70.5t-161.5 124t-107.5 189.5t-40 259zM295 629q0 -122 32.5 -216.5t85.5 -153.5t127 -97t150.5 -53t163.5 -15q147 0 265 45t193.5 118t126.5 170.5t72 196t21 201.5q0 122 -32.5 216.5t-85.5 153.5t-127 97 t-150.5 53t-163.5 15q-147 0 -265 -45.5t-193.5 -118.5t-126.5 -170.5t-72 -196t-21 -200.5z" />
<glyph unicode="R" horiz-adv-x="1560" d="M137 0l256 1454h643q101 0 183.5 -20t149 -63t103.5 -118t37 -178q0 -81 -23 -151t-72.5 -131.5t-135.5 -104.5t-203 -61l293 -627h-190l-283 614h-487l-109 -614h-162zM432 752h483q97 0 172 18t121.5 48t76 72t41 86t11.5 95q0 246 -309 246h-496z" />
<glyph unicode="S" horiz-adv-x="1505" d="M70 449l170 24q11 -379 520 -379q218 0 328 77t110 218q0 116 -69.5 171t-225.5 83l-252 43q-204 39 -307.5 133t-103.5 254q0 89 34.5 163.5t104.5 134t188.5 93t274.5 33.5q106 0 195.5 -14.5t167.5 -47t133.5 -83t89 -125t38.5 -168.5l-166 -33q-13 181 -128.5 259.5 t-327.5 78.5q-98 0 -174.5 -16.5t-124 -43t-78 -64t-42 -75t-11.5 -80.5q0 -106 75.5 -166.5t227.5 -87.5l252 -45q203 -39 303 -128t100 -261q0 -94 -33.5 -171.5t-104.5 -139t-194 -95.5t-290 -34q-155 0 -277.5 29t-213.5 87.5t-139.5 153.5t-49.5 222z" />
<glyph unicode="T" horiz-adv-x="1327" d="M162 1317l24 137h1287l-25 -137h-561l-232 -1317h-163l233 1317h-563z" />
<glyph unicode="U" horiz-adv-x="1671" d="M205 332q-12 58 -12 126q0 79 16 171l145 825h164l-151 -844q-12 -74 -12 -136q1 -52 9 -96q18 -96 79 -158t150 -91t208 -29q91 0 164.5 16.5t127.5 48.5t94.5 74t68.5 99t46 116t31 132l156 868h162l-162 -905q-19 -105 -50.5 -190t-87 -161.5t-131.5 -127.5 t-185.5 -81t-246.5 -30q-161 0 -281.5 40.5t-198.5 123.5t-103 209z" />
<glyph unicode="V" horiz-adv-x="1439" d="M174 1454h170l277 -1130q23 -108 26 -168h6q31 70 88 168l676 1130h180l-878 -1454h-178z" />
<glyph unicode="W" horiz-adv-x="2177" d="M219 1454h164l127 -1212q4 -78 4 -82h6q10 29 37 82l612 1212h164l185 -1212q8 -47 8 -82h4q3 9 15.5 37t19.5 45l555 1212h172l-686 -1454h-197l-176 1182q-6 50 -6 72v10h-6q-5 -19 -35 -82l-594 -1182h-201z" />
<glyph unicode="X" horiz-adv-x="1499" d="M-59 0l753 762l-452 692h192l326 -512q36 -58 45 -82h4q16 24 72 80l503 514h201l-692 -700l485 -754h-196l-346 555q-8 14 -18.5 32t-15.5 26t-10.5 20t-9.5 24h-4q-35 -46 -88 -102l-545 -555h-204z" />
<glyph unicode="Y" horiz-adv-x="1396" d="M170 1454h182l330 -657q31 -63 39 -97h4q18 37 72 97l563 657h199l-773 -891l-98 -563h-164l99 563z" />
<glyph unicode="Z" horiz-adv-x="1394" d="M2 0l25 143l1216 1174h-973l25 137h1173l-24 -141l-1221 -1176h1049l-23 -137h-1247z" />
<glyph unicode="[" horiz-adv-x="739" d="M96 -240l318 1796h448l-22 -120h-314l-274 -1555h313l-20 -121h-449z" />
<glyph unicode="\" horiz-adv-x="1703" d="M279 1556h145l1051 -1796h-144z" />
<glyph unicode="]" horiz-adv-x="739" d="M-72 -240l23 121h313l275 1555h-314l21 120h448l-317 -1796h-449z" />
<glyph unicode="^" horiz-adv-x="950" d="M109 899l473 553h116l279 -553h-131l-213 432l-365 -432h-159z" />
<glyph unicode="_" horiz-adv-x="1052" d="M-143 -305l18 106h1053l-19 -106h-1052z" />
<glyph unicode="`" horiz-adv-x="1228" d="M229 1487h187l307 -299h-148z" />
<glyph unicode="a" horiz-adv-x="1343" d="M74 264q0 132 96 215q118 103 381 117l489 25l7 38q5 32 5 60q0 97 -64 149q-82 68 -259 68q-341 0 -389 -238h-154q31 172 171.5 264.5t373.5 92.5q255 -1 375 -107q90 -80 90 -228q0 -50 -10 -108l-43 -252q-37 -207 -37 -360h-152q3 108 23 215q-160 -246 -498 -246 q-189 0 -297 74t-108 221zM231 272q0 -67 38 -109t96.5 -58.5t138.5 -16.5q215 0 347.5 101.5t158.5 256.5l14 70l-436 -22q-101 -7 -172.5 -26t-111 -49.5t-56.5 -66t-17 -80.5z" />
<glyph unicode="b" horiz-adv-x="1449" d="M127 0l262 1485h143l-118 -672q68 106 183 174t271 68q69 0 135 -13.5t131.5 -47.5t114.5 -85t79 -131.5t30 -181.5q0 -87 -20.5 -173t-67 -169t-114.5 -145.5t-170 -101t-226 -38.5q-104 0 -190 23.5t-157.5 79.5t-109.5 141l-57 -213h-119zM358 510q-10 -51 -10 -97 q0 -120 72 -202q100 -113 309 -113q106 0 190.5 33t136 84.5t85 119.5t46.5 131t13 126q0 80 -23.5 141.5t-59.5 97t-86 58t-95.5 30t-95.5 7.5q-181 0 -308 -96t-157 -244z" />
<glyph unicode="c" horiz-adv-x="1292" d="M90 442q0 86 19 168t65 164t115 143.5t178.5 99.5t245.5 38q95 0 177.5 -19.5t155.5 -61.5t120 -117.5t57 -178.5l-152 -19q-9 78 -44 133t-87.5 83.5t-107 40.5t-117.5 12q-109 0 -194 -32t-135.5 -81t-83 -115.5t-44.5 -128t-12 -125.5q0 -97 31.5 -168t87 -109 t120 -55.5t142.5 -17.5q163 0 254.5 69.5t138.5 194.5l145 -22q-125 -369 -542 -369q-82 0 -155.5 13.5t-144 47.5t-121 86.5t-81.5 136t-31 189.5z" />
<glyph unicode="d" horiz-adv-x="1449" d="M94 436q0 89 21 175.5t67.5 167.5t114 141.5t168 97.5t221.5 37q157 0 278.5 -62.5t176.5 -189.5l119 682h145l-262 -1485h-139l36 211q-63 -109 -176.5 -175.5t-273.5 -66.5q-72 0 -139.5 14.5t-133.5 49t-114.5 86.5t-78.5 133.5t-30 183.5zM250 444q0 -81 23.5 -143.5 t60 -100.5t88 -62t101.5 -33t106 -9q97 0 179 30.5t136.5 82t89 113t47.5 129.5l9 49q9 46 9 88q0 53 -14 100q-25 84 -83.5 135t-138 78t-171.5 27q-95 0 -172 -30.5t-126.5 -80t-82.5 -114t-47 -129.5t-14 -130z" />
<glyph unicode="e" horiz-adv-x="1323" d="M90 440q0 90 21 175t69 166t118.5 141t177 96.5t237.5 36.5q109 0 200 -24.5t162.5 -73.5t111.5 -131t40 -189q0 -82 -25 -162h-964v-18q0 -84 23.5 -149t61 -104t91.5 -64t108 -34.5t117 -9.5q156 0 248 57.5t151 172.5l121 -56q-151 -301 -520 -301q-75 0 -145 11.5 t-145.5 44t-131 83t-91.5 136t-36 196.5zM252 592h823q8 31 8 70q0 62 -22 111t-57.5 80t-85 51.5t-100.5 29t-107 8.5q-195 0 -309.5 -96.5t-149.5 -253.5z" />
<glyph unicode="f" horiz-adv-x="843" d="M119 903l22 121h244l29 154q58 323 360 323q102 0 195 -33l-25 -127q-74 29 -164 29q-56 0 -96 -14t-65 -43t-39.5 -65t-24.5 -89l-23 -135h355l-21 -121h-354l-160 -903h-147l160 903h-246z" />
<glyph unicode="g" horiz-adv-x="1304" d="M-27 -162q0 177 230 240q-109 47 -109 151q0 158 221 213q-102 83 -102 226q0 74 28 140.5t85 123t156 90t229 33.5q174 0 286 -60q32 89 102.5 139t174.5 50q50 0 86 -10l-23 -130q-39 13 -86 13q-140 0 -182 -111q84 -81 84 -209q0 -74 -28 -141t-85 -124t-156 -90.5 t-229 -33.5q-165 0 -274 53q-74 -16 -108.5 -51t-34.5 -78q0 -52 45.5 -74.5t148.5 -25.5l334 -6q82 -2 143.5 -14.5t113 -40t78.5 -77.5t27 -122q0 -342 -618 -342q-119 0 -212 13t-168.5 42.5t-116 83t-40.5 129.5zM119 -129q0 -54 30.5 -91t88.5 -55.5t124.5 -26 t157.5 -7.5q133 0 227.5 18t142.5 49.5t68.5 66t20.5 75.5q0 78 -56 106.5t-169 30.5l-336 6q-63 0 -121 10q-178 -52 -178 -182zM358 680q0 -64 27.5 -109t74.5 -68t96.5 -32.5t107.5 -9.5q95 0 165 23t107.5 62.5t54.5 83t17 93.5q0 64 -27.5 109t-74.5 68t-96.5 32.5 t-107.5 9.5q-95 0 -164.5 -23t-107 -62.5t-55 -83.5t-17.5 -93z" />
<glyph unicode="h" horiz-adv-x="1433" d="M129 0l262 1485h146l-121 -692q56 114 168.5 188t283.5 74q84 0 154.5 -21t129.5 -65t92.5 -122t33.5 -183q0 -74 -18 -164l-89 -500h-145l90 510q12 61 12 131q0 80 -25.5 138t-70.5 89t-96.5 44.5t-114.5 13.5q-87 0 -159.5 -25t-122 -66t-87 -99t-59 -119t-33.5 -132 l-86 -485h-145z" />
<glyph unicode="i" horiz-adv-x="563" d="M119 0l180 1024h145l-180 -1024h-145zM315 1208l39 230h170l-39 -230h-170z" />
<glyph unicode="j" horiz-adv-x="575" d="M-225 -389l22 127q77 -23 127 -23q86 0 128.5 47t60.5 154l196 1108h148l-201 -1126q-28 -161 -100 -237.5t-222 -76.5q-80 0 -159 27zM324 1208l38 230h170l-38 -230h-170z" />
<glyph unicode="k" horiz-adv-x="1296" d="M129 0l262 1485h146l-177 -998l734 537h202l-516 -389l369 -635h-174l-307 551l-338 -238l-56 -313h-145z" />
<glyph unicode="l" horiz-adv-x="583" d="M129 0l262 1485h146l-263 -1485h-145z" />
<glyph unicode="m" horiz-adv-x="2070" d="M119 0l180 1024h141l-39 -221q22 51 53.5 94t77 80.5t110.5 58.5t142 21q49 0 93 -8.5t87 -29t75.5 -51.5t56.5 -79t32 -109q54 122 156 199.5t258 77.5q55 0 104.5 -9.5t100.5 -35.5t88 -66.5t60.5 -107.5t23.5 -154q0 -61 -16 -149l-97 -535h-145l96 535q10 56 10 122 q0 76 -22 131.5t-61 84.5t-82.5 42t-94.5 13q-71 0 -130 -24t-99.5 -62.5t-72 -93.5t-49.5 -111t-30 -121l-92 -516h-145l96 530q10 59 10 127q0 78 -22.5 134t-62 84.5t-81.5 40.5t-92 12q-308 0 -383 -416l-90 -512h-145z" />
<glyph unicode="n" horiz-adv-x="1423" d="M119 0l180 1024h141l-45 -244q27 57 66 104.5t94 87t131 61.5t166 22q58 0 111 -9.5t109.5 -36.5t97.5 -70t67.5 -116.5t26.5 -169.5q0 -78 -17 -164l-86 -489h-145l90 500q12 71 12 129q0 86 -27 147t-74.5 92t-99.5 44.5t-114 13.5q-87 0 -158.5 -26t-120 -68.5 t-85.5 -102t-58 -120t-33 -130.5l-84 -479h-145z" />
<glyph unicode="o" horiz-adv-x="1351" d="M90 442q0 89 21 174t68.5 165.5t118 140.5t177.5 96.5t238 36.5q85 0 161 -14t148.5 -49t124.5 -87.5t83.5 -135.5t31.5 -187q0 -89 -21 -174t-68.5 -165.5t-118 -140.5t-177.5 -96.5t-238 -36.5q-85 0 -161 14t-148.5 49t-124.5 87.5t-83.5 135.5t-31.5 187zM246 451 q0 -98 34 -169.5t93 -110.5t127 -57t147 -18q101 0 182 30t131.5 78.5t84.5 112.5t47.5 127.5t13.5 128.5q0 98 -34 169.5t-93 110.5t-127 57t-147 18q-101 0 -182 -30t-131.5 -78.5t-84.5 -112.5t-47.5 -127.5t-13.5 -128.5z" />
<glyph unicode="p" horiz-adv-x="1439" d="M47 -399l252 1423h141l-41 -225q60 109 175.5 182.5t281.5 73.5q71 0 137.5 -13.5t132 -47.5t114 -85t78.5 -131.5t30 -181.5q0 -87 -20.5 -173t-67 -169t-114 -145.5t-169.5 -101t-225 -38.5q-169 0 -287 59t-166 177l-106 -604h-146zM346 489q-8 -44 -8 -83 q0 -117 73 -199q98 -109 308 -109q106 0 191 33t136.5 84.5t85.5 119t47 131t13 126.5q0 80 -23.5 141.5t-60 97t-86.5 58t-95.5 30t-95.5 7.5q-188 0 -314.5 -107.5t-156.5 -259.5z" />
<glyph unicode="q" horiz-adv-x="1439" d="M92 434q0 73 15.5 145.5t45.5 143t79.5 130t113.5 105t151.5 71.5t188.5 26q161 0 283 -61.5t176 -182.5l65 213h115l-252 -1423h-145l106 610q-60 -116 -174 -179t-268 -63q-75 0 -144 14.5t-134.5 49.5t-114 87t-78 132.5t-29.5 181.5zM250 442q0 -80 23 -142t60 -99.5 t87.5 -62t101 -33.5t105.5 -9q96 0 177 29.5t136.5 80t91.5 113t49 132.5l9 49q9 47 9 89q0 35 -7 67q-14 68 -50 119.5t-91 85t-120.5 50.5t-138.5 17q-95 0 -172 -31t-126.5 -80.5t-82.5 -115t-47 -130t-14 -129.5z" />
<glyph unicode="r" horiz-adv-x="847" d="M119 0l180 1024h137l-53 -295q28 73 62 128.5t82 101t113.5 69t147.5 23.5q61 0 109 -13l-27 -143q-49 12 -104 12q-143 0 -236 -78q-136 -115 -186 -387l-80 -442h-145z" />
<glyph unicode="s" horiz-adv-x="1228" d="M61 326l148 28q9 -78 42.5 -131.5t88 -81.5t115.5 -39.5t139 -11.5q334 0 334 197q0 68 -40 102t-134 49l-289 37q-143 23 -218 90.5t-75 175.5q0 141 121.5 227.5t349.5 86.5q99 0 180.5 -16.5t150.5 -52t113.5 -99t57.5 -150.5l-146 -37q-12 59 -38.5 103t-59 69 t-77.5 40t-86 19.5t-93 4.5q-175 0 -250.5 -47.5t-75.5 -134.5q0 -66 43 -101.5t144 -50.5l297 -41q274 -46 274 -268q0 -147 -122 -235.5t-369 -88.5q-84 0 -153.5 9.5t-135.5 34.5t-113.5 64.5t-80 102.5t-42.5 146z" />
<glyph unicode="t" horiz-adv-x="884" d="M109 903l22 121h246l49 270l158 64l-60 -334h367l-23 -121h-364l-96 -536q-8 -38 -8 -68v-15q2 -36 7.5 -62.5t21.5 -45t31.5 -30t39 -18t44 -9t46.5 -2.5q74 0 145 14l-24 -129q-79 -22 -164 -22q-59 0 -107.5 12.5t-90 41t-64 75.5t-30.5 116q-2 20 -2 43q0 54 13 119 l90 516h-247z" />
<glyph unicode="u" horiz-adv-x="1404" d="M152 322q0 55 22 213l86 489h146l-89 -500q-18 -124 -18 -172q0 -72 24.5 -123.5t67.5 -79.5t92.5 -40.5t108.5 -12.5q382 0 465 449l84 479h145l-180 -1024h-139l43 244q-36 -78 -91.5 -136.5t-151.5 -98.5t-218 -40q-56 0 -107.5 8.5t-106 33t-94 62.5t-64.5 102 t-25 147z" />
<glyph unicode="v" horiz-adv-x="1169" d="M106 1024h158l225 -764q15 -69 21 -121h6q24 56 66 121l493 764h168l-670 -1024h-157z" />
<glyph unicode="w" horiz-adv-x="1818" d="M137 1024h144l133 -782q7 -57 10 -111h4q10 26 51 111l432 782h166l152 -782q12 -99 12 -111h6q16 48 47 111l412 782h156l-553 -1024h-164l-156 788q-4 24 -10 105h-4q-18 -51 -47 -105l-430 -788h-170z" />
<glyph unicode="x" horiz-adv-x="1185" d="M-55 0l557 528l-348 496h178l217 -315q47 -72 59 -101h2q14 19 88 101l326 315h188l-522 -502l371 -522h-174l-240 338q-40 59 -57 102h-2q-17 -22 -96 -104l-347 -336h-200z" />
<glyph unicode="y" horiz-adv-x="1165" d="M-76 -393l23 131q58 -23 133 -23q94 0 167 48.5t140 162.5l43 78l-324 1020h160l232 -760q16 -62 26 -125h4q21 49 68 125l477 760h166l-723 -1141q-60 -95 -113.5 -155.5t-108 -91.5t-104.5 -41.5t-118 -10.5q-77 0 -148 23z" />
<glyph unicode="z" horiz-adv-x="1173" d="M8 0l23 117l911 784h-745l22 123h932l-21 -113l-913 -786h807l-23 -125h-993z" />
<glyph unicode="{" horiz-adv-x="737" d="M100 616l21 115q48 1 81.5 11t54 23.5t34.5 41t20.5 52.5t14.5 69l59 338q13 70 35.5 121t64.5 95.5t113 67.5t170 23h90l-20 -111h-56q-56 0 -99 -11t-70 -29t-46.5 -47t-29 -58t-17.5 -70l-55 -309q-19 -109 -62.5 -173t-134.5 -89q57 -20 84.5 -64t27 -97.5 t-10.5 -117.5l-54 -307q-10 -42 -6 -74.5t10.5 -55.5t23 -39.5t32.5 -26.5t39 -15.5t42 -7.5t42 -2h63l-18 -111h-74q-32 0 -60.5 2.5t-59.5 9.5t-55 19t-48.5 30.5t-38.5 44.5t-25 60.5t-9.5 79t9.5 100.5l56 308q9 60 9 104.5t-35 71t-112 28.5z" />
<glyph unicode="|" horiz-adv-x="563" d="M86 -240l317 1796h125l-317 -1796h-125z" />
<glyph unicode="}" horiz-adv-x="737" d="M-68 -242l21 111h55q56 0 99 11t70 29t46.5 47t29 58t17.5 70l56 309q19 109 62 173t134 89q-56 20 -83.5 64t-27 97.5t10.5 117.5l53 307q12 70 0.5 117t-43.5 68t-64 28.5t-75 7.5h-64l19 111h74q32 0 60.5 -2.5t59.5 -9.5t55 -19t48 -30.5t38 -44.5t25 -60.5t9.5 -79 t-9.5 -100.5l-55 -307q-9 -60 -9.5 -105t34.5 -71.5t112 -28.5l-20 -115q-48 -1 -81.5 -11t-54 -23.5t-34.5 -41t-20.5 -52.5t-14.5 -69l-59 -337q-10 -55 -25.5 -97.5t-44 -83.5t-69 -68t-102.5 -43t-142 -16h-91z" />
<glyph unicode="~" horiz-adv-x="1427" d="M207 512q34 128 120.5 195t194.5 67q59 0 110 -18t86.5 -44t69 -52t74 -44t84.5 -18q72 0 121 35.5t80 124.5l115 -17q-34 -128 -120.5 -195t-195.5 -67q-60 0 -111 18t-86.5 44t-68.5 52t-73.5 44t-84.5 18q-72 0 -120.5 -35.5t-79.5 -123.5z" />
<glyph unicode="&#xa1;" horiz-adv-x="661" d="M92 -297l236 1098h108l-153 -1098h-191zM313 975l37 213h199l-39 -213h-197z" />
<glyph unicode="&#xa2;" horiz-adv-x="1331" d="M90 438q0 86 19 168.5t66 165t117.5 144.5t183 100.5t253.5 38.5h2l29 159h104l-28 -165q64 -7 120 -23t108.5 -45t92 -68.5t66 -97t34.5 -127.5l-145 -18q-9 65 -37 114t-70 79t-88.5 46.5t-101.5 22.5l-149 -844q112 3 192.5 37.5t126 89t74.5 133.5l141 -24 q-30 -80 -74 -142t-109.5 -111t-159.5 -75t-212 -27l-29 -159h-104l29 163q-74 8 -138 27t-122.5 55.5t-100 87.5t-66 126.5t-24.5 168.5zM242 446q0 -317 319 -354l150 844q-112 -3 -198.5 -38t-136 -85.5t-81.5 -118t-42.5 -127t-10.5 -121.5z" />
<glyph unicode="&#xa3;" horiz-adv-x="1429" d="M-27 94q96 26 165.5 63t123.5 95t80.5 143.5t26.5 200.5q0 17 -1 47.5t-1 44.5h-242l20 109h213q0 13 -1 40t-1 40q0 98 15.5 180.5t54 158.5t98.5 129t154.5 84t216.5 31q221 0 348 -85.5t146 -252.5l-158 -39q-13 125 -100 187.5t-236 62.5q-96 0 -165.5 -25t-110 -65 t-63.5 -103.5t-30.5 -125.5t-7.5 -146q0 -13 1 -36.5t1 -34.5h494l-19 -109h-467q2 -20 2 -59q0 -143 -33 -240t-99.5 -158.5t-176.5 -103.5q101 27 217 27q115 0 260 -24t226 -24q128 0 197.5 54.5t95.5 173.5l133 -25q-33 -167 -146 -256.5t-282 -89.5q-90 0 -249 32 t-286 32q-182 0 -399 -41z" />
<glyph unicode="&#xa4;" horiz-adv-x="1247" d="M80 211l135 121q-80 103 -80 252q0 105 38 200t110 164l-90 121l81 64l95 -121q123 71 290 71q216 0 353 -106l131 117l59 -64l-129 -117q84 -104 84 -256q0 -107 -38 -202t-111 -164l86 -115l-82 -65l-90 116q-122 -69 -289 -69q-222 0 -359 112l-135 -123zM270 590 q0 -83 30 -145t81.5 -96.5t111.5 -51t130 -16.5q87 0 156.5 22t114 57.5t74 84.5t42 100t12.5 106q0 83 -29.5 145t-81 97t-111.5 51.5t-130 16.5q-108 0 -188.5 -32.5t-125 -87.5t-65.5 -118t-21 -133z" />
<glyph unicode="&#xa5;" horiz-adv-x="1368" d="M96 309l19 105h473l22 131h-473l19 104h460l-452 774h170l274 -471q68 -112 105 -207h6q54 73 178 207l440 471h187l-727 -774h463l-21 -104h-475l-23 -131h478l-21 -105h-475l-53 -309h-154l53 309h-473z" />
<glyph unicode="&#xa6;" horiz-adv-x="561" d="M86 -240l137 775h123l-137 -775h-123zM266 782l137 774h123l-137 -774h-123z" />
<glyph unicode="&#xa7;" horiz-adv-x="1224" d="M10 115l142 24q6 -115 95 -170t267 -55q348 0 348 213q0 68 -40.5 113.5t-129.5 76.5l-293 82q-63 20 -110 43t-87 56t-60.5 78t-20.5 102q0 181 198 260q-83 71 -83 192q0 67 26 125.5t79.5 107.5t147.5 77t218 28q71 0 136.5 -9t127.5 -30.5t108 -54.5t74.5 -84 t30.5 -116l-150 -33q-10 209 -319 209q-94 0 -161 -16.5t-102.5 -45.5t-51 -62.5t-15.5 -74.5q0 -65 44 -108t149 -78l278 -70q274 -80 274 -287q0 -183 -184 -280q66 -75 66 -189q0 -72 -26.5 -132.5t-83 -110t-156.5 -77.5t-236 -28q-91 0 -172.5 15.5t-157.5 50t-122 101 t-48 157.5zM268 698q0 -66 53 -108t191 -86l256 -66q58 -19 100 -45q115 74 115 191q0 73 -48.5 114.5t-168.5 83.5l-291 78q-14 4 -36 12t-25 9q-71 -28 -108.5 -75t-37.5 -108z" />
<glyph unicode="&#xa8;" horiz-adv-x="1228" d="M104 1217l39 221h176l-38 -221h-177zM616 1217l39 221h174l-38 -221h-175z" />
<glyph unicode="&#xa9;" horiz-adv-x="1841" d="M127 651q0 118 25 231t88.5 226.5t158.5 198t247 137.5t343 53q76 0 151.5 -10.5t155 -35t149.5 -61t132.5 -93t107.5 -126t71 -164t26 -204.5q0 -83 -13 -165t-43.5 -166.5t-76 -159t-115 -140.5t-156.5 -113t-205 -74.5t-255 -27.5q-110 0 -216 21t-211.5 73t-185 129 t-129 198.5t-49.5 272.5zM219 653q0 -128 42 -233t111 -174t160.5 -116.5t186 -68t192.5 -20.5q122 0 228 25t184 68t141 103t104.5 127t69.5 143t40 148.5t12 145.5q0 129 -43 234.5t-112.5 174t-162 115.5t-187.5 67.5t-192 20.5q-122 0 -227.5 -25t-183.5 -68.5 t-140.5 -103.5t-103.5 -127t-68.5 -143t-39 -148t-11.5 -145zM516 676q0 69 14.5 135t50.5 131.5t90 114t139 78.5t191 30q75 0 140.5 -16.5t121 -50t90.5 -92t42 -136.5l-119 -14q-6 58 -32.5 100t-66.5 64.5t-82.5 32.5t-90.5 10q-83 0 -148 -25t-104 -64t-65 -91 t-35.5 -102.5t-8.5 -102.5q1 -78 25.5 -135t66.5 -88.5t91.5 -45.5t107.5 -14q228 0 301 203l113 -16q-41 -134 -142.5 -212.5t-273.5 -78.5q-64 0 -121.5 11.5t-112.5 40t-94.5 71t-63.5 110t-24 152.5z" />
<glyph unicode="&#xaa;" horiz-adv-x="1054" d="M186 827q0 116 94.5 175.5t290.5 68.5l318 14l2 23q18 106 -37.5 154.5t-179.5 48.5q-232 0 -262 -158h-144q22 121 123.5 186.5t284.5 65.5q197 0 288 -81.5t62 -250.5l-33 -186q-26 -150 -26 -252h-140q4 88 19 164q-50 -92 -144 -139.5t-219 -47.5q-134 0 -215.5 53 t-81.5 162zM334 840q0 -70 54 -102.5t140 -32.5q138 0 229.5 67.5t110.5 179.5l11 60l-283 -13q-262 -13 -262 -159z" />
<glyph unicode="&#xab;" horiz-adv-x="1134" d="M82 563l487 426h176l-491 -436l321 -416h-161zM502 563l487 426h176l-491 -436l321 -416h-161z" />
<glyph unicode="&#xac;" horiz-adv-x="1511" d="M262 616l25 136h1024l-86 -484h-138l62 348h-887z" />
<glyph unicode="&#xad;" horiz-adv-x="1005" d="M115 502l22 135h774l-24 -135h-772z" />
<glyph unicode="&#xae;" horiz-adv-x="1841" d="M127 651q0 118 25 231t88.5 226.5t158.5 198t247 137.5t343 53q76 0 151.5 -10.5t155 -35t149.5 -61t132.5 -93t107.5 -126t71 -164t26 -204.5q0 -83 -13 -165t-43.5 -166.5t-76 -159t-115 -140.5t-156.5 -113t-205 -74.5t-255 -27.5q-110 0 -216 21t-211.5 73t-185 129 t-129 198.5t-49.5 272.5zM219 653q0 -128 42 -233t111 -174t160.5 -116.5t186 -68t192.5 -20.5q122 0 228 25t184 68t141 103t104.5 127t69.5 143t40 148.5t12 145.5q0 129 -43 234.5t-112.5 174t-162 115.5t-187.5 67.5t-192 20.5q-122 0 -227.5 -25t-183.5 -68.5 t-140.5 -103.5t-103.5 -127t-68.5 -143t-39 -148t-11.5 -145zM575 319l148 832h356q293 0 293 -221q0 -88 -58.5 -159t-189.5 -97l164 -355h-127l-149 351h-256l-64 -351h-117zM772 768h268q213 0 213 156q0 76 -47.5 102.5t-130.5 26.5h-252z" />
<glyph unicode="&#xaf;" horiz-adv-x="1228" d="M102 1264l21 112h733l-18 -112h-736z" />
<glyph unicode="&#xb0;" horiz-adv-x="921" d="M172 1040q0 75 24.5 147.5t72.5 137t131.5 104t189.5 39.5q159 0 260.5 -88t101.5 -245q0 -58 -13.5 -116t-45.5 -115t-79 -100t-119 -70t-160 -27q-165 0 -264 90.5t-99 242.5zM309 1047q0 -110 64.5 -163t161.5 -53q89 0 154.5 44.5t95.5 110.5t30 142 q0 110 -63.5 162.5t-161.5 52.5q-131 0 -206 -87.5t-75 -208.5z" />
<glyph unicode="&#xb1;" horiz-adv-x="1556" d="M168 0l22 137h1043l-25 -137h-1040zM274 612l23 125h446l62 346h145l-61 -346h448l-22 -125h-449l-61 -342h-146l62 342h-447z" />
<glyph unicode="&#xb4;" horiz-adv-x="1228" d="M100 1188l308 299h186l-346 -299h-148z" />
<glyph unicode="&#xb5;" horiz-adv-x="1443" d="M51 -399l158 907q1 5 2 14t2 13l86 489h145l-88 -500q-18 -124 -18 -172q0 -72 24.5 -123.5t67.5 -79.5t92.5 -40.5t108.5 -12.5q382 0 465 449l84 479h145l-180 -1024h-139l43 244q-36 -78 -91.5 -136.5t-151.5 -98.5t-218 -40q-219 0 -322 121l-86 -489h-129z" />
<glyph unicode="&#xb6;" horiz-adv-x="1589" d="M223 1065q0 410 608 410h768l-16 -103h-244l-280 -1577h-119l281 1577h-277l-278 -1577h-119l166 944q-61 0 -122 8t-129.5 30.5t-119.5 57.5t-85 94.5t-34 135.5z" />
<glyph unicode="&#xb7;" horiz-adv-x="546" d="M180 588l41 227h209l-41 -227h-209z" />
<glyph unicode="&#xb8;" horiz-adv-x="1228" d="M100 -279l107 17q18 -64 110 -64q54 0 87.5 25.5t33.5 75.5q0 75 -100 75q-56 0 -96 -32l-68 20l131 174h96l-106 -123q37 27 102 27q72 0 115 -37t43 -100q0 -83 -68.5 -134t-167.5 -51q-92 0 -148.5 33.5t-70.5 93.5z" />
<glyph unicode="&#xba;" horiz-adv-x="1077" d="M182 961q0 66 16 127.5t52 119.5t89.5 101.5t134.5 69.5t181 26q63 0 120 -10t112 -35t95 -63.5t64.5 -100t24.5 -139.5q0 -65 -16 -126.5t-52 -120t-89.5 -102t-134.5 -70t-181 -26.5q-63 0 -120 10t-112 35.5t-95 64t-64.5 100t-24.5 139.5zM326 961q0 -67 23.5 -116.5 t64 -77t88 -40t102.5 -12.5q69 0 125 21.5t92 55.5t60.5 80t34.5 92t10 93q0 54 -15.5 97t-41.5 70.5t-62.5 45.5t-75 25.5t-82.5 7.5q-69 0 -125.5 -21.5t-92.5 -55.5t-60.5 -80t-34.5 -92t-10 -93z" />
<glyph unicode="&#xbb;" horiz-adv-x="1136" d="M-12 137l491 436l-321 416h161l332 -426l-487 -426h-176zM408 137l491 436l-321 416h161l332 -426l-487 -426h-176z" />
<glyph unicode="&#xbc;" horiz-adv-x="1753" d="M113 -35l1286 1524h139l-1286 -1524h-139zM176 1192l19 115h36q179 0 238 147h109l-138 -782h-133l111 602q-26 -37 -80.5 -59.5t-114.5 -22.5h-47zM836 190l14 89l584 503h135l-90 -499h174l-15 -93h-174l-34 -190h-132l35 190h-497zM971 283h381l80 399z" />
<glyph unicode="&#xbd;" horiz-adv-x="1851" d="M113 -35l1286 1524h139l-1286 -1524h-139zM176 1192l19 115h36q179 0 238 147h109l-138 -782h-133l111 602q-26 -37 -80.5 -59.5t-114.5 -22.5h-47zM977 0l14 88q274 131 359 179q217 122 260 232q12 31 12 62q0 80 -56 113t-139 33q-116 0 -172 -54t-41 -151l-131 10 q-11 136 80.5 214.5t274.5 78.5q60 0 112.5 -10.5t102.5 -34.5t79 -71.5t29 -113.5q0 -59 -34.5 -117t-85 -103.5t-133 -95.5t-151.5 -84t-167 -79h506l-15 -96h-704z" />
<glyph unicode="&#xbe;" horiz-adv-x="2054" d="M147 909l136 9q7 -173 235 -173q104 0 158.5 42t54.5 112q0 62 -49.5 98.5t-144.5 36.5h-70l12 76h72q102 0 161.5 37t59.5 108q0 65 -58 96t-139 31q-112 0 -169.5 -47t-67.5 -125l-129 9q13 118 105 188t264 70q46 0 89 -5t88.5 -19t79 -36t55 -58t21.5 -83 q0 -93 -67.5 -145t-177.5 -62q92 -8 146 -53.5t54 -124.5q0 -106 -87.5 -173t-256.5 -67q-370 0 -375 258zM414 -35l1286 1524h139l-1286 -1524h-139zM1137 190l14 89l584 503h135l-90 -499h174l-15 -93h-174l-34 -190h-132l35 190h-497zM1272 283h381l80 399z" />
<glyph unicode="&#xbf;" horiz-adv-x="1191" d="M-23 59q0 144 84 249.5t230 172.5l147 68q74 36 106.5 85.5t43.5 125.5l10 63h152l-13 -82q-19 -106 -65.5 -174t-149.5 -116l-164 -72q-217 -102 -217 -299q0 -62 22 -109.5t57 -77t84 -48.5t97.5 -26t102.5 -7q99 0 174.5 22.5t120 57t72.5 82.5t37.5 93.5t9.5 96.5 q0 42 -7 86l158 -19q6 -37 6 -88q0 -62 -15.5 -121.5t-56 -122.5t-103 -110.5t-164.5 -77.5t-232 -30q-81 0 -153.5 11.5t-142 39t-120 69.5t-81 108t-30.5 150zM602 971l37 217h195l-37 -217h-195z" />
<glyph unicode="&#xc0;" d="M-43 0l920 1454h159l408 -1454h-162l-102 395h-801l-242 -395h-180zM461 532h684l-146 564q-41 119 -57 215h-4q-29 -59 -133 -215zM600 1761h178l279 -213h-154z" />
<glyph unicode="&#xc1;" d="M-43 0l920 1454h159l408 -1454h-162l-102 395h-801l-242 -395h-180zM461 532h684l-146 564q-41 119 -57 215h-4q-29 -59 -133 -215zM897 1548l279 213h178l-303 -213h-154z" />
<glyph unicode="&#xc2;" d="M-43 0l920 1454h159l408 -1454h-162l-102 395h-801l-242 -395h-180zM461 532h684l-146 564q-41 119 -57 215h-4q-29 -59 -133 -215zM635 1548l287 213h180l211 -213h-156l-149 150l-203 -150h-170z" />
<glyph unicode="&#xc3;" d="M-43 0l920 1454h159l408 -1454h-162l-102 395h-801l-242 -395h-180zM461 532h684l-146 564q-41 119 -57 215h-4q-29 -59 -133 -215zM592 1567q28 99 89.5 150.5t149.5 51.5q46 0 83.5 -12.5t63.5 -30t50 -35t55.5 -30t67.5 -12.5q55 0 87 24t50 86l103 -18 q-60 -203 -240 -203q-56 0 -102 19t-71.5 41.5t-63 41.5t-80.5 19q-54 0 -88.5 -24.5t-53.5 -86.5z" />
<glyph unicode="&#xc4;" d="M-43 0l920 1454h159l408 -1454h-162l-102 395h-801l-242 -395h-180zM461 532h684l-146 564q-41 119 -57 215h-4q-29 -59 -133 -215zM621 1548l34 203h176l-34 -203h-176zM1151 1548l35 203h176l-35 -203h-176z" />
<glyph unicode="&#xc5;" d="M-43 0l920 1454h159l408 -1454h-162l-102 395h-801l-242 -395h-180zM461 532h684l-146 564q-41 119 -57 215h-4q-29 -59 -133 -215zM780 1694q0 97 68.5 161t169.5 64q96 0 150.5 -49t54.5 -133q0 -98 -69 -162t-171 -64q-95 0 -149 50t-54 133zM883 1694 q0 -44 26.5 -71.5t75.5 -27.5q65 0 100 38.5t35 103.5q0 44 -26.5 71t-75.5 27q-65 0 -100 -37.5t-35 -103.5z" />
<glyph unicode="&#xc6;" horiz-adv-x="2498" d="M-6 0l1362 1454h1143l-23 -137h-938l-90 -504h903l-24 -135h-904l-94 -541h952l-24 -137h-1114l61 350h-706l-322 -350h-182zM625 487h604l143 816z" />
<glyph unicode="&#xc7;" horiz-adv-x="1656" d="M123 612q0 92 14.5 181.5t47 177.5t80.5 165.5t118 144t156 114.5t199 75t243 27q106 0 197.5 -17.5t173 -57t141.5 -100t99 -150.5t48 -203l-167 -15q-9 106 -50.5 185t-109 126.5t-152.5 70t-188 22.5q-146 0 -264 -44.5t-194 -117.5t-126.5 -170t-72 -197t-21.5 -204 q0 -103 20.5 -186t59 -139.5t87 -97t110 -62.5t123 -32t130.5 -10q224 0 360.5 98t203.5 287l159 -26q-172 -500 -725 -500h-14l-59 -70q38 27 102 27q72 0 115 -37t43 -100q0 -83 -68.5 -134t-167.5 -51q-92 0 -148.5 33.5t-70.5 93.5l107 17q18 -64 110 -64 q54 0 87.5 25.5t33.5 75.5q0 75 -100 75q-57 0 -97 -32l-67 20l94 125q-102 9 -189.5 36t-164 78t-130.5 124t-85 178t-31 235z" />
<glyph unicode="&#xc8;" horiz-adv-x="1482" d="M139 0l256 1454h1090l-25 -137h-928l-88 -504h893l-24 -135h-893l-94 -541h940l-23 -137h-1104zM604 1761h178l279 -213h-154z" />
<glyph unicode="&#xc9;" horiz-adv-x="1482" d="M139 0l256 1454h1090l-25 -137h-928l-88 -504h893l-24 -135h-893l-94 -541h940l-23 -137h-1104zM901 1548l279 213h178l-303 -213h-154z" />
<glyph unicode="&#xca;" horiz-adv-x="1482" d="M139 0l256 1454h1090l-25 -137h-928l-88 -504h893l-24 -135h-893l-94 -541h940l-23 -137h-1104zM639 1548l287 213h180l211 -213h-156l-149 150l-203 -150h-170z" />
<glyph unicode="&#xcb;" horiz-adv-x="1482" d="M139 0l256 1454h1090l-25 -137h-928l-88 -504h893l-24 -135h-893l-94 -541h940l-23 -137h-1104zM625 1548l34 203h177l-35 -203h-176zM1155 1548l35 203h176l-35 -203h-176z" />
<glyph unicode="&#xcc;" horiz-adv-x="620" d="M139 0l256 1454h162l-256 -1454h-162zM209 1761h162l188 -213h-143z" />
<glyph unicode="&#xcd;" horiz-adv-x="620" d="M139 0l256 1454h162l-256 -1454h-162zM424 1548l188 213h162l-207 -213h-143z" />
<glyph unicode="&#xce;" horiz-adv-x="620" d="M139 0l256 1454h162l-256 -1454h-162zM240 1548l202 213h179l129 -213h-142l-80 148l-133 -148h-155z" />
<glyph unicode="&#xcf;" horiz-adv-x="620" d="M139 0l256 1454h162l-256 -1454h-162zM250 1548l35 203h176l-35 -203h-176zM563 1548l35 203h176l-35 -203h-176z" />
<glyph unicode="&#xd0;" horiz-adv-x="1708" d="M33 694l22 125h226l112 635h563q118 0 219 -20.5t190.5 -68t153 -119.5t100 -180.5t36.5 -246.5q0 -129 -31 -246t-100.5 -222.5t-171.5 -182.5t-254.5 -122.5t-339.5 -45.5h-621l123 694h-227zM324 137h436q118 0 218 21t173 57t130.5 87.5t95 109.5t62 125.5 t34.5 133.5t10 136q0 116 -29.5 206t-78 146.5t-119 92.5t-145.5 50.5t-163 14.5h-418l-88 -498h461l-20 -125h-461z" />
<glyph unicode="&#xd1;" horiz-adv-x="1746" d="M139 0l256 1454h191l647 -1126q51 -94 78 -156h4q8 68 26 176l197 1106h145l-256 -1454h-180l-655 1137q-50 96 -76 155h-6q-4 -53 -25 -170l-198 -1122h-148zM676 1567q28 99 89.5 150.5t149.5 51.5q46 0 83.5 -12.5t63.5 -30t50 -35t55.5 -30t67.5 -12.5q55 0 87 24 t50 86l103 -18q-60 -203 -240 -203q-56 0 -102 19t-71.5 41.5t-63 41.5t-80.5 19q-54 0 -88.5 -24.5t-53.5 -86.5z" />
<glyph unicode="&#xd2;" horiz-adv-x="1751" d="M123 621q0 127 29.5 248.5t96 236.5t163.5 201t243 138t324 52q116 0 218.5 -21t196.5 -70t162 -123.5t108 -189.5t40 -259q0 -127 -29.5 -249t-96 -236.5t-163.5 -201t-243 -138.5t-324 -52q-116 0 -219 21t-197 70.5t-161.5 124t-107.5 189.5t-40 259zM295 629 q0 -122 32.5 -216.5t85.5 -153.5t127 -97t150.5 -53t163.5 -15q147 0 265 45t193.5 118t126.5 170.5t72 196t21 201.5q0 122 -32.5 216.5t-85.5 153.5t-127 97t-150.5 53t-163.5 15q-147 0 -265 -45.5t-193.5 -118.5t-126.5 -170.5t-72 -196t-21 -200.5zM655 1761h179 l278 -213h-154z" />
<glyph unicode="&#xd3;" horiz-adv-x="1751" d="M123 621q0 127 29.5 248.5t96 236.5t163.5 201t243 138t324 52q116 0 218.5 -21t196.5 -70t162 -123.5t108 -189.5t40 -259q0 -127 -29.5 -249t-96 -236.5t-163.5 -201t-243 -138.5t-324 -52q-116 0 -219 21t-197 70.5t-161.5 124t-107.5 189.5t-40 259zM295 629 q0 -122 32.5 -216.5t85.5 -153.5t127 -97t150.5 -53t163.5 -15q147 0 265 45t193.5 118t126.5 170.5t72 196t21 201.5q0 122 -32.5 216.5t-85.5 153.5t-127 97t-150.5 53t-163.5 15q-147 0 -265 -45.5t-193.5 -118.5t-126.5 -170.5t-72 -196t-21 -200.5zM952 1548l279 213 h178l-303 -213h-154z" />
<glyph unicode="&#xd4;" horiz-adv-x="1751" d="M123 621q0 127 29.5 248.5t96 236.5t163.5 201t243 138t324 52q116 0 218.5 -21t196.5 -70t162 -123.5t108 -189.5t40 -259q0 -127 -29.5 -249t-96 -236.5t-163.5 -201t-243 -138.5t-324 -52q-116 0 -219 21t-197 70.5t-161.5 124t-107.5 189.5t-40 259zM295 629 q0 -122 32.5 -216.5t85.5 -153.5t127 -97t150.5 -53t163.5 -15q147 0 265 45t193.5 118t126.5 170.5t72 196t21 201.5q0 122 -32.5 216.5t-85.5 153.5t-127 97t-150.5 53t-163.5 15q-147 0 -265 -45.5t-193.5 -118.5t-126.5 -170.5t-72 -196t-21 -200.5zM690 1548l287 213 h180l211 -213h-156l-149 150l-203 -150h-170z" />
<glyph unicode="&#xd5;" horiz-adv-x="1751" d="M123 621q0 127 29.5 248.5t96 236.5t163.5 201t243 138t324 52q116 0 218.5 -21t196.5 -70t162 -123.5t108 -189.5t40 -259q0 -127 -29.5 -249t-96 -236.5t-163.5 -201t-243 -138.5t-324 -52q-116 0 -219 21t-197 70.5t-161.5 124t-107.5 189.5t-40 259zM295 629 q0 -122 32.5 -216.5t85.5 -153.5t127 -97t150.5 -53t163.5 -15q147 0 265 45t193.5 118t126.5 170.5t72 196t21 201.5q0 122 -32.5 216.5t-85.5 153.5t-127 97t-150.5 53t-163.5 15q-147 0 -265 -45.5t-193.5 -118.5t-126.5 -170.5t-72 -196t-21 -200.5zM647 1567 q28 99 90 150.5t150 51.5q46 0 83.5 -12.5t63 -30t49.5 -35t55.5 -30t67.5 -12.5q55 0 87 24t50 86l103 -18q-60 -203 -240 -203q-56 0 -102 19t-71.5 41.5t-63 41.5t-80.5 19q-54 0 -88 -24.5t-53 -86.5z" />
<glyph unicode="&#xd6;" horiz-adv-x="1751" d="M123 621q0 127 29.5 248.5t96 236.5t163.5 201t243 138t324 52q116 0 218.5 -21t196.5 -70t162 -123.5t108 -189.5t40 -259q0 -127 -29.5 -249t-96 -236.5t-163.5 -201t-243 -138.5t-324 -52q-116 0 -219 21t-197 70.5t-161.5 124t-107.5 189.5t-40 259zM295 629 q0 -122 32.5 -216.5t85.5 -153.5t127 -97t150.5 -53t163.5 -15q147 0 265 45t193.5 118t126.5 170.5t72 196t21 201.5q0 122 -32.5 216.5t-85.5 153.5t-127 97t-150.5 53t-163.5 15q-147 0 -265 -45.5t-193.5 -118.5t-126.5 -170.5t-72 -196t-21 -200.5zM676 1548l35 203 h176l-35 -203h-176zM1206 1548l35 203h176l-35 -203h-176z" />
<glyph unicode="&#xd7;" horiz-adv-x="1564" d="M221 279l488 391l-351 391l115 96l352 -393l490 393l82 -96l-488 -391l351 -391l-113 -97l-354 396l-492 -396z" />
<glyph unicode="&#xd8;" horiz-adv-x="1751" d="M78 51l168 152q-123 162 -123 418q0 127 29.5 248.5t96 236.5t163.5 201t243 138t324 52q333 0 524 -166l164 148l80 -76l-168 -152q125 -160 125 -417q0 -127 -29.5 -249t-96 -236.5t-163.5 -201t-243 -138.5t-324 -52q-335 0 -526 166l-166 -150zM295 629 q0 -190 78 -314l1011 910q-147 135 -411 135q-147 0 -265 -45.5t-193.5 -118.5t-126.5 -170.5t-72 -196t-21 -200.5zM442 229q143 -135 412 -135q147 0 265 45t193.5 118t126.5 170.5t72 196t21 201.5q0 192 -78 316z" />
<glyph unicode="&#xd9;" horiz-adv-x="1671" d="M205 332q-25 126 4 297l145 825h164l-151 -844q-22 -136 -3.5 -232.5t79.5 -158t150 -90.5t208 -29q91 0 164.5 16.5t127.5 48.5t94.5 74t68.5 99t46 116t31 132l156 868h162l-162 -905q-19 -105 -50.5 -190t-87 -161.5t-131.5 -127.5t-185.5 -81t-246.5 -30 q-161 0 -281.5 40.5t-198.5 123.5t-103 209zM647 1761h178l279 -213h-154z" />
<glyph unicode="&#xda;" horiz-adv-x="1671" d="M205 332q-25 126 4 297l145 825h164l-151 -844q-22 -136 -3.5 -232.5t79.5 -158t150 -90.5t208 -29q91 0 164.5 16.5t127.5 48.5t94.5 74t68.5 99t46 116t31 132l156 868h162l-162 -905q-19 -105 -50.5 -190t-87 -161.5t-131.5 -127.5t-185.5 -81t-246.5 -30 q-161 0 -281.5 40.5t-198.5 123.5t-103 209zM944 1548l279 213h178l-303 -213h-154z" />
<glyph unicode="&#xdb;" horiz-adv-x="1671" d="M205 332q-25 126 4 297l145 825h164l-151 -844q-22 -136 -3.5 -232.5t79.5 -158t150 -90.5t208 -29q91 0 164.5 16.5t127.5 48.5t94.5 74t68.5 99t46 116t31 132l156 868h162l-162 -905q-19 -105 -50.5 -190t-87 -161.5t-131.5 -127.5t-185.5 -81t-246.5 -30 q-161 0 -281.5 40.5t-198.5 123.5t-103 209zM682 1548l287 213h180l211 -213h-156l-149 150l-203 -150h-170z" />
<glyph unicode="&#xdc;" horiz-adv-x="1671" d="M205 332q-25 126 4 297l145 825h164l-151 -844q-22 -136 -3.5 -232.5t79.5 -158t150 -90.5t208 -29q91 0 164.5 16.5t127.5 48.5t94.5 74t68.5 99t46 116t31 132l156 868h162l-162 -905q-19 -105 -50.5 -190t-87 -161.5t-131.5 -127.5t-185.5 -81t-246.5 -30 q-161 0 -281.5 40.5t-198.5 123.5t-103 209zM668 1548l34 203h177l-35 -203h-176zM1198 1548l35 203h176l-35 -203h-176z" />
<glyph unicode="&#xdd;" horiz-adv-x="1396" d="M170 1454h182l330 -657q31 -63 39 -97h4q18 37 72 97l563 657h199l-773 -891l-98 -563h-164l99 563zM805 1548l278 213h179l-304 -213h-153z" />
<glyph unicode="&#xde;" horiz-adv-x="1368" d="M137 0l256 1454h162l-47 -270h389q97 0 178 -20.5t146 -63.5t102 -116.5t37 -172.5q0 -224 -153.5 -344.5t-434.5 -120.5h-412l-61 -346h-162zM385 483h371q225 0 328.5 80t103.5 244q0 123 -83 181.5t-228 58.5h-394z" />
<glyph unicode="&#xdf;" horiz-adv-x="1433" d="M113 0l182 1028q40 235 175 358t400 123q225 0 349 -86t124 -264q0 -142 -104.5 -245t-288.5 -113q170 -15 264.5 -106.5t94.5 -254.5q0 -210 -149 -334t-439 -124q-184 0 -285 34l21 121q95 -35 268 -35q430 0 430 338q0 150 -105 223.5t-296 73.5h-181l21 121h174 q416 0 416 301q0 119 -83 176.5t-231 57.5q-201 0 -299 -89.5t-131 -285.5l-180 -1018h-147z" />
<glyph unicode="&#xe0;" horiz-adv-x="1343" d="M74 264q0 132 96 215q118 103 381 117l489 25l7 38q24 142 -58.5 209.5t-259.5 67.5q-341 0 -389 -238h-154q31 172 171.5 264.5t373.5 92.5q256 0 375.5 -106.5t79.5 -336.5l-43 -252q-37 -207 -37 -360h-152q3 108 23 215q-160 -246 -498 -246q-189 0 -297 74t-108 221 zM231 272q0 -67 38 -109t96.5 -58.5t138.5 -16.5q215 0 347.5 101.5t158.5 256.5l14 70l-436 -22q-101 -7 -172.5 -26t-111 -49.5t-56.5 -66t-17 -80.5zM367 1487h186l307 -299h-147z" />
<glyph unicode="&#xe1;" horiz-adv-x="1343" d="M74 264q0 132 96 215q118 103 381 117l489 25l7 38q24 142 -58.5 209.5t-259.5 67.5q-341 0 -389 -238h-154q31 172 171.5 264.5t373.5 92.5q256 0 375.5 -106.5t79.5 -336.5l-43 -252q-37 -207 -37 -360h-152q3 108 23 215q-160 -246 -498 -246q-189 0 -297 74t-108 221 zM231 272q0 -67 38 -109t96.5 -58.5t138.5 -16.5q215 0 347.5 101.5t158.5 256.5l14 70l-436 -22q-101 -7 -172.5 -26t-111 -49.5t-56.5 -66t-17 -80.5zM698 1188l308 299h186l-346 -299h-148z" />
<glyph unicode="&#xe2;" horiz-adv-x="1343" d="M74 264q0 132 96 215q118 103 381 117l489 25l7 38q24 142 -58.5 209.5t-259.5 67.5q-341 0 -389 -238h-154q31 172 171.5 264.5t373.5 92.5q256 0 375.5 -106.5t79.5 -336.5l-43 -252q-37 -207 -37 -360h-152q3 108 23 215q-160 -246 -498 -246q-189 0 -297 74t-108 221 zM231 272q0 -67 38 -109t96.5 -58.5t138.5 -16.5q215 0 347.5 101.5t158.5 256.5l14 70l-436 -22q-101 -7 -172.5 -26t-111 -49.5t-56.5 -66t-17 -80.5zM414 1188l329 299h160l223 -299h-139l-170 227l-252 -227h-151z" />
<glyph unicode="&#xe3;" horiz-adv-x="1343" d="M74 264q0 132 96 215q118 103 381 117l489 25l7 38q24 142 -58.5 209.5t-259.5 67.5q-341 0 -389 -238h-154q31 172 171.5 264.5t373.5 92.5q256 0 375.5 -106.5t79.5 -336.5l-43 -252q-37 -207 -37 -360h-152q3 108 23 215q-160 -246 -498 -246q-189 0 -297 74t-108 221 zM231 272q0 -67 38 -109t96.5 -58.5t138.5 -16.5q215 0 347.5 101.5t158.5 256.5l14 70l-436 -22q-101 -7 -172.5 -26t-111 -49.5t-56.5 -66t-17 -80.5zM358 1235q31 109 97 168t157 59q51 0 93.5 -15t71.5 -37t56 -43.5t60.5 -36.5t71.5 -15q116 0 153 129l101 -17 q-31 -108 -97 -166.5t-157 -58.5q-51 0 -94 15t-72.5 36.5t-56.5 43t-60 36.5t-70 15q-116 0 -151 -129z" />
<glyph unicode="&#xe4;" horiz-adv-x="1343" d="M74 264q0 132 96 215q118 103 381 117l489 25l7 38q24 142 -58.5 209.5t-259.5 67.5q-341 0 -389 -238h-154q31 172 171.5 264.5t373.5 92.5q256 0 375.5 -106.5t79.5 -336.5l-43 -252q-37 -207 -37 -360h-152q3 108 23 215q-160 -246 -498 -246q-189 0 -297 74t-108 221 zM231 272q0 -67 38 -109t96.5 -58.5t138.5 -16.5q215 0 347.5 101.5t158.5 256.5l14 70l-436 -22q-101 -7 -172.5 -26t-111 -49.5t-56.5 -66t-17 -80.5zM432 1217l39 221h176l-39 -221h-176zM944 1217l39 221h174l-39 -221h-174z" />
<glyph unicode="&#xe5;" horiz-adv-x="1343" d="M74 264q0 132 96 215q118 103 381 117l489 25l7 38q24 142 -58.5 209.5t-259.5 67.5q-341 0 -389 -238h-154q31 172 171.5 264.5t373.5 92.5q256 0 375.5 -106.5t79.5 -336.5l-43 -252q-37 -207 -37 -360h-152q3 108 23 215q-160 -246 -498 -246q-189 0 -297 74t-108 221 zM231 272q0 -67 38 -109t96.5 -58.5t138.5 -16.5q215 0 347.5 101.5t158.5 256.5l14 70l-436 -22q-101 -7 -172.5 -26t-111 -49.5t-56.5 -66t-17 -80.5zM516 1329q0 98 75 160.5t197 62.5q113 0 178.5 -50.5t65.5 -133.5q0 -99 -76 -161t-198 -62q-113 0 -177.5 50 t-64.5 134zM616 1329q0 -45 38 -73.5t104 -28.5q84 0 128 38.5t44 102.5q0 46 -37.5 74t-104.5 28q-82 0 -127 -39t-45 -102z" />
<glyph unicode="&#xe6;" horiz-adv-x="2150" d="M70 240q0 142 98 221q115 93 395 108l445 21l10 63q23 144 -51.5 212.5t-253.5 68.5q-342 0 -381 -244h-152q31 175 170.5 270t370.5 95q345 0 416 -201q166 201 456 201q215 0 340 -104t125 -298q0 -73 -24 -178h-893l-4 -16q-13 -184 80.5 -273.5t267.5 -89.5 q262 0 385 232l119 -56q-157 -303 -516 -303q-107 0 -196.5 28t-160 92t-102.5 159q-79 -135 -224 -207t-333 -72q-177 0 -282 71t-105 200zM225 252q0 -83 71.5 -123.5t192.5 -40.5q194 0 330 92.5t162 245.5l10 59l-426 -18q-186 -10 -263 -64t-77 -151zM1157 594h748 q8 31 8 74q0 134 -91.5 204t-238.5 70q-168 0 -279.5 -95.5t-146.5 -252.5z" />
<glyph unicode="&#xe7;" horiz-adv-x="1292" d="M90 442q0 86 19 168t65 164t115 143.5t178.5 99.5t245.5 38q95 0 177.5 -19.5t155.5 -61.5t120 -117.5t57 -178.5l-152 -19q-9 78 -44 133t-87.5 83.5t-107 40.5t-117.5 12q-109 0 -194 -32t-135.5 -81t-83 -115.5t-44.5 -128t-12 -125.5q0 -97 31.5 -168t87 -109 t120 -55.5t142.5 -17.5q163 0 254.5 69.5t138.5 194.5l145 -22q-124 -364 -532 -369l-70 -80q37 27 103 27q72 0 114.5 -37t42.5 -100q0 -83 -68 -134t-167 -51q-92 0 -148.5 33.5t-70.5 93.5l106 17q18 -64 111 -64q54 0 87.5 25.5t33.5 75.5q0 75 -101 75q-56 0 -96 -32 l-68 20l101 135q-73 6 -137 24.5t-123 54.5t-101 87.5t-67 129t-25 173.5z" />
<glyph unicode="&#xe8;" horiz-adv-x="1323" d="M90 440q0 90 21 175t69 166t118.5 141t177 96.5t237.5 36.5q109 0 200 -24.5t162.5 -73.5t111.5 -131t40 -189q0 -82 -25 -162h-964v-18q0 -84 23.5 -149t61 -104t91.5 -64t108 -34.5t117 -9.5q156 0 248 57.5t151 172.5l121 -56q-151 -301 -520 -301q-75 0 -145 11.5 t-145.5 44t-131 83t-91.5 136t-36 196.5zM252 592h823q8 31 8 70q0 62 -22 111t-57.5 80t-85 51.5t-100.5 29t-107 8.5q-195 0 -309.5 -96.5t-149.5 -253.5zM377 1487h186l307 -299h-147z" />
<glyph unicode="&#xe9;" horiz-adv-x="1323" d="M90 440q0 90 21 175t69 166t118.5 141t177 96.5t237.5 36.5q109 0 200 -24.5t162.5 -73.5t111.5 -131t40 -189q0 -82 -25 -162h-964v-18q0 -84 23.5 -149t61 -104t91.5 -64t108 -34.5t117 -9.5q156 0 248 57.5t151 172.5l121 -56q-151 -301 -520 -301q-75 0 -145 11.5 t-145.5 44t-131 83t-91.5 136t-36 196.5zM252 592h823q8 31 8 70q0 62 -22 111t-57.5 80t-85 51.5t-100.5 29t-107 8.5q-195 0 -309.5 -96.5t-149.5 -253.5zM709 1188l307 299h186l-346 -299h-147z" />
<glyph unicode="&#xea;" horiz-adv-x="1323" d="M90 440q0 90 21 175t69 166t118.5 141t177 96.5t237.5 36.5q109 0 200 -24.5t162.5 -73.5t111.5 -131t40 -189q0 -82 -25 -162h-964v-18q0 -84 23.5 -149t61 -104t91.5 -64t108 -34.5t117 -9.5q156 0 248 57.5t151 172.5l121 -56q-151 -301 -520 -301q-75 0 -145 11.5 t-145.5 44t-131 83t-91.5 136t-36 196.5zM252 592h823q8 31 8 70q0 62 -22 111t-57.5 80t-85 51.5t-100.5 29t-107 8.5q-195 0 -309.5 -96.5t-149.5 -253.5zM424 1188l330 299h159l224 -299h-140l-170 227l-252 -227h-151z" />
<glyph unicode="&#xeb;" horiz-adv-x="1323" d="M90 440q0 90 21 175t69 166t118.5 141t177 96.5t237.5 36.5q109 0 200 -24.5t162.5 -73.5t111.5 -131t40 -189q0 -82 -25 -162h-964v-18q0 -84 23.5 -149t61 -104t91.5 -64t108 -34.5t117 -9.5q156 0 248 57.5t151 172.5l121 -56q-151 -301 -520 -301q-75 0 -145 11.5 t-145.5 44t-131 83t-91.5 136t-36 196.5zM252 592h823q8 31 8 70q0 62 -22 111t-57.5 80t-85 51.5t-100.5 29t-107 8.5q-195 0 -309.5 -96.5t-149.5 -253.5zM442 1217l39 221h176l-39 -221h-176zM954 1217l39 221h174l-39 -221h-174z" />
<glyph unicode="&#xec;" horiz-adv-x="563" d="M94 1487h160l207 -299h-139zM119 0l180 1024h145l-180 -1024h-145z" />
<glyph unicode="&#xed;" horiz-adv-x="563" d="M119 0l180 1024h145l-180 -1024h-145zM334 1188l207 299h159l-227 -299h-139z" />
<glyph unicode="&#xee;" horiz-adv-x="563" d="M119 0l180 1024h145l-180 -1024h-145zM164 1188l215 301h151l109 -301h-123l-70 227l-149 -227h-133z" />
<glyph unicode="&#xef;" horiz-adv-x="563" d="M119 0l180 1024h145l-180 -1024h-145zM168 1217l39 223h176l-39 -223h-176zM467 1217l39 223h176l-39 -223h-176z" />
<glyph unicode="&#xf0;" horiz-adv-x="1376" d="M94 440q0 87 19.5 170t65 162.5t113.5 138.5t173 95t235 36q152 0 261.5 -52t160.5 -161h4q-6 226 -163 383l-390 -96l-16 82l330 82q-111 83 -264 127l98 96q192 -65 317 -184l236 59l16 -84l-186 -47q172 -208 172 -530q0 -113 -22 -218t-72 -202.5t-123.5 -169.5 t-185.5 -115t-250 -43q-83 0 -156.5 14t-143 48t-119.5 86.5t-80 135t-30 187.5zM252 455q0 -82 22 -145.5t57.5 -102.5t87 -64.5t104 -35t114.5 -9.5q102 0 185.5 31.5t136 81t88.5 114.5t50.5 129t14.5 128q0 168 -105.5 254t-291.5 86q-106 0 -189 -29.5t-133 -76.5 t-83 -110.5t-45.5 -124.5t-12.5 -126z" />
<glyph unicode="&#xf1;" horiz-adv-x="1423" d="M119 0l180 1024h141l-45 -244q27 57 66 104.5t94 87t131 61.5t166 22q58 0 111 -9.5t109.5 -36.5t97.5 -70t67.5 -116.5t26.5 -169.5q0 -78 -17 -164l-86 -489h-145l90 500q12 71 12 129q0 86 -27 147t-74.5 92t-99.5 44.5t-114 13.5q-87 0 -158.5 -26t-120 -68.5 t-85.5 -102t-58 -120t-33 -130.5l-84 -479h-145zM481 1235q31 109 97 168t157 59q51 0 93.5 -15t71.5 -37t55.5 -43.5t60 -36.5t71.5 -15q117 0 154 129l100 -17q-31 -108 -97 -166.5t-157 -58.5q-51 0 -94 15t-72.5 36.5t-56 43t-59.5 36.5t-70 15q-116 0 -151 -129z" />
<glyph unicode="&#xf2;" horiz-adv-x="1351" d="M90 442q0 89 21 174t68.5 165.5t118 140.5t177.5 96.5t238 36.5q85 0 161 -14t148.5 -49t124.5 -87.5t83.5 -135.5t31.5 -187q0 -89 -21 -174t-68.5 -165.5t-118 -140.5t-177.5 -96.5t-238 -36.5q-85 0 -161 14t-148.5 49t-124.5 87.5t-83.5 135.5t-31.5 187zM246 451 q0 -98 34 -169.5t93 -110.5t127 -57t147 -18q101 0 182 30t131.5 78.5t84.5 112.5t47.5 127.5t13.5 128.5q0 98 -34 169.5t-93 110.5t-127 57t-147 18q-101 0 -182 -30t-131.5 -78.5t-84.5 -112.5t-47.5 -127.5t-13.5 -128.5zM369 1487h186l307 -299h-147z" />
<glyph unicode="&#xf3;" horiz-adv-x="1351" d="M90 442q0 89 21 174t68.5 165.5t118 140.5t177.5 96.5t238 36.5q85 0 161 -14t148.5 -49t124.5 -87.5t83.5 -135.5t31.5 -187q0 -89 -21 -174t-68.5 -165.5t-118 -140.5t-177.5 -96.5t-238 -36.5q-85 0 -161 14t-148.5 49t-124.5 87.5t-83.5 135.5t-31.5 187zM246 451 q0 -98 34 -169.5t93 -110.5t127 -57t147 -18q101 0 182 30t131.5 78.5t84.5 112.5t47.5 127.5t13.5 128.5q0 98 -34 169.5t-93 110.5t-127 57t-147 18q-101 0 -182 -30t-131.5 -78.5t-84.5 -112.5t-47.5 -127.5t-13.5 -128.5zM700 1188l308 299h186l-346 -299h-148z" />
<glyph unicode="&#xf4;" horiz-adv-x="1351" d="M90 442q0 89 21 174t68.5 165.5t118 140.5t177.5 96.5t238 36.5q85 0 161 -14t148.5 -49t124.5 -87.5t83.5 -135.5t31.5 -187q0 -89 -21 -174t-68.5 -165.5t-118 -140.5t-177.5 -96.5t-238 -36.5q-85 0 -161 14t-148.5 49t-124.5 87.5t-83.5 135.5t-31.5 187zM246 451 q0 -98 34 -169.5t93 -110.5t127 -57t147 -18q101 0 182 30t131.5 78.5t84.5 112.5t47.5 127.5t13.5 128.5q0 98 -34 169.5t-93 110.5t-127 57t-147 18q-101 0 -182 -30t-131.5 -78.5t-84.5 -112.5t-47.5 -127.5t-13.5 -128.5zM416 1188l329 299h160l223 -299h-139l-170 227 l-252 -227h-151z" />
<glyph unicode="&#xf5;" horiz-adv-x="1351" d="M90 442q0 89 21 174t68.5 165.5t118 140.5t177.5 96.5t238 36.5q85 0 161 -14t148.5 -49t124.5 -87.5t83.5 -135.5t31.5 -187q0 -89 -21 -174t-68.5 -165.5t-118 -140.5t-177.5 -96.5t-238 -36.5q-85 0 -161 14t-148.5 49t-124.5 87.5t-83.5 135.5t-31.5 187zM246 451 q0 -98 34 -169.5t93 -110.5t127 -57t147 -18q101 0 182 30t131.5 78.5t84.5 112.5t47.5 127.5t13.5 128.5q0 98 -34 169.5t-93 110.5t-127 57t-147 18q-101 0 -182 -30t-131.5 -78.5t-84.5 -112.5t-47.5 -127.5t-13.5 -128.5zM360 1235q31 109 97 168t157 59q51 0 93.5 -15 t71.5 -37t56 -43.5t60.5 -36.5t71.5 -15q116 0 153 129l101 -17q-31 -108 -97 -166.5t-157 -58.5q-51 0 -94 15t-72.5 36.5t-56.5 43t-60 36.5t-70 15q-116 0 -151 -129z" />
<glyph unicode="&#xf6;" horiz-adv-x="1351" d="M90 442q0 89 21 174t68.5 165.5t118 140.5t177.5 96.5t238 36.5q85 0 161 -14t148.5 -49t124.5 -87.5t83.5 -135.5t31.5 -187q0 -89 -21 -174t-68.5 -165.5t-118 -140.5t-177.5 -96.5t-238 -36.5q-85 0 -161 14t-148.5 49t-124.5 87.5t-83.5 135.5t-31.5 187zM246 451 q0 -98 34 -169.5t93 -110.5t127 -57t147 -18q101 0 182 30t131.5 78.5t84.5 112.5t47.5 127.5t13.5 128.5q0 98 -34 169.5t-93 110.5t-127 57t-147 18q-101 0 -182 -30t-131.5 -78.5t-84.5 -112.5t-47.5 -127.5t-13.5 -128.5zM434 1217l39 221h176l-39 -221h-176zM946 1217 l39 221h174l-39 -221h-174z" />
<glyph unicode="&#xf7;" horiz-adv-x="1271" d="M133 604l21 129h1042l-22 -129h-1041zM500 289q0 42 27 69t69 27t69 -27t27 -69q0 -43 -27.5 -71t-68.5 -28t-68.5 28t-27.5 71zM618 1051q0 42 28 69t71 27q42 0 69 -27t27 -69q0 -43 -27.5 -70t-68.5 -27q-43 0 -71 27t-28 70z" />
<glyph unicode="&#xf8;" horiz-adv-x="1351" d="M43 29l139 118q-92 116 -92 295q0 89 21 174t68.5 165.5t118 140.5t177.5 96.5t238 36.5q255 0 399 -119l143 121l64 -62l-145 -123q88 -115 88 -290q0 -89 -21 -174t-68.5 -165.5t-118 -140.5t-177.5 -96.5t-238 -36.5q-251 0 -393 115l-140 -119zM246 451 q0 -123 53 -205l698 592q-104 90 -292 90q-101 0 -182 -30t-131.5 -78.5t-84.5 -112.5t-47.5 -127.5t-13.5 -128.5zM360 180q105 -84 287 -84q101 0 182 30t131.5 78.5t84.5 112.5t47.5 127.5t13.5 128.5q0 118 -49 199z" />
<glyph unicode="&#xf9;" horiz-adv-x="1404" d="M152 322q0 55 22 213l86 489h146l-89 -500q-18 -124 -18 -172q0 -72 24.5 -123.5t67.5 -79.5t92.5 -40.5t108.5 -12.5q382 0 465 449l84 479h145l-180 -1024h-139l43 244q-36 -78 -91.5 -136.5t-151.5 -98.5t-218 -40q-56 0 -107.5 8.5t-106 33t-94 62.5t-64.5 102 t-25 147zM401 1487h187l307 -299h-147z" />
<glyph unicode="&#xfa;" horiz-adv-x="1404" d="M152 322q0 55 22 213l86 489h146l-89 -500q-18 -124 -18 -172q0 -72 24.5 -123.5t67.5 -79.5t92.5 -40.5t108.5 -12.5q382 0 465 449l84 479h145l-180 -1024h-139l43 244q-36 -78 -91.5 -136.5t-151.5 -98.5t-218 -40q-56 0 -107.5 8.5t-106 33t-94 62.5t-64.5 102 t-25 147zM733 1188l307 299h187l-346 -299h-148z" />
<glyph unicode="&#xfb;" horiz-adv-x="1404" d="M152 322q0 55 22 213l86 489h146l-89 -500q-18 -124 -18 -172q0 -72 24.5 -123.5t67.5 -79.5t92.5 -40.5t108.5 -12.5q382 0 465 449l84 479h145l-180 -1024h-139l43 244q-36 -78 -91.5 -136.5t-151.5 -98.5t-218 -40q-56 0 -107.5 8.5t-106 33t-94 62.5t-64.5 102 t-25 147zM449 1188l329 299h160l223 -299h-139l-170 227l-252 -227h-151z" />
<glyph unicode="&#xfc;" horiz-adv-x="1404" d="M152 322q0 55 22 213l86 489h146l-89 -500q-18 -124 -18 -172q0 -72 24.5 -123.5t67.5 -79.5t92.5 -40.5t108.5 -12.5q382 0 465 449l84 479h145l-180 -1024h-139l43 244q-36 -78 -91.5 -136.5t-151.5 -98.5t-218 -40q-56 0 -107.5 8.5t-106 33t-94 62.5t-64.5 102 t-25 147zM467 1217l39 221h176l-39 -221h-176zM979 1217l39 221h174l-39 -221h-174z" />
<glyph unicode="&#xfd;" horiz-adv-x="1165" d="M-76 -393l23 131q58 -23 133 -23q94 0 167 48.5t140 162.5l43 78l-324 1020h160l232 -760q16 -62 26 -125h4q21 49 68 125l477 760h166l-723 -1141q-60 -95 -113.5 -155.5t-108 -91.5t-104.5 -41.5t-118 -10.5q-77 0 -148 23zM633 1188l307 299h186l-346 -299h-147z" />
<glyph unicode="&#xfe;" horiz-adv-x="1449" d="M57 -399l70 399l262 1485h146l-117 -664q70 103 183.5 168.5t266.5 65.5q69 0 135 -13.5t131.5 -47.5t114.5 -85t79 -131.5t30 -181.5q0 -87 -20.5 -173t-67 -169t-114.5 -145.5t-170 -101t-226 -38.5q-156 0 -275 57t-176 177l-106 -602h-146zM358 510 q-38 -186 62.5 -299t308.5 -113q106 0 190.5 33t136 84.5t85 119.5t46.5 131t13 126q0 80 -23.5 141.5t-59.5 97t-86 58t-95.5 30t-95.5 7.5q-181 0 -308 -96t-157 -244z" />
<glyph unicode="&#xff;" horiz-adv-x="1165" d="M-76 -393l23 131q58 -23 133 -23q94 0 167 48.5t140 162.5l43 78l-324 1020h160l232 -760q16 -62 26 -125h4q21 49 68 125l477 760h166l-723 -1141q-60 -95 -113.5 -155.5t-108 -91.5t-104.5 -41.5t-118 -10.5q-77 0 -148 23zM367 1217l39 221h176l-39 -221h-176z M879 1217l39 221h174l-39 -221h-174z" />
<glyph unicode="&#x152;" horiz-adv-x="2412" d="M121 621q0 124 30 239t100.5 224.5t175 190.5t265.5 130t361 49h1366l-25 -137h-928l-88 -504h893l-24 -135h-893l-94 -541h940l-23 -137h-1303q-123 0 -228.5 17.5t-204 62t-168 113t-111 178t-41.5 250.5zM293 627q0 -490 586 -490h219l207 1180h-252 q-124 0 -229.5 -22.5t-182 -61t-137.5 -93t-100 -114.5t-64.5 -129.5t-36 -135.5t-10.5 -134z" />
<glyph unicode="&#x153;" horiz-adv-x="2326" d="M90 442q0 89 21 174t69 165.5t118 140.5t176.5 96.5t236.5 36.5q80 0 151.5 -14.5t137.5 -45t117.5 -84.5t80.5 -127q71 124 201 197.5t321 73.5q108 0 198.5 -24.5t161.5 -73.5t111.5 -131t40.5 -189q0 -85 -24 -162h-965v-18q0 -84 23.5 -149t61.5 -104t92 -64 t108 -34.5t117 -9.5q154 0 247 57.5t152 172.5l119 -56q-147 -301 -518 -301q-73 0 -141.5 12t-140 40t-128.5 84t-88 135q-73 -124 -199.5 -197.5t-308.5 -73.5q-85 0 -161 14t-148.5 49t-124.5 87.5t-83.5 135.5t-31.5 187zM246 451q0 -98 34 -169.5t93 -110.5t127 -57 t147 -18q100 0 180 30t130.5 78.5t84.5 112.5t48 127.5t14 128.5q0 98 -34 169.5t-92.5 110.5t-126 57t-146.5 18q-100 0 -181 -30t-131.5 -78.5t-84.5 -112.5t-48 -127.5t-14 -128.5zM1257 592h824q8 31 8 70q0 62 -22 111t-58 80t-85 51.5t-100.5 29t-107.5 8.5 q-195 0 -309.5 -96.5t-149.5 -253.5z" />
<glyph unicode="&#x178;" horiz-adv-x="1396" d="M170 1454h182l330 -657q31 -63 39 -97h4q18 37 72 97l563 657h199l-773 -891l-98 -563h-164l99 563zM528 1548l35 203h176l-34 -203h-177zM1059 1548l35 203h176l-35 -203h-176z" />
<glyph unicode="&#x2c6;" horiz-adv-x="1228" d="M70 1188l329 299h160l223 -299h-139l-170 227l-252 -227h-151z" />
<glyph unicode="&#x2dc;" horiz-adv-x="1228" d="M109 1235q31 109 96.5 168t156.5 59q51 0 93.5 -15t71.5 -37t56 -43.5t60.5 -36.5t71.5 -15q116 0 153 129l101 -17q-31 -108 -97 -166.5t-157 -58.5q-51 0 -94 15t-72.5 36.5t-56.5 43t-60 36.5t-70 15q-116 0 -151 -129z" />
<glyph unicode="&#x2000;" horiz-adv-x="959" />
<glyph unicode="&#x2001;" horiz-adv-x="1919" />
<glyph unicode="&#x2002;" horiz-adv-x="959" />
<glyph unicode="&#x2003;" horiz-adv-x="1919" />
<glyph unicode="&#x2004;" horiz-adv-x="639" />
<glyph unicode="&#x2005;" horiz-adv-x="479" />
<glyph unicode="&#x2006;" horiz-adv-x="319" />
<glyph unicode="&#x2007;" horiz-adv-x="319" />
<glyph unicode="&#x2008;" horiz-adv-x="239" />
<glyph unicode="&#x2009;" horiz-adv-x="383" />
<glyph unicode="&#x200a;" horiz-adv-x="106" />
<glyph unicode="&#x2010;" horiz-adv-x="1005" d="M115 502l22 135h774l-24 -135h-772z" />
<glyph unicode="&#x2011;" horiz-adv-x="1005" d="M115 502l22 135h774l-24 -135h-772z" />
<glyph unicode="&#x2012;" horiz-adv-x="1005" d="M115 502l22 135h774l-24 -135h-772z" />
<glyph unicode="&#x2013;" horiz-adv-x="1304" d="M117 512l20 115h1071l-18 -115h-1073z" />
<glyph unicode="&#x2014;" horiz-adv-x="1882" d="M117 512l20 115h1649l-21 -115h-1648z" />
<glyph unicode="&#x2018;" horiz-adv-x="548" d="M250 971l41 227q13 73 36 125.5t55.5 82.5t62.5 46t69 27l27 -78q-125 -33 -150 -178l-2 -17h113l-41 -235h-211z" />
<glyph unicode="&#x2019;" horiz-adv-x="548" d="M256 1024q125 33 150 178l2 17h-113l41 235h211l-41 -227q-13 -73 -36 -125.5t-55.5 -82.5t-62.5 -46t-69 -27z" />
<glyph unicode="&#x201a;" horiz-adv-x="548" d="M41 -195q124 33 149 179l3 16h-113l41 236h211l-41 -228q-13 -73 -36 -125t-55.5 -82.5t-62.5 -46t-69 -26.5z" />
<glyph unicode="&#x201c;" horiz-adv-x="876" d="M250 973l41 227q13 73 36 125.5t55.5 82.5t62.5 46t69 27l27 -78q-125 -33 -150 -178l-2 -17h113l-41 -235h-211zM578 973l40 227q13 73 36.5 125.5t56 82.5t62.5 46t69 27l26 -78q-124 -33 -149 -178l-2 -17h112l-41 -235h-210z" />
<glyph unicode="&#x201d;" horiz-adv-x="876" d="M256 1024q125 33 150 178l2 17h-113l41 235h211l-41 -227q-13 -73 -36 -125.5t-55.5 -82.5t-62.5 -46t-69 -27zM584 1024q124 33 149 178l2 17h-112l41 235h210l-40 -227q-13 -73 -36.5 -125.5t-56 -82.5t-62.5 -46t-69 -27z" />
<glyph unicode="&#x201e;" horiz-adv-x="876" d="M41 -195q124 33 149 179l3 16h-113l41 236h211l-41 -228q-13 -73 -36 -125t-55.5 -82.5t-62.5 -46t-69 -26.5zM369 -195q124 33 149 179l2 16h-112l41 236h210l-41 -228q-13 -73 -36 -125t-55.5 -82.5t-62.5 -46t-69 -26.5z" />
<glyph unicode="&#x2022;" horiz-adv-x="673" d="M207 707q0 74 46.5 119.5t117.5 45.5q73 0 119.5 -45t46.5 -120q0 -71 -46.5 -115.5t-119.5 -44.5q-71 0 -117.5 44.5t-46.5 115.5z" />
<glyph unicode="&#x2026;" horiz-adv-x="1771" d="M78 0l41 221h209l-41 -221h-209zM690 0l41 221h209l-41 -221h-209zM1300 0l41 221h209l-41 -221h-209z" />
<glyph unicode="&#x202f;" horiz-adv-x="383" />
<glyph unicode="&#x2039;" horiz-adv-x="716" d="M82 563l487 426h176l-491 -436l321 -416h-161z" />
<glyph unicode="&#x203a;" horiz-adv-x="718" d="M-10 137l491 436l-321 416h162l331 -426l-487 -426h-176z" />
<glyph unicode="&#x205f;" horiz-adv-x="479" />
<glyph unicode="&#x20ac;" horiz-adv-x="1607" d="M45 637l18 98l17 88h129q21 103 62 194t109.5 173.5t158.5 141.5t215 93.5t272 34.5q459 0 600 -307v-4l-145 -72q-113 248 -463 248q-117 0 -215.5 -28t-168 -75t-123.5 -113t-85.5 -136t-50.5 -150h852l-15 -82l-18 -104h-840v-6q0 -126 30.5 -222t79.5 -153.5t119 -94 t139.5 -50t149.5 -13.5q127 0 226.5 35t163 91t114.5 138l119 -71q-46 -73 -98.5 -128.5t-126 -103t-174 -73t-222.5 -25.5q-111 0 -208.5 20t-186.5 68.5t-152.5 123t-101 189.5t-37.5 261v14h-143z" />
<glyph unicode="&#x2122;" horiz-adv-x="1972" d="M160 1362l18 98h778l-18 -98h-340l-131 -733h-115l131 733h-323zM901 629l148 831h161l156 -606q22 -81 27 -133h4q24 55 73 133l369 606h168l-147 -831h-109l107 600q18 98 28 135h-4q-27 -51 -72 -125l-374 -610h-111l-158 610q-25 107 -28 125h-2q-7 -55 -21 -135 l-106 -600h-109z" />
<glyph unicode="&#x25fc;" horiz-adv-x="1024" d="M0 0v1024h1024v-1024h-1024z" />
</font>
</defs>
</svg>
