<?xml version="1.0" standalone="no"?>
<!DOCTYPE svg PUBLIC "-//W3C//DTD SVG 1.1//EN" "http://www.w3.org/Graphics/SVG/1.1/DTD/svg11.dtd" >
<svg xmlns="http://www.w3.org/2000/svg" xmlns:xlink="http://www.w3.org/1999/xlink" version="1.1">
<metadata></metadata>
<defs>
<font id="gt_americaextended_light" horiz-adv-x="1579" >
<font-face units-per-em="2048" ascent="1638" descent="-410" />
<missing-glyph horiz-adv-x="686" />
<glyph unicode="&#xfb01;" horiz-adv-x="1402" d="M51 903v121h244v137q0 163 88.5 251.5t253.5 88.5q79 0 160 -18v-127q-66 14 -148 14q-109 0 -158 -51.5t-49 -165.5v-129h355v-121h-355v-903h-147v903h-244zM1036 1208v230h170v-230h-170zM1049 0v1024h145v-1024h-145z" />
<glyph unicode="&#xfb02;" horiz-adv-x="1423" d="M51 903v121h244v137q0 163 88.5 251.5t253.5 88.5q79 0 160 -18v-127q-66 14 -148 14q-109 0 -158 -51.5t-49 -165.5v-129h355v-121h-355v-903h-147v903h-244zM1059 0v1485h145v-1485h-145z" />
<glyph horiz-adv-x="0" />
<glyph horiz-adv-x="0" />
<glyph horiz-adv-x="682" />
<glyph unicode="&#xd;" horiz-adv-x="0" />
<glyph unicode=" "  horiz-adv-x="686" />
<glyph unicode="&#x09;" horiz-adv-x="686" />
<glyph unicode="&#xa0;" horiz-adv-x="686" />
<glyph unicode="!" horiz-adv-x="661" d="M231 0v213h199v-213h-199zM236 1485h190l-41 -1098h-109z" />
<glyph unicode="&#x22;" horiz-adv-x="813" d="M168 1454h162l-31 -510h-100zM481 1454h162l-31 -510h-100z" />
<glyph unicode="#" horiz-adv-x="1380" d="M31 428v115h291l65 340h-274v112h295l81 426h136l-82 -426h395l82 426h135l-82 -426h277v-112h-297l-66 -340h293v-115h-313l-82 -428h-135l81 428h-395l-82 -428h-135l82 428h-270zM457 543h395l66 340h-396z" />
<glyph unicode="$" horiz-adv-x="1476" d="M80 412l164 26q66 -312 438 -342v578l-107 12q-223 37 -328.5 133.5t-105.5 263.5t144.5 268.5t396.5 108.5v174h104v-176q241 -11 378 -109t177 -290l-159 -37q-33 146 -128 220.5t-268 86.5v-524l115 -17q244 -40 356.5 -139t112.5 -282q0 -188 -153 -295t-431 -111 v-176h-104v178q-257 15 -409.5 128t-192.5 321zM305 1085q0 -108 80.5 -169.5t263.5 -92.5l33 -4v512q-377 -9 -377 -246zM786 92q420 6 420 275q0 124 -83 188t-283 98l-54 6v-567z" />
<glyph unicode="%" horiz-adv-x="1789" d="M55 1104q0 165 104 264.5t275 99.5q168 0 273.5 -101t105.5 -267q0 -165 -105 -265t-272 -100q-172 0 -276.5 100.5t-104.5 268.5zM180 1104q0 -121 69.5 -189.5t186.5 -68.5q114 0 182 67.5t68 186.5t-68.5 188.5t-183.5 69.5t-184.5 -68.5t-69.5 -185.5zM297 -37 l1038 1505h152l-1041 -1505h-149zM975 338q0 165 104 264.5t275 99.5q168 0 273.5 -101t105.5 -267q0 -165 -105 -265t-272 -100q-172 0 -276.5 100.5t-104.5 268.5zM1100 338q0 -121 69.5 -189.5t186.5 -68.5q114 0 182 67.5t68 186.5t-68.5 188.5t-183.5 69.5 t-184.5 -68.5t-69.5 -185.5z" />
<glyph unicode="&#x26;" horiz-adv-x="1517" d="M59 358q0 130 75 221t237 183l30 16q-111 119 -161 207t-50 184q0 153 103.5 246.5t273.5 93.5q173 0 275 -88.5t102 -236.5q0 -116 -64.5 -213.5t-174.5 -159.5l-91 -51l443 -441q146 185 170 484l139 -17q-9 -165 -63.5 -309t-147.5 -254q63 -55 118.5 -79.5 t121.5 -24.5q58 0 92 10v-133q-49 -14 -113 -14q-167 0 -323 139q-200 -164 -471 -164q-243 0 -382 112t-139 289zM215 369q0 -126 107 -202.5t268 -76.5q211 0 366 125l-467 473l-34 -20q-131 -75 -185.5 -140t-54.5 -159zM344 1176q0 -79 38 -149.5t144 -178.5l82 45 q89 47 138 120t49 167q0 99 -58.5 154t-169.5 55q-107 0 -164.5 -54.5t-58.5 -158.5z" />
<glyph unicode="'" horiz-adv-x="499" d="M168 1454h162l-31 -510h-100z" />
<glyph unicode="(" horiz-adv-x="667" d="M129 670q0 257 107 500t301 419l106 -61q-188 -197 -275 -407t-87 -453q0 -245 87 -460t275 -419l-108 -63q-194 185 -300 435t-106 509z" />
<glyph unicode=")" horiz-adv-x="667" d="M25 -211q188 204 275 419t87 460q0 243 -87 453t-275 407l106 61q194 -176 301 -419t107 -500q0 -259 -106 -509t-300 -435z" />
<glyph unicode="*" horiz-adv-x="718" d="M53 1219l41 122l225 -102l-24 242h129l-27 -242l228 102l41 -122l-242 -54l170 -186l-102 -78l-132 221l-133 -221l-102 78l170 186z" />
<glyph unicode="+" horiz-adv-x="1271" d="M115 612v125h448v402h146v-402h448v-125h-448v-426h-146v426h-448z" />
<glyph unicode="," horiz-adv-x="548" d="M166 -195q69 31 93 74t24 117v4h-113v236h211v-216q0 -120 -39 -186.5t-135 -105.5z" />
<glyph unicode="-" horiz-adv-x="1003" d="M115 502v135h774v-135h-774z" />
<glyph unicode="." horiz-adv-x="546" d="M168 0v227h209v-227h-209z" />
<glyph unicode="/" horiz-adv-x="1069" d="M96 -240l733 1796h146l-735 -1796h-144z" />
<glyph unicode="0" horiz-adv-x="1492" d="M115 711q0 348 167 549.5t463 201.5q297 0 464 -201.5t167 -549.5q0 -347 -166.5 -548.5t-461.5 -201.5q-297 0 -465 201.5t-168 548.5zM270 711q0 -291 125 -456t353 -165q226 0 350.5 165t124.5 456q0 292 -125.5 457t-352.5 165q-226 0 -350.5 -165t-124.5 -457z" />
<glyph unicode="1" horiz-adv-x="862" d="M66 1024v139h38q132 0 229.5 70t129.5 190h131v-1423h-152v1157q-40 -59 -126 -96t-185 -37h-65z" />
<glyph unicode="2" horiz-adv-x="1329" d="M82 0v135q439 211 704 440q131 113 185.5 213t54.5 222q0 144 -95.5 232.5t-281.5 88.5q-176 0 -280.5 -86t-104.5 -237q0 -54 15 -113l-158 16q-12 50 -12 107q0 199 148 321.5t398 122.5q131 0 233 -33.5t167.5 -94t99 -142.5t33.5 -180q0 -150 -81 -277.5t-233 -253.5 q-252 -202 -555 -342h902v-139h-1139z" />
<glyph unicode="3" horiz-adv-x="1380" d="M96 408l152 18q19 -159 131.5 -247.5t312.5 -88.5q201 0 307.5 77.5t106.5 223.5q0 281 -399 281h-132v129h121q170 0 265.5 66.5t95.5 197.5q0 129 -98 198.5t-285 69.5q-193 0 -297.5 -94t-112.5 -258l-143 29q8 206 153.5 329t407.5 123q258 0 394 -104t136 -283 q0 -135 -86.5 -219.5t-222.5 -107.5q166 -20 262.5 -108.5t96.5 -246.5q0 -197 -147.5 -314.5t-426.5 -117.5q-262 0 -417.5 121t-174.5 326z" />
<glyph unicode="4" horiz-adv-x="1325" d="M29 375v106l805 942h176v-927h280v-121h-280v-375h-146v375h-835zM201 496h663v596q0 82 4 192h-4q-33 -67 -108 -158l-420 -481q-74 -91 -135 -149z" />
<glyph unicode="5" horiz-adv-x="1347" d="M111 358l159 23q30 -135 136.5 -212t273.5 -77q195 0 304.5 99.5t109.5 279.5q0 178 -103 276.5t-291 98.5q-310 0 -405 -264l-152 14l88 827h945v-133h-826l-61 -536q60 106 177 163.5t277 57.5q237 0 370.5 -131t133.5 -369q0 -235 -155 -374.5t-416 -139.5 q-227 0 -377 105.5t-188 291.5z" />
<glyph unicode="6" horiz-adv-x="1384" d="M111 698q0 369 160 566.5t454 197.5q221 0 362 -100t175 -283l-156 -32q-67 286 -383 286q-229 0 -347.5 -162.5t-115.5 -478.5v-16q54 131 183 204.5t307 73.5q248 0 389 -129.5t141 -359.5q0 -226 -152.5 -365t-398.5 -139q-301 0 -459.5 187t-158.5 550zM276 473 q37 -186 153 -284.5t300 -98.5q182 0 289.5 101.5t107.5 273.5t-104.5 266t-294.5 94q-178 0 -297 -93t-154 -259z" />
<glyph unicode="7" horiz-adv-x="1189" d="M51 1284v139h1100v-120q-293 -266 -453.5 -587t-160.5 -677v-39h-175v27q0 337 158 654.5t447 602.5h-916z" />
<glyph unicode="8" horiz-adv-x="1392" d="M100 365q0 148 92.5 243.5t268.5 134.5q-162 47 -236.5 131t-74.5 218q0 170 148.5 270t399.5 100q249 0 396 -99.5t147 -270.5q0 -130 -79 -214t-232 -118q190 -53 276 -143t86 -240q0 -194 -157.5 -305t-429.5 -111q-285 0 -445 107t-160 297zM258 379 q0 -137 118.5 -214t328.5 -77q205 0 319.5 75t114.5 212q0 117 -83 185.5t-268 107.5l-163 34q-193 -46 -280 -122t-87 -201zM303 1094q0 -106 74 -168.5t237 -98.5l146 -30q182 53 254.5 118t72.5 175q0 122 -103 189t-288 67t-289 -66t-104 -186z" />
<glyph unicode="9" horiz-adv-x="1384" d="M102 985q0 213 154.5 345t409.5 132q298 0 454 -183t156 -542q0 -178 -37 -320t-110.5 -244.5t-189.5 -157t-267 -54.5q-225 0 -369 102.5t-178 290.5l154 35q32 -152 129 -225.5t266 -73.5q226 0 338 167t112 478v41q-58 -118 -184 -186t-301 -68q-246 0 -391.5 120 t-145.5 343zM258 987q0 -163 106.5 -249.5t292.5 -86.5q176 0 299 88t152 232q-75 362 -442 362q-189 0 -298.5 -92.5t-109.5 -253.5z" />
<glyph unicode=":" horiz-adv-x="546" d="M168 0v227h209v-227h-209zM168 797v227h209v-227h-209z" />
<glyph unicode=";" horiz-adv-x="567" d="M174 -195q69 31 93 74t24 117v4h-113v236h211v-216q0 -120 -39 -186.5t-135 -105.5zM188 797v227h209v-227h-209z" />
<glyph unicode="&#x3c;" horiz-adv-x="1427" d="M154 606v123l1030 432v-137l-867 -354l867 -355v-141z" />
<glyph unicode="=" horiz-adv-x="1271" d="M115 416v137h1042v-137h-1042zM115 795v137h1042v-137h-1042z" />
<glyph unicode="&#x3e;" horiz-adv-x="1427" d="M244 174v141l866 355l-866 354v137l1030 -432v-123z" />
<glyph unicode="?" horiz-adv-x="1179" d="M45 1061q0 202 146 324t409 122q248 0 385 -111t137 -298q0 -128 -63.5 -217t-173.5 -160l-129 -84q-64 -43 -90.5 -90t-26.5 -121v-61h-154v81q0 85 38 151t128 124l131 86q84 54 131.5 121t47.5 166q0 123 -99.5 201.5t-263.5 78.5q-181 0 -287 -85.5t-106 -241.5 q0 -62 12 -107l-160 18q-12 47 -12 103zM467 0v217h195v-217h-195z" />
<glyph unicode="@" horiz-adv-x="1890" d="M86 567q0 174 62.5 321t175 250.5t276 161.5t358.5 58q391 0 618.5 -205.5t227.5 -546.5q0 -212 -88 -335.5t-237 -123.5q-97 0 -158.5 47t-81.5 136q-53 -94 -157.5 -147.5t-237.5 -53.5q-146 0 -238 69.5t-92 178.5q0 117 82 177.5t268 82.5l359 33v18q0 126 -63 181 t-208 55q-119 0 -188 -47.5t-76 -137.5h-141q7 133 121 214t290 81q200 0 296 -86.5t96 -267.5v-238q0 -98 34 -143t109 -45q88 0 138 93t50 255q0 301 -188 475t-530 174q-348 0 -549 -186t-201 -500q0 -313 196 -491t539 -178q114 0 237 23t214 61l45 -97 q-197 -98 -512 -98q-394 0 -620 208.5t-226 573.5zM655 383q0 -66 58.5 -105.5t158.5 -39.5q149 0 251 78t102 196v61l-346 -32q-122 -13 -173 -49.5t-51 -108.5z" />
<glyph unicode="A" d="M47 0l664 1454h159l664 -1454h-170l-172 395h-803l-172 -395h-170zM449 532h684l-246 564q-65 128 -94 215h-5q-25 -76 -96 -215z" />
<glyph unicode="B" horiz-adv-x="1574" d="M227 0v1454h705q106 0 189 -22.5t135.5 -59t87 -86.5t48 -101.5t13.5 -107.5q0 -119 -66 -208t-194 -117q147 -23 222 -115.5t75 -237.5q0 -82 -25.5 -151t-80.5 -126t-152.5 -89.5t-229.5 -32.5h-727zM389 137h555q179 0 258.5 73.5t79.5 197.5t-77.5 196t-248.5 72 h-567v-539zM389 813h541q77 0 135 15.5t91 39.5t53.5 59.5t27 68t6.5 71.5q0 38 -8 72t-30 67.5t-56.5 57t-91.5 38.5t-131 15h-537v-504z" />
<glyph unicode="C" horiz-adv-x="1636" d="M86 729q0 230 92 403t266.5 269t409.5 96q289 0 465 -139.5t219 -388.5l-168 -15q-37 192 -172.5 298t-351.5 106q-275 0 -432.5 -169t-157.5 -458q0 -187 70 -329.5t205.5 -223t318.5 -80.5q207 0 342.5 99.5t185.5 285.5l160 -26q-64 -235 -238 -367.5t-454 -132.5 q-181 0 -325.5 57.5t-239.5 160.5t-145 244t-50 310z" />
<glyph unicode="D" horiz-adv-x="1685" d="M227 0v1454h611q346 0 553.5 -190t207.5 -525q0 -222 -96.5 -390.5t-269 -258.5t-395.5 -90h-611zM389 137h451q273 0 430 164t157 438q0 273 -161 425.5t-437 152.5h-440v-1180z" />
<glyph unicode="E" horiz-adv-x="1482" d="M229 0v1454h1090v-137h-928v-504h893v-135h-893v-541h942v-137h-1104z" />
<glyph unicode="F" horiz-adv-x="1415" d="M229 0v1454h1090v-137h-928v-504h893v-137h-893v-676h-162z" />
<glyph unicode="G" horiz-adv-x="1695" d="M86 727q0 230 91.5 403.5t266 270t410.5 96.5q122 0 226.5 -27t178.5 -71.5t130.5 -105t89 -124t47.5 -131.5l-164 -26q-16 68 -54 127.5t-99.5 110.5t-155 80.5t-207.5 29.5q-275 0 -434.5 -172.5t-159.5 -462.5q0 -184 68 -325t204 -222.5t322 -81.5q116 0 211.5 31 t157 80t104 113t60.5 127.5t18 125.5v43h-555v138h702v-754h-125l-16 270q-71 -146 -223 -229.5t-357 -83.5q-224 0 -392 97.5t-256.5 271.5t-88.5 401z" />
<glyph unicode="H" horiz-adv-x="1757" d="M229 0v1454h162v-641h975v641h162v-1454h-162v676h-975v-676h-162z" />
<glyph unicode="I" horiz-adv-x="620" d="M229 0v1454h162v-1454h-162z" />
<glyph unicode="J" horiz-adv-x="894" d="M43 -14v151q99 -18 207 -18q67 0 117.5 14.5t92 49t63.5 99t22 156.5v1016h164v-1028q0 -101 -23.5 -180t-64 -131t-99.5 -85.5t-126 -48t-148 -14.5q-125 0 -205 19z" />
<glyph unicode="K" d="M229 0v1454h162v-821l866 821h216l-594 -559l643 -895h-199l-563 780l-369 -338v-442h-162z" />
<glyph unicode="L" horiz-adv-x="1327" d="M229 0v1454h162v-1315h881v-139h-1043z" />
<glyph unicode="M" horiz-adv-x="2054" d="M229 0v1454h238l518 -1178q29 -75 37 -112h6q8 37 37 112l522 1178h238v-1454h-150v1178q0 80 6 135h-6q-20 -73 -49 -135l-524 -1178h-156l-522 1178q-13 30 -45 135h-6q6 -56 6 -135v-1178h-150z" />
<glyph unicode="N" horiz-adv-x="1746" d="M229 0v1454h199l850 -1122q62 -85 94 -156h2q-2 51 -2 174v1104h146v-1454h-187l-862 1133q-66 95 -92 155h-4q4 -102 4 -170v-1118h-148z" />
<glyph unicode="O" horiz-adv-x="1718" d="M86 727q0 176 56.5 320.5t157.5 243t244.5 152.5t315.5 54q171 0 314 -54t244 -152.5t157.5 -243t56.5 -320.5q0 -233 -97 -408.5t-272 -268.5t-403 -93q-229 0 -404.5 93.5t-272.5 269t-97 407.5zM256 727q0 -288 165 -460.5t439 -172.5q273 0 437.5 171.5t164.5 461.5 t-164.5 461.5t-437.5 171.5q-275 0 -439.5 -171t-164.5 -462z" />
<glyph unicode="P" horiz-adv-x="1460" d="M227 0v1454h688q227 0 359.5 -115t132.5 -313q0 -201 -138.5 -319.5t-371.5 -118.5h-508v-588h-162zM389 725h508q157 0 248.5 81.5t91.5 219.5q0 135 -91.5 213t-250.5 78h-506v-592z" />
<glyph unicode="Q" horiz-adv-x="1718" d="M86 727q0 176 56.5 320.5t157.5 243t244.5 152.5t315.5 54q171 0 314 -54t244 -152.5t157.5 -243t56.5 -320.5q0 -268 -126.5 -456.5t-348.5 -266.5q62 -76 134 -104.5t157 -28.5q66 0 131 12v-145q-98 -12 -143 -12q-142 0 -252.5 63.5t-173.5 179.5q-70 -12 -150 -12 q-229 0 -404.5 93.5t-272.5 269t-97 407.5zM256 727q0 -288 165 -460.5t439 -172.5q273 0 437.5 171.5t164.5 461.5t-164.5 461.5t-437.5 171.5q-275 0 -439.5 -171t-164.5 -462z" />
<glyph unicode="R" horiz-adv-x="1560" d="M227 0v1454h701q108 0 193 -23.5t138 -63t87.5 -94.5t48.5 -113t14 -124q0 -68 -19 -129t-59 -116.5t-110.5 -96t-165.5 -57.5l403 -637h-190l-389 614h-490v-614h-162zM389 752h520q172 0 251 79t79 207q0 126 -78.5 202.5t-251.5 76.5h-520v-565z" />
<glyph unicode="S" horiz-adv-x="1490" d="M80 449l170 24q32 -180 164.5 -279.5t369.5 -99.5q207 0 320 68.5t113 210.5q0 129 -79.5 191t-258.5 89l-326 45q-199 30 -302.5 124t-103.5 263q0 193 154 302.5t428 109.5q275 0 439.5 -109t203.5 -331l-168 -35q-33 174 -148.5 258t-330.5 84q-194 0 -302 -69 t-108 -195q0 -114 71.5 -175t234.5 -87l319 -45q224 -35 334 -129t110 -277q0 -199 -155.5 -314.5t-448.5 -115.5q-312 0 -486.5 128t-213.5 364z" />
<glyph unicode="T" horiz-adv-x="1327" d="M20 1317v137h1287v-137h-562v-1317h-163v1317h-562z" />
<glyph unicode="U" horiz-adv-x="1669" d="M186 563v891h162v-883q0 -212 128.5 -341.5t357.5 -129.5t357 129.5t128 341.5v883h164v-891q0 -273 -171 -438.5t-478 -165.5t-477.5 165.5t-170.5 438.5z" />
<glyph unicode="V" horiz-adv-x="1439" d="M8 1454h176l475 -1128q44 -106 58 -170h6q18 70 57 170l477 1128h175l-623 -1454h-178z" />
<glyph unicode="W" horiz-adv-x="2177" d="M53 1454h168l340 -1212l21 -82h4q1 8 22 82l400 1212h161l400 -1212q19 -56 22 -82h6q2 14 21 82l338 1212h170l-430 -1454h-199l-383 1182q-20 54 -22 82h-7q-2 -22 -20 -82l-385 -1182h-199z" />
<glyph unicode="X" horiz-adv-x="1499" d="M31 0l618 760l-573 694h200l416 -512q46 -58 58 -82h4q14 29 59 80l410 514h196l-567 -700l616 -754h-204l-445 555q-57 74 -71 102h-5q-26 -48 -69 -102l-449 -555h-194z" />
<glyph unicode="Y" horiz-adv-x="1396" d="M4 1454h191l444 -655q46 -68 55 -97h4q14 34 56 97l448 655h191l-615 -891v-563h-164v563z" />
<glyph unicode="Z" horiz-adv-x="1394" d="M92 0v143l1016 1174h-979v137h1174v-141l-1020 -1176h1056v-137h-1247z" />
<glyph unicode="[" horiz-adv-x="737" d="M229 -240v1796h447v-120h-314v-1555h314v-121h-447z" />
<glyph unicode="\" horiz-adv-x="1069" d="M94 1556h146l733 -1796h-144z" />
<glyph unicode="]" horiz-adv-x="737" d="M61 -119h314v1555h-314v120h447v-1796h-447v121z" />
<glyph unicode="^" horiz-adv-x="950" d="M41 899l375 553h116l377 -553h-145l-289 432l-289 -432h-145z" />
<glyph unicode="_" horiz-adv-x="1052" d="M0 -199h1053v-106h-1053v106z" />
<glyph unicode="`" horiz-adv-x="1228" d="M53 1487h187l256 -299h-148z" />
<glyph unicode="a" horiz-adv-x="1335" d="M113 268q0 147 112 224q56 38 141.5 61.5t231.5 36.5l414 33v24q0 147 -84.5 218t-255.5 71q-162 0 -257 -61t-110 -179h-158q15 165 156.5 262t366.5 97q248 0 368.5 -102.5t120.5 -317.5v-273q0 -235 27 -362h-152q-12 76 -16 215q-59 -120 -183.5 -183t-310.5 -63 q-187 0 -299 81t-112 218zM266 270q0 -87 78.5 -134.5t218.5 -47.5q199 0 325 98t126 258v70l-436 -39q-171 -19 -241.5 -66t-70.5 -139z" />
<glyph unicode="b" horiz-adv-x="1439" d="M217 0v1485h145v-680q56 115 178 182.5t281 67.5q239 0 382 -147.5t143 -393.5q0 -244 -148.5 -394.5t-386.5 -150.5q-164 0 -280.5 65t-172.5 175l-22 -209h-119zM358 483q0 -171 114 -278t300 -107q194 0 306 111.5t112 304.5t-107.5 302.5t-300.5 109.5 q-189 0 -306.5 -108t-117.5 -281v-54z" />
<glyph unicode="c" horiz-adv-x="1282" d="M92 512q0 252 154 397.5t416 145.5q221 0 355 -96t169 -281l-156 -19q-28 132 -123 200.5t-252 68.5q-194 0 -301.5 -108.5t-107.5 -305.5q0 -198 110 -308t306 -110q305 0 376 264l146 -22q-38 -175 -176.5 -272t-350.5 -97q-259 0 -412 146.5t-153 396.5z" />
<glyph unicode="d" horiz-adv-x="1439" d="M96 512q0 243 149.5 393t393.5 150q309 0 438 -234v664h148v-1485h-142v221q-62 -121 -179.5 -186.5t-278.5 -65.5q-236 0 -382.5 150t-146.5 393zM250 512q0 -194 110 -304t302 -110q188 0 303.5 107.5t115.5 277.5v52q0 173 -117 283t-309 110q-190 0 -297.5 -110.5 t-107.5 -305.5z" />
<glyph unicode="e" horiz-adv-x="1308" d="M92 504q0 263 150.5 407t408.5 144t402.5 -128.5t144.5 -367.5v-84h-956q4 -180 115.5 -279.5t308.5 -99.5q298 0 399 230l123 -54q-65 -149 -199 -226t-330 -77q-265 0 -416 140.5t-151 394.5zM242 592h807v10q0 161 -110 249.5t-290 88.5q-182 0 -291.5 -93 t-115.5 -255z" />
<glyph unicode="f" horiz-adv-x="839" d="M51 903v121h244v137q0 163 88.5 251.5t253.5 88.5q79 0 160 -18v-127q-66 14 -148 14q-109 0 -158 -51.5t-49 -165.5v-129h355v-121h-355v-903h-147v903h-244z" />
<glyph unicode="g" horiz-adv-x="1298" d="M88 -145q0 79 45.5 135t132.5 82q-127 49 -127 172q0 72 45.5 122t126.5 74q-131 98 -131 262q0 161 125.5 257t339.5 96q155 0 266 -54q24 86 90.5 134.5t169.5 48.5q41 0 66 -6v-127q-54 6 -70 6q-139 0 -180 -103q121 -92 121 -252t-125.5 -258t-337.5 -98 q-149 0 -260 51q-51 -14 -80 -43.5t-29 -70.5q0 -110 179 -113h422q173 -1 261.5 -72t88.5 -204q0 -324 -584 -324q-555 0 -555 285zM229 -121q0 -98 105.5 -143t316.5 -45q227 0 328.5 49.5t101.5 144.5q0 78 -56.5 116.5t-176.5 39.5h-397q-47 0 -84 6q-138 -51 -138 -168 zM324 702q0 -111 87 -177t234 -66t233.5 65.5t86.5 177.5t-86.5 176t-233.5 64q-148 0 -234.5 -64t-86.5 -176z" />
<glyph unicode="h" horiz-adv-x="1431" d="M219 0v1485h146v-701q57 132 172 202.5t274 70.5q222 0 336.5 -126t114.5 -370v-561h-146v547q0 188 -88 284.5t-260 96.5q-185 0 -294 -113t-109 -305v-510h-146z" />
<glyph unicode="i" horiz-adv-x="563" d="M197 1208v230h170v-230h-170zM209 0v1024h145v-1024h-145z" />
<glyph unicode="j" horiz-adv-x="571" d="M-66 -276q80 -9 129 -9q78 0 116 47.5t38 163.5v1098h145v-1118q0 -70 -15 -126t-48 -101t-90.5 -70t-136.5 -25q-81 0 -138 13v127zM203 1208v230h170v-230h-170z" />
<glyph unicode="k" horiz-adv-x="1296" d="M219 0v1485h146v-1012l639 551h202l-430 -379l463 -645h-182l-391 551l-301 -240v-311h-146z" />
<glyph unicode="l" horiz-adv-x="583" d="M219 0v1485h146v-1485h-146z" />
<glyph unicode="m" horiz-adv-x="2066" d="M209 0v1024h139v-225q46 126 143 192t236 66q144 0 240 -66.5t133 -191.5q54 126 156.5 192t240.5 66q195 0 297 -115.5t102 -335.5v-606h-145v596q0 332 -291 332q-154 0 -245 -96t-91 -257v-575h-145v604q0 158 -73.5 241t-213.5 83q-154 0 -246 -102.5t-92 -274.5 v-551h-145z" />
<glyph unicode="n" horiz-adv-x="1421" d="M209 0v1024h139v-244q122 277 453 277q221 0 335.5 -121t114.5 -356v-580h-145v561q0 182 -87 274.5t-259 92.5q-186 0 -296 -112.5t-110 -305.5v-510h-145z" />
<glyph unicode="o" horiz-adv-x="1333" d="M92 512q0 250 157 396.5t417 146.5t416.5 -146.5t156.5 -396.5t-156.5 -396.5t-416.5 -146.5t-417 146.5t-157 396.5zM246 512q0 -197 113 -306.5t307 -109.5q195 0 307 109t112 307t-112 307t-307 109q-194 0 -307 -109.5t-113 -306.5z" />
<glyph unicode="p" horiz-adv-x="1429" d="M207 -399v1423h141v-225q58 121 180.5 188.5t282.5 67.5q239 0 381.5 -147t142.5 -398q0 -244 -148.5 -392.5t-385.5 -148.5q-152 0 -274.5 65t-174.5 167v-600h-145zM348 485q0 -174 114.5 -280.5t301.5 -106.5q194 0 305 109t111 303q0 197 -107 306.5t-297 109.5 t-309 -108.5t-119 -280.5v-52z" />
<glyph unicode="q" horiz-adv-x="1431" d="M96 512q0 250 147.5 398.5t387.5 148.5q161 0 277.5 -64.5t174.5 -181.5l27 211h115v-1423h-146v610q-54 -110 -174 -178t-278 -68q-239 0 -385 151t-146 396zM250 512q0 -196 111.5 -307t302.5 -111q195 0 306 110t111 281v54q0 170 -113.5 280.5t-310.5 110.5 q-183 0 -295 -108.5t-112 -309.5z" />
<glyph unicode="r" horiz-adv-x="845" d="M209 0v1024h135v-285q41 141 141 226.5t238 85.5q44 0 80 -7v-141q-25 4 -68 4q-167 0 -262 -98q-119 -122 -119 -383v-426h-145z" />
<glyph unicode="s" horiz-adv-x="1224" d="M94 309l142 41q78 -260 426 -260q151 0 229 47.5t78 138.5q0 78 -46 118t-155 52l-313 25q-157 17 -236.5 89t-79.5 194q0 141 121.5 221t335.5 80q213 0 345 -80t167 -227l-143 -41q-37 116 -127.5 172.5t-249.5 56.5q-146 0 -225.5 -45.5t-79.5 -130.5q0 -142 206 -162 l316 -27q162 -17 235.5 -88t73.5 -194q0 -151 -117.5 -235.5t-347.5 -84.5q-451 0 -555 340z" />
<glyph unicode="t" horiz-adv-x="882" d="M41 903v121h246v270l145 64v-334h367v-121h-367v-577q0 -110 52.5 -159.5t158.5 -49.5q73 0 158 20v-131q-80 -26 -187 -26q-93 0 -158.5 25t-101.5 72t-51.5 105t-15.5 135v586h-246z" />
<glyph unicode="u" horiz-adv-x="1404" d="M170 430v594h145v-582q0 -93 25.5 -162t71 -108.5t103 -58.5t126.5 -19q99 0 178.5 34t129 91.5t76 131t26.5 155.5v518h145v-1024h-141v246q-47 -129 -164.5 -203t-274.5 -74q-446 0 -446 461z" />
<glyph unicode="v" horiz-adv-x="1169" d="M16 1024h162l361 -764q32 -79 43 -121h6q11 42 43 121l360 764h162l-489 -1024h-158z" />
<glyph unicode="w" horiz-adv-x="1818" d="M47 1024h154l272 -776q24 -78 29 -111h4q6 26 33 111l290 776h160l289 -776q30 -94 33 -111h6q5 33 29 111l272 776h151l-370 -1024h-166l-293 782q-23 64 -29 105h-4q-13 -65 -28 -105l-295 -782h-166z" />
<glyph unicode="x" horiz-adv-x="1185" d="M35 0l465 528l-437 496h181l274 -315q60 -77 74 -103h2q18 29 74 103l270 315h186l-436 -502l463 -522h-184l-299 338q-56 68 -76 102h-2q-15 -29 -78 -104l-295 -336h-182z" />
<glyph unicode="y" horiz-adv-x="1167" d="M16 1024h168l365 -760q36 -84 49 -125h4q7 25 45 125l344 760h160l-504 -1090q-86 -188 -194 -269t-267 -81q-49 0 -98 8v129q46 -6 84 -6q127 0 204 58t126 170l24 59z" />
<glyph unicode="z" horiz-adv-x="1173" d="M98 0v117l770 784h-739v123h930v-113l-770 -786h803v-125h-994z" />
<glyph unicode="{" horiz-adv-x="735" d="M80 616v115q48 1 80.5 10.5t51 23.5t27.5 41t11 51t2 67v348q0 154 93 227.5t257 73.5h68v-111h-52q-111 0 -170 -48.5t-59 -160.5v-319q0 -103 -31 -167.5t-118 -90.5q45 -15 75.5 -43t46 -66.5t21.5 -77t6 -86.5v-335q0 -110 58.5 -154.5t166.5 -44.5h60v-111h-86 q-154 0 -244 68.5t-90 212.5v377q0 41 -2.5 65.5t-12 52.5t-27.5 43.5t-51 26.5t-81 12z" />
<glyph unicode="|" horiz-adv-x="563" d="M219 -240v1796h125v-1796h-125z" />
<glyph unicode="}" horiz-adv-x="735" d="M61 -131h60q108 0 166.5 44.5t58.5 154.5v335q0 102 32 172.5t118 100.5q-87 26 -118.5 90.5t-31.5 167.5v319q0 112 -59 160.5t-170 48.5h-51v111h67q164 0 257 -73.5t93 -227.5v-348q0 -43 2 -67t11 -51t27.5 -41t51 -23.5t80.5 -10.5v-115q-48 -1 -81 -12t-51 -26.5 t-27.5 -43.5t-12 -52.5t-2.5 -65.5v-377q0 -144 -90 -212.5t-244 -68.5h-86v111z" />
<glyph unicode="~" horiz-adv-x="1427" d="M207 512q23 126 101.5 193t193.5 67q56 0 107 -18t89.5 -44t75 -52t76.5 -44t80 -18q69 0 111.5 40t62.5 124l115 -19q-24 -127 -102.5 -194.5t-190.5 -67.5q-56 0 -106.5 18t-88.5 44t-74 52t-75.5 44t-79.5 18q-72 0 -114.5 -38.5t-61.5 -118.5z" />
<glyph unicode="&#xa1;" horiz-adv-x="661" d="M231 975v213h199v-213h-199zM236 -297l40 1098h109l41 -1098h-190z" />
<glyph unicode="&#xa2;" horiz-adv-x="1318" d="M92 514q0 242 142.5 383.5t394.5 155.5v161h104v-161q204 -9 330 -103.5t158 -261.5l-148 -18q-50 240 -340 262v-842q139 11 227 76t117 182l142 -22q-35 -159 -162.5 -251.5t-323.5 -103.5v-161h-104v161q-250 12 -393.5 156.5t-143.5 386.5zM244 516 q0 -191 101 -301.5t284 -124.5v842q-185 -12 -285 -119.5t-100 -296.5z" />
<glyph unicode="&#xa3;" horiz-adv-x="1429" d="M47 94q311 93 311 389q0 97 -22 205h-242v109h213q-31 132 -31 227q0 205 134 321.5t374 116.5q203 0 330.5 -86.5t165.5 -253.5l-152 -39q-26 123 -115 186.5t-231 63.5q-344 0 -344 -303q0 -89 33 -233h492v-109h-465q18 -95 18 -176q0 -138 -56 -231t-173 -148 q95 21 205 21q101 0 256.5 -24t246.5 -24q107 0 173.5 59.5t78.5 168.5l139 -25q-22 -163 -124.5 -254.5t-266.5 -91.5q-90 0 -261.5 32t-299.5 32q-164 0 -354 -41z" />
<glyph unicode="&#xa4;" horiz-adv-x="1263" d="M94 197l127 125q-106 122 -106 299q0 178 108 301l-129 122l72 68l131 -123q144 101 342 101q190 0 332 -95l125 119l73 -67l-122 -119q112 -124 112 -307q0 -184 -110 -306l120 -116l-73 -68l-123 117q-138 -96 -334 -96q-205 0 -344 102l-127 -123zM248 621 q0 -155 108 -251t283 -96q173 0 280 96t107 251t-107 250.5t-280 95.5q-175 0 -283 -95.5t-108 -250.5z" />
<glyph unicode="&#xa5;" horiz-adv-x="1368" d="M4 1423h178l359 -471q89 -119 141 -207h4q43 76 141 207l359 471h178l-592 -774h463v-104h-475v-131h475v-105h-475v-309h-154v309h-473v105h473v131h-473v104h461z" />
<glyph unicode="&#xa6;" horiz-adv-x="561" d="M219 -240v775h123v-775h-123zM219 782v774h123v-774h-123z" />
<glyph unicode="&#xa7;" horiz-adv-x="1220" d="M80 111l137 24q52 -225 379 -225q332 0 332 201q0 78 -44 122.5t-157 81.5l-317 82q-173 46 -245.5 115t-72.5 188q0 153 144 228q-107 75 -107 219q0 149 123 233t340 84q200 0 323 -76.5t152 -218.5l-143 -32q-26 107 -109 158t-231 51q-151 0 -230.5 -49t-79.5 -140 q0 -76 47 -118t175 -78l315 -78q157 -42 230 -118t73 -194q0 -154 -127 -239q88 -79 88 -207q0 -162 -126.5 -250t-362.5 -88q-217 0 -345.5 81.5t-160.5 242.5zM236 717q0 -79 54 -122.5t214 -92.5l276 -66q57 -16 113 -43q78 63 78 156q0 85 -53.5 134t-194.5 93l-307 76 q-24 5 -72 22q-108 -50 -108 -157z" />
<glyph unicode="&#xa8;" horiz-adv-x="1228" d="M104 1217v221h177v-221h-177zM616 1217v221h175v-221h-175z" />
<glyph unicode="&#xa9;" horiz-adv-x="1822" d="M86 727q0 236 108 412.5t293 267t420 90.5q176 0 327 -53t261 -150.5t172 -243t62 -323.5q0 -177 -62.5 -322.5t-172 -243t-260.5 -151t-327 -53.5t-326.5 53.5t-260 151t-172 243t-62.5 322.5zM180 727q0 -157 55.5 -287t153 -217t230.5 -134.5t288 -47.5t288 47.5 t230.5 134.5t153 217t55.5 287q0 158 -55.5 288t-153 216.5t-230.5 134t-288 47.5t-288 -47.5t-230.5 -134t-153 -216.5t-55.5 -288zM479 725q0 200 120.5 319t322.5 119q163 0 269.5 -77t117.5 -199l-123 -15q-12 85 -83.5 137t-184.5 52q-144 0 -229 -91.5t-85 -244.5 q0 -151 86 -240.5t232 -89.5q104 0 177 50.5t91 129.5l123 -14q-23 -120 -131.5 -195t-259.5 -75q-202 0 -322.5 118t-120.5 316z" />
<glyph unicode="&#xaa;" horiz-adv-x="1048" d="M106 831q0 48 17.5 85t47 61.5t74.5 42t94 26.5t112 15l309 26v17q0 109 -57.5 159t-180.5 50q-110 0 -176 -43t-76 -127h-139q12 123 117 192.5t274 69.5q191 0 281 -76.5t90 -236.5v-203q0 -152 20 -254h-135q-9 62 -12 160q-37 -85 -130 -134t-222 -49q-140 0 -224 59 t-84 160zM244 840q0 -64 57.5 -101t153.5 -37q136 0 221.5 69t85.5 175v70l-289 -29q-123 -12 -176 -47t-53 -100z" />
<glyph unicode="&#xab;" horiz-adv-x="1124" d="M74 563l413 426h164l-403 -426l399 -426h-166zM494 563l413 426h164l-403 -426l399 -426h-166z" />
<glyph unicode="&#xac;" horiz-adv-x="1427" d="M188 616v136h1024v-484h-137v348h-887z" />
<glyph unicode="&#xad;" horiz-adv-x="1003" d="M115 502v135h774v-135h-774z" />
<glyph unicode="&#xae;" horiz-adv-x="1822" d="M86 727q0 236 108 412.5t293 267t420 90.5q176 0 327 -53t261 -150.5t172 -243t62 -323.5q0 -177 -62.5 -322.5t-172 -243t-260.5 -151t-327 -53.5t-326.5 53.5t-260 151t-172 243t-62.5 322.5zM180 727q0 -157 55.5 -287t153 -217t230.5 -134.5t288 -47.5t288 47.5 t230.5 134.5t153 217t55.5 287q0 158 -55.5 288t-153 216.5t-230.5 134t-288 47.5t-288 -47.5t-230.5 -134t-153 -216.5t-55.5 -288zM598 319v832h395q146 0 221.5 -62.5t75.5 -177.5q0 -86 -51 -147.5t-145 -85.5l227 -359h-137l-211 351h-256v-351h-119zM717 768h268 q186 0 186 143q0 142 -180 142h-274v-285z" />
<glyph unicode="&#xaf;" horiz-adv-x="1228" d="M102 1264v112h736v-112h-736z" />
<glyph unicode="&#xb0;" horiz-adv-x="907" d="M72 1087q0 169 109 275t274 106q164 0 272.5 -106t108.5 -275t-108.5 -274.5t-272.5 -105.5q-165 0 -274 105.5t-109 274.5zM207 1087q0 -112 70 -184t178 -72q106 0 175.5 72t69.5 184q0 115 -68.5 185.5t-176.5 70.5t-178 -71.5t-70 -184.5z" />
<glyph unicode="&#xb1;" horiz-adv-x="1427" d="M193 0v137h1042v-137h-1042zM193 612v125h446v346h145v-346h451v-125h-451v-342h-145v342h-446z" />
<glyph unicode="&#xb4;" horiz-adv-x="1228" d="M100 1188l256 299h187l-295 -299h-148z" />
<glyph unicode="&#xb5;" horiz-adv-x="1441" d="M209 -399v1423h145v-582q0 -93 25.5 -162t71 -108.5t103 -58.5t126.5 -19q99 0 178.5 34t129 91.5t76 131t26.5 155.5v518h145v-1024h-141v246q-47 -129 -164.5 -203t-274.5 -74q-201 0 -317 99v-467h-129z" />
<glyph unicode="&#xb6;" horiz-adv-x="1581" d="M117 1104q0 97 41.5 169.5t118 116t175.5 64.5t222 21h747v-103h-243v-1577h-119v1577h-275v-1577h-120v944q-547 0 -547 365z" />
<glyph unicode="&#xb7;" horiz-adv-x="546" d="M168 588v227h209v-227h-209z" />
<glyph unicode="&#xb8;" horiz-adv-x="1228" d="M100 -279l105 17q11 -29 41 -46.5t71 -17.5q52 0 82.5 24t30.5 64q0 41 -28 64.5t-78 23.5q-61 0 -99 -32l-73 20l102 174h96l-84 -125q37 29 105 29q80 0 127 -42t47 -112q0 -75 -62.5 -121.5t-163.5 -46.5q-84 0 -141.5 33.5t-77.5 93.5z" />
<glyph unicode="&#xba;" horiz-adv-x="1044" d="M90 1010q0 183 118 289t316 106q195 0 312.5 -106t117.5 -289q0 -184 -117.5 -291t-312.5 -107q-198 0 -316 106.5t-118 291.5zM225 1010q0 -141 80.5 -220t218.5 -79q135 0 215 79t80 220q0 139 -80 218t-215 79q-138 0 -218.5 -78.5t-80.5 -218.5z" />
<glyph unicode="&#xbb;" horiz-adv-x="1124" d="M53 989h164l414 -426l-408 -426h-166l400 426zM473 989h164l414 -426l-408 -426h-166l400 426z" />
<glyph unicode="&#xbc;" horiz-adv-x="1765" d="M57 1198v111h19q84 0 145 38.5t84 108.5h105v-782h-127v610q-32 -40 -85.5 -63t-111.5 -23h-29zM209 -35l1018 1524h141l-1020 -1524h-139zM913 190v89l490 503h135v-501h172v-91h-172v-190h-125v190h-500zM1026 281h387v393z" />
<glyph unicode="&#xbd;" horiz-adv-x="1851" d="M57 1198v111h19q84 0 145 38.5t84 108.5h105v-782h-127v610q-32 -40 -85.5 -63t-111.5 -23h-29zM209 -35l1018 1524h141l-1020 -1524h-139zM1067 0v88q75 39 111.5 58.5t99.5 55t95.5 57t78.5 54t69.5 57.5t48 56.5t34.5 62.5t10 64q0 72 -52 114t-147 42q-93 0 -152 -40 t-59 -120q0 -22 6 -49l-131 10q-4 16 -4 53q0 116 94.5 179t247.5 63q152 0 242 -62t90 -178q0 -236 -498 -471h518v-94h-702z" />
<glyph unicode="&#xbe;" horiz-adv-x="2062" d="M76 909l129 11q3 -80 64.5 -127.5t164.5 -47.5q104 0 166 39t62 113q0 131 -222 131h-86v90h80q95 0 151 33t56 94q0 67 -56.5 103t-152.5 36q-105 0 -163.5 -44.5t-59.5 -127.5l-127 9q0 119 94.5 188.5t259.5 69.5q154 0 245 -58.5t91 -163.5q0 -75 -57.5 -122 t-145.5 -56q106 -8 167 -57.5t61 -130.5q0 -113 -98.5 -175.5t-264.5 -62.5q-163 0 -259 69t-99 187zM506 -35l1018 1524h141l-1020 -1524h-139zM1210 190v89l490 503h135v-501h172v-91h-172v-190h-125v190h-500zM1323 281h387v393z" />
<glyph unicode="&#xbf;" horiz-adv-x="1171" d="M49 90q0 128 63.5 217t174.5 160l129 84q64 43 90 90t26 121v61h154v-82q0 -85 -38 -150.5t-128 -123.5l-131 -86q-84 -54 -131 -121t-47 -166q0 -123 99 -201.5t263 -78.5q181 0 287.5 85.5t106.5 241.5q0 58 -13 107l160 -19q12 -47 12 -102q0 -202 -146 -324 t-409 -122q-248 0 -385 111t-137 298zM510 971v217h195v-217h-195z" />
<glyph unicode="&#xc0;" d="M47 0l664 1454h159l664 -1454h-170l-172 395h-803l-172 -395h-170zM438 1761h178l242 -213h-153zM449 532h684l-246 564q-65 128 -94 215h-5q-25 -76 -96 -215z" />
<glyph unicode="&#xc1;" d="M47 0l664 1454h159l664 -1454h-170l-172 395h-803l-172 -395h-170zM449 532h684l-246 564q-65 128 -94 215h-5q-25 -76 -96 -215zM713 1548l241 213h179l-267 -213h-153z" />
<glyph unicode="&#xc2;" d="M47 0l664 1454h159l664 -1454h-170l-172 395h-803l-172 -395h-170zM449 532h684l-246 564q-65 128 -94 215h-5q-25 -76 -96 -215zM453 1548l249 213h179l249 -213h-163l-176 150l-175 -150h-163z" />
<glyph unicode="&#xc3;" d="M47 0l664 1454h159l664 -1454h-170l-172 395h-803l-172 -395h-170zM408 1567q14 97 73 149.5t156 52.5q52 0 98 -18.5t74 -41.5t66 -41.5t75 -18.5q98 0 119 110l107 -18q-15 -97 -75 -150t-155 -53q-52 0 -98.5 19t-74.5 41.5t-66.5 41.5t-75.5 19q-98 0 -119 -111z M449 532h684l-246 564q-65 128 -94 215h-5q-25 -76 -96 -215z" />
<glyph unicode="&#xc4;" d="M47 0l664 1454h159l664 -1454h-170l-172 395h-803l-172 -395h-170zM438 1548v203h176v-203h-176zM449 532h684l-246 564q-65 128 -94 215h-5q-25 -76 -96 -215zM969 1548v203h176v-203h-176z" />
<glyph unicode="&#xc5;" d="M47 0l664 1454h159l664 -1454h-170l-172 395h-803l-172 -395h-170zM449 532h684l-246 564q-65 128 -94 215h-5q-25 -76 -96 -215zM573 1716q0 89 60.5 146t157.5 57q96 0 156.5 -56.5t60.5 -146.5q0 -91 -60 -148t-157 -57t-157.5 57t-60.5 148zM674 1716q0 -53 32 -87 t85 -34t84.5 34t31.5 87t-31.5 86t-84.5 33t-85 -33t-32 -86z" />
<glyph unicode="&#xc6;" horiz-adv-x="2408" d="M-6 0l1106 1454h1143v-137h-938v-504h903v-135h-903v-541h952v-137h-1114v350h-707l-260 -350h-182zM537 487h606v818z" />
<glyph unicode="&#xc7;" horiz-adv-x="1636" d="M86 729q0 230 92 403t266.5 269t409.5 96q289 0 465 -139.5t219 -388.5l-168 -15q-37 192 -172.5 298t-351.5 106q-275 0 -432.5 -169t-157.5 -458q0 -187 70 -329.5t205.5 -223t318.5 -80.5q207 0 342.5 99.5t185.5 285.5l160 -26q-60 -225 -223 -356.5t-424 -143.5 l-49 -72q37 29 104 29q80 0 127 -42t47 -112q0 -75 -62 -121.5t-163 -46.5q-84 0 -141.5 33.5t-77.5 93.5l104 17q11 -29 41.5 -46.5t71.5 -17.5q52 0 82.5 24t30.5 64q0 41 -28.5 64.5t-78.5 23.5q-60 0 -98 -32l-74 20l72 121q-170 7 -305.5 68t-224.5 163t-136 240 t-47 301z" />
<glyph unicode="&#xc8;" horiz-adv-x="1482" d="M229 0v1454h1090v-137h-928v-504h893v-135h-893v-541h942v-137h-1104zM420 1761h178l242 -213h-154z" />
<glyph unicode="&#xc9;" horiz-adv-x="1482" d="M229 0v1454h1090v-137h-928v-504h893v-135h-893v-541h942v-137h-1104zM694 1548l242 213h178l-266 -213h-154z" />
<glyph unicode="&#xca;" horiz-adv-x="1482" d="M229 0v1454h1090v-137h-928v-504h893v-135h-893v-541h942v-137h-1104zM434 1548l250 213h178l250 -213h-164l-176 150l-174 -150h-164z" />
<glyph unicode="&#xcb;" horiz-adv-x="1482" d="M229 0v1454h1090v-137h-928v-504h893v-135h-893v-541h942v-137h-1104zM420 1548v203h176v-203h-176zM950 1548v203h176v-203h-176z" />
<glyph unicode="&#xcc;" horiz-adv-x="620" d="M68 1761h163l150 -213h-143zM229 0v1454h162v-1454h-162z" />
<glyph unicode="&#xcd;" horiz-adv-x="620" d="M229 0v1454h162v-1454h-162zM240 1548l149 213h164l-170 -213h-143z" />
<glyph unicode="&#xce;" horiz-adv-x="620" d="M57 1548l166 213h178l166 -213h-149l-107 148l-104 -148h-150zM229 0v1454h162v-1454h-162z" />
<glyph unicode="&#xcf;" horiz-adv-x="620" d="M68 1548v203h176v-203h-176zM229 0v1454h162v-1454h-162zM381 1548v203h176v-203h-176z" />
<glyph unicode="&#xd0;" horiz-adv-x="1691" d="M37 694v125h190v635h611q346 0 553.5 -190t207.5 -525q0 -222 -96.5 -390.5t-269 -258.5t-395.5 -90h-611v694h-190zM389 137h451q273 0 430 164t157 438q0 273 -161 425.5t-437 152.5h-440v-498h498v-125h-498v-557z" />
<glyph unicode="&#xd1;" horiz-adv-x="1746" d="M229 0v1454h199l850 -1122q62 -85 94 -156h2q-2 51 -2 174v1104h146v-1454h-187l-862 1133q-66 95 -92 155h-4q4 -102 4 -170v-1118h-148zM492 1567q14 97 73 149.5t156 52.5q52 0 98 -18.5t74 -41.5t66 -41.5t75 -18.5q98 0 119 110l107 -18q-15 -97 -75 -150t-155 -53 q-52 0 -98.5 19t-74.5 41.5t-66.5 41.5t-75.5 19q-98 0 -119 -111z" />
<glyph unicode="&#xd2;" horiz-adv-x="1718" d="M86 727q0 176 56.5 320.5t157.5 243t244.5 152.5t315.5 54q171 0 314 -54t244 -152.5t157.5 -243t56.5 -320.5q0 -233 -97 -408.5t-272 -268.5t-403 -93q-229 0 -404.5 93.5t-272.5 269t-97 407.5zM256 727q0 -288 165 -460.5t439 -172.5q273 0 437.5 171.5t164.5 461.5 t-164.5 461.5t-437.5 171.5q-275 0 -439.5 -171t-164.5 -462zM508 1761h178l242 -213h-154z" />
<glyph unicode="&#xd3;" horiz-adv-x="1718" d="M86 727q0 176 56.5 320.5t157.5 243t244.5 152.5t315.5 54q171 0 314 -54t244 -152.5t157.5 -243t56.5 -320.5q0 -233 -97 -408.5t-272 -268.5t-403 -93q-229 0 -404.5 93.5t-272.5 269t-97 407.5zM256 727q0 -288 165 -460.5t439 -172.5q273 0 437.5 171.5t164.5 461.5 t-164.5 461.5t-437.5 171.5q-275 0 -439.5 -171t-164.5 -462zM782 1548l242 213h178l-266 -213h-154z" />
<glyph unicode="&#xd4;" horiz-adv-x="1718" d="M86 727q0 176 56.5 320.5t157.5 243t244.5 152.5t315.5 54q171 0 314 -54t244 -152.5t157.5 -243t56.5 -320.5q0 -233 -97 -408.5t-272 -268.5t-403 -93q-229 0 -404.5 93.5t-272.5 269t-97 407.5zM256 727q0 -288 165 -460.5t439 -172.5q273 0 437.5 171.5t164.5 461.5 t-164.5 461.5t-437.5 171.5q-275 0 -439.5 -171t-164.5 -462zM522 1548l250 213h178l250 -213h-164l-176 150l-174 -150h-164z" />
<glyph unicode="&#xd5;" horiz-adv-x="1718" d="M86 727q0 176 56.5 320.5t157.5 243t244.5 152.5t315.5 54q171 0 314 -54t244 -152.5t157.5 -243t56.5 -320.5q0 -233 -97 -408.5t-272 -268.5t-403 -93q-229 0 -404.5 93.5t-272.5 269t-97 407.5zM256 727q0 -288 165 -460.5t439 -172.5q273 0 437.5 171.5t164.5 461.5 t-164.5 461.5t-437.5 171.5q-275 0 -439.5 -171t-164.5 -462zM477 1567q14 97 73.5 149.5t156.5 52.5q52 0 98 -18.5t74 -41.5t66 -41.5t75 -18.5q98 0 119 110l106 -18q-15 -97 -74.5 -150t-154.5 -53q-52 0 -98.5 19t-75 41.5t-67 41.5t-75.5 19q-97 0 -118 -111z" />
<glyph unicode="&#xd6;" horiz-adv-x="1718" d="M86 727q0 176 56.5 320.5t157.5 243t244.5 152.5t315.5 54q171 0 314 -54t244 -152.5t157.5 -243t56.5 -320.5q0 -233 -97 -408.5t-272 -268.5t-403 -93q-229 0 -404.5 93.5t-272.5 269t-97 407.5zM256 727q0 -288 165 -460.5t439 -172.5q273 0 437.5 171.5t164.5 461.5 t-164.5 461.5t-437.5 171.5q-275 0 -439.5 -171t-164.5 -462zM508 1548v203h176v-203h-176zM1038 1548v203h176v-203h-176z" />
<glyph unicode="&#xd7;" horiz-adv-x="1427" d="M195 279l419 391l-419 391l96 96l422 -393l422 393l98 -96l-420 -391l420 -391l-96 -97l-422 396l-424 -396z" />
<glyph unicode="&#xd8;" horiz-adv-x="1718" d="M86 727q0 176 56.5 320.5t157.5 243t244.5 152.5t315.5 54q297 0 496 -154l127 136l92 -76l-131 -139q188 -204 188 -537q0 -233 -97 -408.5t-272 -268.5t-403 -93q-292 0 -495 154l-129 -138l-93 78l131 142q-188 207 -188 534zM256 727q0 -251 129 -418l866 922 q-157 129 -391 129q-275 0 -439.5 -171t-164.5 -462zM469 223q154 -129 391 -129q273 0 437.5 171.5t164.5 461.5q0 256 -127 420z" />
<glyph unicode="&#xd9;" horiz-adv-x="1669" d="M186 563v891h162v-883q0 -212 128.5 -341.5t357.5 -129.5t357 129.5t128 341.5v883h164v-891q0 -273 -171 -438.5t-478 -165.5t-477.5 165.5t-170.5 438.5zM483 1761h179l241 -213h-153z" />
<glyph unicode="&#xda;" horiz-adv-x="1669" d="M186 563v891h162v-883q0 -212 128.5 -341.5t357.5 -129.5t357 129.5t128 341.5v883h164v-891q0 -273 -171 -438.5t-478 -165.5t-477.5 165.5t-170.5 438.5zM758 1548l241 213h179l-267 -213h-153z" />
<glyph unicode="&#xdb;" horiz-adv-x="1669" d="M186 563v891h162v-883q0 -212 128.5 -341.5t357.5 -129.5t357 129.5t128 341.5v883h164v-891q0 -273 -171 -438.5t-478 -165.5t-477.5 165.5t-170.5 438.5zM498 1548l250 213h178l250 -213h-164l-176 150l-174 -150h-164z" />
<glyph unicode="&#xdc;" horiz-adv-x="1669" d="M186 563v891h162v-883q0 -212 128.5 -341.5t357.5 -129.5t357 129.5t128 341.5v883h164v-891q0 -273 -171 -438.5t-478 -165.5t-477.5 165.5t-170.5 438.5zM483 1548v203h176v-203h-176zM1014 1548v203h176v-203h-176z" />
<glyph unicode="&#xdd;" horiz-adv-x="1396" d="M4 1454h191l444 -655q46 -68 55 -97h4q14 34 56 97l448 655h191l-615 -891v-563h-164v563zM621 1548l241 213h178l-266 -213h-153z" />
<glyph unicode="&#xde;" horiz-adv-x="1363" d="M227 0v1454h162v-270h453q219 0 345 -111.5t126 -304.5q0 -192 -127 -307t-342 -115h-455v-346h-162zM389 483h442q144 0 226 77t82 208q0 130 -81.5 204.5t-226.5 74.5h-442v-564z" />
<glyph unicode="&#xdf;" horiz-adv-x="1421" d="M203 0v1038q0 225 137 348t389 123q230 0 364 -96.5t134 -269.5q0 -138 -83 -227t-229 -109q194 -19 298 -119t104 -268q0 -215 -146 -326.5t-421 -111.5q-91 0 -224 20v121q102 -21 215 -21q424 0 424 314q0 315 -448 321h-185v121h168q369 6 369 277q0 124 -90.5 191 t-255.5 67q-189 0 -281 -90t-92 -273v-1030h-147z" />
<glyph unicode="&#xe0;" horiz-adv-x="1335" d="M113 268q0 147 112 224q56 38 141.5 61.5t231.5 36.5l414 33v24q0 147 -84.5 218t-255.5 71q-162 0 -257 -61t-110 -179h-158q15 165 156.5 262t366.5 97q248 0 368.5 -102.5t120.5 -317.5v-273q0 -235 27 -362h-152q-12 76 -16 215q-59 -120 -183.5 -183t-310.5 -63 q-187 0 -299 81t-112 218zM266 270q0 -87 78.5 -134.5t218.5 -47.5q199 0 325 98t126 258v70l-436 -39q-171 -19 -241.5 -66t-70.5 -139zM297 1487h186l256 -299h-147z" />
<glyph unicode="&#xe1;" horiz-adv-x="1335" d="M113 268q0 147 112 224q56 38 141.5 61.5t231.5 36.5l414 33v24q0 147 -84.5 218t-255.5 71q-162 0 -257 -61t-110 -179h-158q15 165 156.5 262t366.5 97q248 0 368.5 -102.5t120.5 -317.5v-273q0 -235 27 -362h-152q-12 76 -16 215q-59 -120 -183.5 -183t-310.5 -63 q-187 0 -299 81t-112 218zM266 270q0 -87 78.5 -134.5t218.5 -47.5q199 0 325 98t126 258v70l-436 -39q-171 -19 -241.5 -66t-70.5 -139zM596 1188l256 299h186l-295 -299h-147z" />
<glyph unicode="&#xe2;" horiz-adv-x="1335" d="M113 268q0 147 112 224q56 38 141.5 61.5t231.5 36.5l414 33v24q0 147 -84.5 218t-255.5 71q-162 0 -257 -61t-110 -179h-158q15 165 156.5 262t366.5 97q248 0 368.5 -102.5t120.5 -317.5v-273q0 -235 27 -362h-152q-12 76 -16 215q-59 -120 -183.5 -183t-310.5 -63 q-187 0 -299 81t-112 218zM266 270q0 -87 78.5 -134.5t218.5 -47.5q199 0 325 98t126 258v70l-436 -39q-171 -19 -241.5 -66t-70.5 -139zM311 1188l277 299h160l276 -299h-145l-211 227l-211 -227h-146z" />
<glyph unicode="&#xe3;" horiz-adv-x="1335" d="M113 268q0 147 112 224q56 38 141.5 61.5t231.5 36.5l414 33v24q0 147 -84.5 218t-255.5 71q-162 0 -257 -61t-110 -179h-158q15 165 156.5 262t366.5 97q248 0 368.5 -102.5t120.5 -317.5v-273q0 -235 27 -362h-152q-12 76 -16 215q-59 -120 -183.5 -183t-310.5 -63 q-187 0 -299 81t-112 218zM256 1235q15 107 78 167t162 60q58 0 109.5 -23t83.5 -50.5t74.5 -50.5t84.5 -23q108 0 129 129l106 -17q-15 -107 -77.5 -166t-163.5 -59q-57 0 -108.5 23t-83.5 50t-74.5 50t-83.5 23q-107 0 -132 -129zM266 270q0 -87 78.5 -134.5t218.5 -47.5 q199 0 325 98t126 258v70l-436 -39q-171 -19 -241.5 -66t-70.5 -139z" />
<glyph unicode="&#xe4;" horiz-adv-x="1335" d="M113 268q0 147 112 224q56 38 141.5 61.5t231.5 36.5l414 33v24q0 147 -84.5 218t-255.5 71q-162 0 -257 -61t-110 -179h-158q15 165 156.5 262t366.5 97q248 0 368.5 -102.5t120.5 -317.5v-273q0 -235 27 -362h-152q-12 76 -16 215q-59 -120 -183.5 -183t-310.5 -63 q-187 0 -299 81t-112 218zM266 270q0 -87 78.5 -134.5t218.5 -47.5q199 0 325 98t126 258v70l-436 -39q-171 -19 -241.5 -66t-70.5 -139zM324 1217v221h176v-221h-176zM836 1217v221h174v-221h-174z" />
<glyph unicode="&#xe5;" horiz-adv-x="1335" d="M113 268q0 147 112 224q56 38 141.5 61.5t231.5 36.5l414 33v24q0 147 -84.5 218t-255.5 71q-162 0 -257 -61t-110 -179h-158q15 165 156.5 262t366.5 97q248 0 368.5 -102.5t120.5 -317.5v-273q0 -235 27 -362h-152q-12 76 -16 215q-59 -120 -183.5 -183t-310.5 -63 q-187 0 -299 81t-112 218zM266 270q0 -87 78.5 -134.5t218.5 -47.5q199 0 325 98t126 258v70l-436 -39q-171 -19 -241.5 -66t-70.5 -139zM414 1348q0 92 69 148t185 56t185 -56t69 -148q0 -91 -69 -147t-185 -56t-185 56t-69 147zM512 1348q0 -55 41.5 -88t114.5 -33 q71 0 113 33t42 88t-42 88.5t-113 33.5q-72 0 -114 -33.5t-42 -88.5z" />
<glyph unicode="&#xe6;" horiz-adv-x="2146" d="M113 262q0 275 422 301l452 29v51q0 148 -81 218.5t-251 70.5q-162 0 -254 -62.5t-102 -181.5h-152q19 175 152.5 271t359.5 96q319 0 422 -205q66 100 178.5 153.5t260.5 53.5q244 0 381 -133.5t137 -370.5v-76h-901q2 -178 106.5 -279.5t288.5 -101.5q137 2 232.5 61 t138.5 171l125 -56q-62 -148 -189.5 -225.5t-312.5 -77.5q-178 0 -301.5 72t-182.5 207q-64 -137 -198 -208t-324 -71t-298.5 77.5t-108.5 215.5zM266 264q0 -83 73.5 -129.5t205.5 -46.5q122 0 221.5 39.5t161 120t61.5 190.5v47l-430 -28q-154 -12 -223.5 -58.5 t-69.5 -134.5zM1137 594h749v6q0 158 -101 250t-265 92q-167 0 -273 -94.5t-110 -253.5z" />
<glyph unicode="&#xe7;" horiz-adv-x="1282" d="M92 512q0 252 154 397.5t416 145.5q221 0 355 -96t169 -281l-156 -19q-28 132 -123 200.5t-252 68.5q-194 0 -301.5 -108.5t-107.5 -305.5q0 -198 110 -308t306 -110q305 0 376 264l146 -22q-37 -166 -163 -262t-319 -105l-55 -84q37 29 105 29q80 0 127 -42t47 -112 q0 -75 -62.5 -121.5t-163.5 -46.5q-84 0 -141.5 33.5t-77.5 93.5l105 17q11 -29 41 -46.5t71 -17.5q52 0 82.5 24t30.5 64q0 41 -28 64.5t-78 23.5q-61 0 -99 -32l-74 20l78 133q-238 14 -378 159t-140 382z" />
<glyph unicode="&#xe8;" horiz-adv-x="1308" d="M92 504q0 263 150.5 407t408.5 144t402.5 -128.5t144.5 -367.5v-84h-956q4 -180 115.5 -279.5t308.5 -99.5q298 0 399 230l123 -54q-65 -149 -199 -226t-330 -77q-265 0 -416 140.5t-151 394.5zM242 592h807v10q0 161 -110 249.5t-290 88.5q-182 0 -291.5 -93 t-115.5 -255zM279 1487h186l256 -299h-148z" />
<glyph unicode="&#xe9;" horiz-adv-x="1308" d="M92 504q0 263 150.5 407t408.5 144t402.5 -128.5t144.5 -367.5v-84h-956q4 -180 115.5 -279.5t308.5 -99.5q298 0 399 230l123 -54q-65 -149 -199 -226t-330 -77q-265 0 -416 140.5t-151 394.5zM242 592h807v10q0 161 -110 249.5t-290 88.5q-182 0 -291.5 -93 t-115.5 -255zM578 1188l256 299h186l-295 -299h-147z" />
<glyph unicode="&#xea;" horiz-adv-x="1308" d="M92 504q0 263 150.5 407t408.5 144t402.5 -128.5t144.5 -367.5v-84h-956q4 -180 115.5 -279.5t308.5 -99.5q298 0 399 230l123 -54q-65 -149 -199 -226t-330 -77q-265 0 -416 140.5t-151 394.5zM242 592h807v10q0 161 -110 249.5t-290 88.5q-182 0 -291.5 -93 t-115.5 -255zM293 1188l276 299h160l277 -299h-146l-211 227l-211 -227h-145z" />
<glyph unicode="&#xeb;" horiz-adv-x="1308" d="M92 504q0 263 150.5 407t408.5 144t402.5 -128.5t144.5 -367.5v-84h-956q4 -180 115.5 -279.5t308.5 -99.5q298 0 399 230l123 -54q-65 -149 -199 -226t-330 -77q-265 0 -416 140.5t-151 394.5zM242 592h807v10q0 161 -110 249.5t-290 88.5q-182 0 -291.5 -93 t-115.5 -255zM305 1217v221h176v-221h-176zM817 1217v221h174v-221h-174z" />
<glyph unicode="&#xec;" horiz-adv-x="563" d="M33 1487h162l153 -299h-139zM209 0v1024h145v-1024h-145z" />
<glyph unicode="&#xed;" horiz-adv-x="563" d="M209 0v1024h145v-1024h-145zM215 1188l154 299h161l-176 -299h-139z" />
<glyph unicode="&#xee;" horiz-adv-x="563" d="M45 1188l162 301h151l162 -301h-129l-108 227l-109 -227h-129zM209 0v1024h145v-1024h-145z" />
<glyph unicode="&#xef;" horiz-adv-x="563" d="M45 1217v223h176v-223h-176zM209 0v1024h145v-1024h-145zM344 1217v223h176v-223h-176z" />
<glyph unicode="&#xf0;" horiz-adv-x="1349" d="M98 510q0 245 148.5 389.5t404.5 144.5q146 0 245 -57t151 -149h4q-47 219 -234 379l-364 -101l-33 82l307 84q-127 83 -287 127l82 96q206 -65 352 -182l224 61l30 -84l-174 -47q137 -136 208.5 -319.5t70.5 -401.5q0 -255 -156.5 -409t-417.5 -154q-262 0 -411.5 145 t-149.5 396zM252 510q0 -191 109.5 -301.5t302.5 -110.5q197 0 310 109.5t113 302.5q0 196 -112 305t-311 109q-194 0 -303 -110.5t-109 -303.5z" />
<glyph unicode="&#xf1;" horiz-adv-x="1421" d="M209 0v1024h139v-244q122 277 453 277q221 0 335.5 -121t114.5 -356v-580h-145v561q0 182 -87 274.5t-259 92.5q-186 0 -296 -112.5t-110 -305.5v-510h-145zM383 1235q15 107 78 167t162 60q58 0 109.5 -23t83.5 -50.5t74.5 -50.5t84.5 -23q108 0 129 129l106 -17 q-15 -107 -77.5 -166t-163.5 -59q-47 0 -89 15t-73 36.5t-59.5 43t-62 36.5t-67.5 15q-106 0 -131 -129z" />
<glyph unicode="&#xf2;" horiz-adv-x="1333" d="M92 512q0 250 157 396.5t417 146.5t416.5 -146.5t156.5 -396.5t-156.5 -396.5t-416.5 -146.5t-417 146.5t-157 396.5zM246 512q0 -197 113 -306.5t307 -109.5q195 0 307 109t112 307t-112 307t-307 109q-194 0 -307 -109.5t-113 -306.5zM295 1487h186l256 -299h-147z" />
<glyph unicode="&#xf3;" horiz-adv-x="1333" d="M92 512q0 250 157 396.5t417 146.5t416.5 -146.5t156.5 -396.5t-156.5 -396.5t-416.5 -146.5t-417 146.5t-157 396.5zM246 512q0 -197 113 -306.5t307 -109.5q195 0 307 109t112 307t-112 307t-307 109q-194 0 -307 -109.5t-113 -306.5zM594 1188l256 299h186l-295 -299 h-147z" />
<glyph unicode="&#xf4;" horiz-adv-x="1333" d="M92 512q0 250 157 396.5t417 146.5t416.5 -146.5t156.5 -396.5t-156.5 -396.5t-416.5 -146.5t-417 146.5t-157 396.5zM246 512q0 -197 113 -306.5t307 -109.5q195 0 307 109t112 307t-112 307t-307 109q-194 0 -307 -109.5t-113 -306.5zM309 1188l277 299h159l277 -299 h-145l-211 227l-211 -227h-146z" />
<glyph unicode="&#xf5;" horiz-adv-x="1333" d="M92 512q0 250 157 396.5t417 146.5t416.5 -146.5t156.5 -396.5t-156.5 -396.5t-416.5 -146.5t-417 146.5t-157 396.5zM246 512q0 -197 113 -306.5t307 -109.5q195 0 307 109t112 307t-112 307t-307 109q-194 0 -307 -109.5t-113 -306.5zM254 1235q15 107 78 167t162 60 q58 0 109.5 -23t83.5 -50.5t74.5 -50.5t84.5 -23q108 0 129 129l106 -17q-15 -107 -77.5 -166t-163.5 -59q-47 0 -89 15t-73 36.5t-59.5 43t-62 36.5t-67.5 15q-106 0 -131 -129z" />
<glyph unicode="&#xf6;" horiz-adv-x="1333" d="M92 512q0 250 157 396.5t417 146.5t416.5 -146.5t156.5 -396.5t-156.5 -396.5t-416.5 -146.5t-417 146.5t-157 396.5zM246 512q0 -197 113 -306.5t307 -109.5q195 0 307 109t112 307t-112 307t-307 109q-194 0 -307 -109.5t-113 -306.5zM322 1217v221h176v-221h-176z M834 1217v221h174v-221h-174z" />
<glyph unicode="&#xf7;" horiz-adv-x="1271" d="M115 604v129h1042v-129h-1042zM535 289q0 42 27 69t69 27q43 0 70.5 -26.5t27.5 -69.5t-27.5 -71t-70.5 -28q-41 0 -68.5 28t-27.5 71zM535 1051q0 42 27 69t69 27q43 0 70.5 -26.5t27.5 -69.5t-27.5 -70t-70.5 -27q-41 0 -68.5 27t-27.5 70z" />
<glyph unicode="&#xf8;" horiz-adv-x="1333" d="M92 512q0 250 157 396.5t417 146.5q219 0 366 -107l109 109l76 -62l-111 -110q133 -142 133 -373q0 -250 -156.5 -396.5t-416.5 -146.5q-222 0 -369 107l-113 -111l-73 64l112 112q-131 143 -131 371zM246 512q0 -161 80 -268l608 608q-109 76 -268 76 q-194 0 -307 -109.5t-113 -306.5zM395 174q107 -78 271 -78q195 0 307 109t112 307q0 165 -81 272z" />
<glyph unicode="&#xf9;" horiz-adv-x="1404" d="M170 430v594h145v-582q0 -93 25.5 -162t71 -108.5t103 -58.5t126.5 -19q99 0 178.5 34t129 91.5t76 131t26.5 155.5v518h145v-1024h-141v246q-47 -129 -164.5 -203t-274.5 -74q-446 0 -446 461zM311 1487h187l256 -299h-148z" />
<glyph unicode="&#xfa;" horiz-adv-x="1404" d="M170 430v594h145v-582q0 -93 25.5 -162t71 -108.5t103 -58.5t126.5 -19q99 0 178.5 34t129 91.5t76 131t26.5 155.5v518h145v-1024h-141v246q-47 -129 -164.5 -203t-274.5 -74q-446 0 -446 461zM610 1188l256 299h187l-295 -299h-148z" />
<glyph unicode="&#xfb;" horiz-adv-x="1404" d="M170 430v594h145v-582q0 -93 25.5 -162t71 -108.5t103 -58.5t126.5 -19q99 0 178.5 34t129 91.5t76 131t26.5 155.5v518h145v-1024h-141v246q-47 -129 -164.5 -203t-274.5 -74q-446 0 -446 461zM326 1188l276 299h160l276 -299h-145l-211 227l-211 -227h-145z" />
<glyph unicode="&#xfc;" horiz-adv-x="1404" d="M170 430v594h145v-582q0 -93 25.5 -162t71 -108.5t103 -58.5t126.5 -19q99 0 178.5 34t129 91.5t76 131t26.5 155.5v518h145v-1024h-141v246q-47 -129 -164.5 -203t-274.5 -74q-446 0 -446 461zM338 1217v221h176v-221h-176zM850 1217v221h174v-221h-174z" />
<glyph unicode="&#xfd;" horiz-adv-x="1167" d="M16 1024h168l365 -760q36 -84 49 -125h4q7 25 45 125l344 760h160l-504 -1090q-86 -188 -194 -269t-267 -81q-49 0 -98 8v129q46 -6 84 -6q127 0 204 58t126 170l24 59zM512 1188l256 299h186l-295 -299h-147z" />
<glyph unicode="&#xfe;" horiz-adv-x="1439" d="M217 -399v1884h145v-676q60 117 180.5 181.5t276.5 64.5q241 0 384 -149.5t143 -391.5q0 -239 -147 -392t-386 -153q-148 0 -270.5 61.5t-180.5 166.5v-596h-145zM358 485q0 -174 114 -280.5t304 -106.5q192 0 303 113.5t111 302.5q0 188 -108.5 300t-297.5 112 q-191 0 -308.5 -107.5t-117.5 -277.5v-56z" />
<glyph unicode="&#xff;" horiz-adv-x="1167" d="M16 1024h168l365 -760q36 -84 49 -125h4q7 25 45 125l344 760h160l-504 -1090q-86 -188 -194 -269t-267 -81q-49 0 -98 8v129q46 -6 84 -6q127 0 204 58t126 170l24 59zM240 1217v221h176v-221h-176zM752 1217v221h174v-221h-174z" />
<glyph unicode="&#x152;" horiz-adv-x="2490" d="M86 737q0 338 209 527.5t563 189.5h1473v-137h-928v-504h893v-135h-893v-541h942v-137h-1501q-344 0 -551 200t-207 537zM256 739q0 -277 159.5 -439.5t428.5 -162.5h397v1180h-383q-281 0 -441.5 -152.5t-160.5 -425.5z" />
<glyph unicode="&#x153;" horiz-adv-x="2301" d="M92 512q0 242 153.5 392.5t420.5 150.5q175 0 299 -65t192 -183q67 121 193.5 184.5t294.5 63.5q258 0 402 -128.5t144 -367.5v-84h-956q4 -180 115.5 -279.5t308.5 -99.5q298 0 399 230l123 -54q-131 -303 -528 -303q-175 0 -302.5 62.5t-195.5 181.5 q-68 -116 -192 -180t-297 -64q-265 0 -419.5 151t-154.5 392zM246 512q0 -192 111 -304t309 -112q199 0 309 111.5t110 304.5q0 191 -111 303.5t-308 112.5q-198 0 -309 -112t-111 -304zM1235 592h807v10q0 161 -110 249.5t-290 88.5q-182 0 -291.5 -93t-115.5 -255z" />
<glyph unicode="&#x178;" horiz-adv-x="1396" d="M4 1454h191l444 -655q46 -68 55 -97h4q14 34 56 97l448 655h191l-615 -891v-563h-164v563zM346 1548v203h176v-203h-176zM877 1548v203h176v-203h-176z" />
<glyph unicode="&#x2c6;" horiz-adv-x="1228" d="M70 1188l276 299h160l276 -299h-145l-211 227l-211 -227h-145z" />
<glyph unicode="&#x2dc;" horiz-adv-x="1228" d="M109 1235q15 107 77.5 167t161.5 60q58 0 109.5 -23t83.5 -50.5t74.5 -50.5t84.5 -23q108 0 129 129l107 -17q-15 -106 -78 -165.5t-164 -59.5q-57 0 -108.5 23t-83.5 50t-74.5 50t-83.5 23q-106 0 -131 -129z" />
<glyph unicode="&#x2000;" horiz-adv-x="959" />
<glyph unicode="&#x2001;" horiz-adv-x="1919" />
<glyph unicode="&#x2002;" horiz-adv-x="959" />
<glyph unicode="&#x2003;" horiz-adv-x="1919" />
<glyph unicode="&#x2004;" horiz-adv-x="639" />
<glyph unicode="&#x2005;" horiz-adv-x="479" />
<glyph unicode="&#x2006;" horiz-adv-x="319" />
<glyph unicode="&#x2007;" horiz-adv-x="319" />
<glyph unicode="&#x2008;" horiz-adv-x="239" />
<glyph unicode="&#x2009;" horiz-adv-x="383" />
<glyph unicode="&#x200a;" horiz-adv-x="106" />
<glyph unicode="&#x2010;" horiz-adv-x="1003" d="M115 502v135h774v-135h-774z" />
<glyph unicode="&#x2011;" horiz-adv-x="1003" d="M115 502v135h774v-135h-774z" />
<glyph unicode="&#x2012;" horiz-adv-x="1003" d="M115 502v135h774v-135h-774z" />
<glyph unicode="&#x2013;" horiz-adv-x="1302" d="M115 512v115h1073v-115h-1073z" />
<glyph unicode="&#x2014;" horiz-adv-x="1880" d="M115 512v115h1650v-115h-1650z" />
<glyph unicode="&#x2018;" horiz-adv-x="548" d="M168 971v215q0 120 39 187t135 106l41 -78q-69 -31 -93 -74t-24 -117v-4h113v-235h-211z" />
<glyph unicode="&#x2019;" horiz-adv-x="548" d="M166 1024q69 31 93 74t24 116v5h-113v235h211v-215q0 -120 -39 -187t-135 -106z" />
<glyph unicode="&#x201a;" horiz-adv-x="548" d="M166 -195q69 31 93 74t24 117v4h-113v236h211v-216q0 -120 -39 -186.5t-135 -105.5z" />
<glyph unicode="&#x201c;" horiz-adv-x="876" d="M168 973v215q0 120 39 187t135 106l41 -78q-69 -31 -93 -74t-24 -117v-4h113v-235h-211zM496 973v215q0 120 39 187t135 106l41 -78q-69 -31 -93 -74t-24 -117v-4h113v-235h-211z" />
<glyph unicode="&#x201d;" horiz-adv-x="876" d="M166 1024q69 31 93 74t24 116v5h-113v235h211v-215q0 -120 -39 -187t-135 -106zM494 1024q68 31 92 73.5t24 116.5v5h-112v235h211v-215q0 -120 -39 -187t-135 -106z" />
<glyph unicode="&#x201e;" horiz-adv-x="876" d="M166 -195q69 31 93 74t24 117v4h-113v236h211v-216q0 -120 -39 -186.5t-135 -105.5zM494 -195q68 31 92 74t24 117v4h-112v236h211v-216q0 -120 -39 -186.5t-135 -105.5z" />
<glyph unicode="&#x2022;" horiz-adv-x="667" d="M168 707q0 74 46.5 119.5t117.5 45.5q73 0 119.5 -45t46.5 -120q0 -71 -46.5 -115.5t-119.5 -44.5q-71 0 -117.5 44.5t-46.5 115.5z" />
<glyph unicode="&#x2026;" horiz-adv-x="1769" d="M168 0v221h209v-221h-209zM780 0v221h209v-221h-209zM1391 0v221h208v-221h-208z" />
<glyph unicode="&#x202f;" horiz-adv-x="383" />
<glyph unicode="&#x2039;" horiz-adv-x="704" d="M74 563l413 426h164l-403 -426l399 -426h-166z" />
<glyph unicode="&#x203a;" horiz-adv-x="704" d="M53 989h164l414 -426l-408 -426h-166l400 426z" />
<glyph unicode="&#x205f;" horiz-adv-x="479" />
<glyph unicode="&#x20ac;" horiz-adv-x="1591" d="M23 537v104h151q-4 58 -4 90q0 30 4 88h-151v105h165q51 250 233 393t486 143q428 0 602 -305l-135 -78q-140 248 -477 248q-229 0 -367 -105t-182 -296h821v-105h-837q-4 -58 -4 -86q0 -30 4 -92h837v-104h-821q47 -204 189 -321.5t364 -117.5q153 0 281.5 66t206.5 201 l124 -70q-84 -158 -243 -245t-373 -87q-156 0 -282 43.5t-212 122t-140 181t-77 227.5h-163z" />
<glyph unicode="&#x2122;" horiz-adv-x="1972" d="M10 1362v98h778v-98h-339v-733h-115v733h-324zM881 629v831h166l262 -606q35 -77 49 -133h6q14 56 49 133l262 606h164v-831h-106v600q0 84 4 135h-4q-7 -22 -14.5 -41.5t-18 -42t-17.5 -41.5l-268 -610h-110l-265 610q-32 70 -51 125h-2q4 -51 4 -135v-600h-110z" />
<glyph unicode="&#x25fc;" horiz-adv-x="1024" d="M0 0v1024h1024v-1024h-1024z" />
</font>
</defs>
</svg>
