<?xml version="1.0" standalone="no"?>
<!DOCTYPE svg PUBLIC "-//W3C//DTD SVG 1.1//EN" "http://www.w3.org/Graphics/SVG/1.1/DTD/svg11.dtd" >
<svg xmlns="http://www.w3.org/2000/svg" xmlns:xlink="http://www.w3.org/1999/xlink" version="1.1">
<metadata></metadata>
<defs>
<font id="gt_americaExMdIt" horiz-adv-x="1769" >
<font-face units-per-em="2048" ascent="1638" descent="-410" />
<missing-glyph horiz-adv-x="655" />
<glyph unicode="&#xfb01;" horiz-adv-x="1540" d="M96 838l33 186h238l20 115q67 362 432 362q113 0 232 -35l-37 -196q-72 26 -166 26q-99 0 -143 -42.5t-58 -131.5l-16 -98h338l-33 -186h-338l-147 -838h-267l150 838h-238zM1008 0l182 1024h264l-182 -1024h-264zM1206 1194l47 264h289l-47 -264h-289z" />
<glyph unicode="&#xfb02;" horiz-adv-x="1558" d="M96 838l33 186h238l20 115q67 362 432 362q113 0 232 -35l-37 -196q-72 26 -166 26q-99 0 -143 -42.5t-58 -131.5l-16 -98h338l-33 -186h-338l-147 -838h-267l150 838h-238zM1018 0l262 1485h264l-262 -1485h-264z" />
<glyph horiz-adv-x="0" />
<glyph horiz-adv-x="0" />
<glyph horiz-adv-x="682" />
<glyph unicode="&#xd;" horiz-adv-x="0" />
<glyph unicode=" "  horiz-adv-x="655" />
<glyph unicode="&#x09;" horiz-adv-x="655" />
<glyph unicode="&#xa0;" horiz-adv-x="655" />
<glyph unicode="!" horiz-adv-x="716" d="M111 0l47 266h315l-47 -266h-315zM240 432l133 1053h315l-239 -1053h-209z" />
<glyph unicode="&#x22;" horiz-adv-x="962" d="M250 860l61 594h269l-148 -594h-182zM653 860l62 594h268l-147 -594h-183z" />
<glyph unicode="#" horiz-adv-x="1396" d="M41 389v178h278l56 289h-252v178h285l73 387h215l-73 -387h325l74 387h215l-74 -387h252v-178h-285l-55 -289h271v-178h-306l-73 -389h-215l73 389h-325l-74 -389h-215l74 389h-244zM535 567h325l55 289h-325z" />
<glyph unicode="$" horiz-adv-x="1482" d="M6 354l244 92q65 -233 362 -270l80 457l-61 10q-424 76 -424 393q0 67 19.5 127t66.5 115t117.5 95t179 63.5t244.5 23.5h6l30 176h131l-32 -182q197 -22 331 -103.5t179 -232.5l-224 -104q-66 202 -321 241l-74 -417l103 -17q209 -38 314 -132.5t105 -268.5 q0 -75 -20.5 -140t-69 -124.5t-122.5 -101t-188.5 -66.5t-260.5 -25h-14l-31 -178h-133l32 184q-228 24 -376 120t-193 265zM473 1061q0 -85 62 -131t198 -70l72 404q-332 -5 -332 -203zM743 168q184 0 277.5 54.5t93.5 170.5q0 96 -62 144t-192 71l-39 6z" />
<glyph unicode="%" horiz-adv-x="2013" d="M139 1034q0 62 16 121.5t51.5 116t87.5 99t130 68t172 25.5q77 0 145.5 -18t128 -55t94.5 -103.5t35 -154.5q0 -78 -26.5 -152t-79.5 -137.5t-144 -102.5t-208 -39q-59 0 -113.5 10t-108 35t-93 62t-63.5 95t-24 130zM240 -35l1392 1505h217l-1392 -1505h-217zM350 1044 q0 -96 56.5 -138t136.5 -42q64 0 113.5 24t77 63t41 82.5t13.5 88.5q0 50 -17 87t-46 56.5t-61 28.5t-68 9q-64 0 -113 -24t-77 -63.5t-42 -83t-14 -88.5zM1083 289q0 62 16 121.5t51.5 116t87.5 99t130 68t172 25.5q76 0 145 -18t128.5 -55t95 -104t35.5 -155 q0 -62 -16 -121.5t-52 -116t-88 -99t-130.5 -68t-172.5 -25.5q-59 0 -113.5 10t-108 35t-93 62t-63.5 95t-24 130zM1294 299q0 -96 56.5 -138t136.5 -42q64 0 113.5 24t77.5 63t41.5 82.5t13.5 88.5q0 96 -56.5 138t-136.5 42q-64 0 -113 -24t-77 -63t-42 -82.5t-14 -88.5z " />
<glyph unicode="&#x26;" horiz-adv-x="1572" d="M16 350q0 141 94 251t306 190q-127 176 -127 333q0 54 13 105.5t45.5 103t82 90t129.5 62.5t180 24q79 0 149.5 -15t136.5 -49t105 -100t39 -157q0 -43 -9 -84.5t-35.5 -92t-69 -94.5t-116 -90t-169.5 -82l-8 -2l317 -362q132 162 203 438l209 -37q-78 -332 -272 -544 q71 -50 157 -50q58 0 111 15l-35 -201q-67 -25 -149 -25q-149 0 -271 107q-197 -125 -471 -125q-76 0 -145.5 9.5t-144.5 36t-129.5 68.5t-90 113t-35.5 164zM295 385q0 -56 21 -98.5t52.5 -66.5t75 -39t81.5 -20t79 -5q164 0 297 73l-373 428q-130 -56 -181.5 -123 t-51.5 -149zM541 1141q0 -120 112 -269q271 103 271 283q0 53 -16.5 90t-44.5 56.5t-59 27.5t-67 8q-60 0 -101.5 -19.5t-60.5 -52.5t-26.5 -62.5t-7.5 -61.5z" />
<glyph unicode="'" horiz-adv-x="559" d="M250 860l61 594h269l-148 -594h-182z" />
<glyph unicode="(" horiz-adv-x="751" d="M145 532q0 158 35 301.5t88.5 251t134 208.5t155 170.5t167.5 140.5l174 -129q-66 -56 -114 -101t-103.5 -104.5t-94 -114t-76.5 -125t-61 -143.5t-37 -162.5t-14 -187.5q0 -186 47.5 -351t167.5 -370l-206 -103q-263 378 -263 819z" />
<glyph unicode=")" horiz-adv-x="751" d="M-96 -160q66 56 114 101t103.5 104.5t94 114t76 125t60.5 143.5t37 162.5t14 187.5q0 186 -47.5 351t-167.5 370l207 103q262 -376 262 -820q0 -158 -35 -301.5t-88.5 -251t-133.5 -208.5t-154.5 -170t-167.5 -140z" />
<glyph unicode="*" horiz-adv-x="770" d="M152 1165l96 189l209 -127l-6 254h208l-92 -254l252 127l29 -193l-264 -37l161 -182l-184 -123l-76 246l-163 -246l-146 127l223 178z" />
<glyph unicode="+" horiz-adv-x="1273" d="M113 582l34 186h428l68 381h209l-68 -381h435l-33 -186h-432l-72 -406h-211l72 406h-430z" />
<glyph unicode="," horiz-adv-x="602" d="M37 -188q151 28 176 170l4 18h-162l51 297h314l-53 -293q-47 -264 -301 -311z" />
<glyph unicode="-" horiz-adv-x="1009" d="M92 461l39 217h807l-39 -217h-807z" />
<glyph unicode="." horiz-adv-x="606" d="M55 0l49 285h318l-49 -285h-318z" />
<glyph unicode="/" horiz-adv-x="1161" d="M-45 -240l1053 1796h247l-1050 -1796h-250z" />
<glyph unicode="0" horiz-adv-x="1562" d="M125 590q0 80 11 161t37.5 168t66 164.5t100.5 147.5t136.5 121t179 80.5t223.5 29.5q99 0 187.5 -19t170.5 -65.5t140.5 -117t94 -179.5t35.5 -247q0 -80 -11 -161t-37.5 -168t-65.5 -165t-100 -148t-136.5 -120.5t-179 -80.5t-223.5 -30q-70 0 -135 9.5t-129 32 t-118 56.5t-100 84.5t-78.5 114t-50.5 148.5t-18 184zM403 575q0 -91 20.5 -162t54 -115.5t80 -73.5t94.5 -40.5t102 -11.5q105 0 189.5 44.5t136.5 114t87 161.5t48.5 180t13.5 176q0 112 -30.5 194t-82.5 125.5t-111.5 63.5t-127.5 20q-105 0 -189 -44.5t-136 -114 t-87 -161.5t-48.5 -180t-13.5 -176z" />
<glyph unicode="1" horiz-adv-x="931" d="M133 942l41 236h59q294 0 392 245h229l-252 -1423h-268l182 1042q-81 -100 -291 -100h-92z" />
<glyph unicode="2" horiz-adv-x="1378" d="M-16 0l34 205q205 86 404 187t321 181q150 96 233 200.5t83 236.5q0 71 -26 120.5t-71 74t-91.5 34.5t-100.5 10q-94 0 -161 -26.5t-101.5 -73t-49.5 -97.5t-16 -112q-3 -28 2 -66l-272 27q-4 40 -4 74q2 57 16 112t43 111t78.5 102.5t115.5 83.5t161 57.5t209 20.5 q85 0 161.5 -11.5t151 -41.5t128.5 -75.5t87 -119t33 -167.5q0 -95 -31 -178.5t-91.5 -155.5t-127.5 -129t-162 -121q-198 -127 -475 -242h764l-37 -221h-1208z" />
<glyph unicode="3" horiz-adv-x="1419" d="M55 426l277 27q8 -71 34 -124t60.5 -83t82 -48t90.5 -24t95 -6q87 0 151.5 20t101 56t54 78.5t17.5 93.5q0 219 -301 219h-119l35 188h145q157 0 233 64t76 168q0 60 -26.5 101.5t-72.5 62t-92.5 28.5t-102.5 8q-325 0 -359 -299l-260 39q27 213 187 340t440 127 q83 0 158 -9.5t153 -35t133.5 -66t91 -107.5t35.5 -154q0 -147 -103.5 -244.5t-271.5 -118.5q303 -51 303 -315q0 -88 -35 -166t-105.5 -143t-190 -103.5t-273.5 -38.5q-97 0 -182 12t-170 44.5t-145.5 83.5t-100.5 134t-43 191z" />
<glyph unicode="4" horiz-adv-x="1392" d="M-8 338l33 178l946 907h295l-158 -888h264l-35 -197h-264l-59 -338h-264l59 338h-817zM301 535h547l96 489q26 139 41 197h-6q-45 -73 -143 -168l-371 -367q-107 -107 -164 -151z" />
<glyph unicode="5" horiz-adv-x="1394" d="M63 369l277 37q47 -236 326 -236q83 0 148 20.5t104 53.5t64 79t34.5 90.5t9.5 94.5q0 77 -24.5 132.5t-67.5 84.5t-91.5 42t-105.5 13q-136 0 -218 -55.5t-132 -157.5l-246 23l238 833h999l-39 -213h-802l-125 -419q55 86 163 137t246 51q66 0 128.5 -11t129 -42 t115 -78.5t80 -127.5t31.5 -183q0 -87 -20.5 -167t-69 -156t-120.5 -131t-183.5 -88.5t-249.5 -33.5q-83 0 -159.5 11.5t-153 41t-134.5 74.5t-99.5 117t-52.5 164z" />
<glyph unicode="6" horiz-adv-x="1447" d="M123 596q0 84 11 167t37 169.5t65 163t99 144.5t135.5 116.5t178.5 77t223 28.5q74 0 143 -10.5t141 -37.5t128 -69t97.5 -110.5t54.5 -155.5l-273 -45q-49 223 -299 223q-86 -1 -157.5 -27t-122.5 -70.5t-89 -108t-60.5 -135.5t-33.5 -156q68 100 183.5 150.5 t255.5 50.5q81 0 155 -16t140.5 -51.5t115 -87.5t77 -129.5t28.5 -172.5q0 -85 -23.5 -163.5t-73.5 -148t-122 -121t-175 -81t-225 -29.5q-96 0 -180 17.5t-165.5 63t-139.5 115.5t-93.5 182.5t-35.5 256.5zM389 537q5 -87 28.5 -153.5t57.5 -106.5t80.5 -65.5t91 -34.5 t94.5 -9q76 0 136 20t97.5 52t62 76t34.5 87.5t10 90.5q0 63 -18.5 111t-48 77t-71 47.5t-81.5 25.5t-84 7q-131 0 -231.5 -57.5t-157.5 -167.5z" />
<glyph unicode="7" horiz-adv-x="1222" d="M162 1198l41 225h1151l-37 -202q-339 -221 -537 -516.5t-241 -634.5l-9 -70h-301l7 43q47 326 245 623.5t541 531.5h-860z" />
<glyph unicode="8" horiz-adv-x="1449" d="M55 356q0 144 98 245.5t293 135.5q-98 44 -158.5 122t-60.5 192q0 60 17.5 116t61.5 110.5t109.5 94.5t169.5 65t234 25q86 0 166.5 -11t160 -38t138 -67.5t95 -104.5t36.5 -145q0 -125 -86.5 -212t-263.5 -120q134 -50 208.5 -133t74.5 -217q0 -90 -35 -168t-109 -143.5 t-205 -103.5t-307 -38q-94 0 -181.5 12t-171.5 41t-146 73t-100 113.5t-38 155.5zM344 399q0 -68 31.5 -117t86 -74.5t115 -36.5t132.5 -11q102 0 175 20.5t111 55.5t55 74.5t17 86.5q0 95 -67.5 151.5t-190.5 86.5l-160 39q-156 -30 -230.5 -101.5t-74.5 -173.5zM502 1067 q0 -49 21 -87.5t59 -63t73 -38.5t82 -26l142 -35q145 35 202.5 97t57.5 145q0 65 -30.5 111t-81 68t-99.5 31t-103 9q-79 0 -139 -14.5t-94 -36t-55.5 -51t-28 -55.5t-6.5 -54z" />
<glyph unicode="9" horiz-adv-x="1458" d="M88 358l270 48q10 -69 44 -118.5t82.5 -74t95.5 -35t98 -10.5q94 0 169.5 32.5t123.5 83.5t82.5 123.5t51.5 143t25 151.5q-159 -188 -430 -188q-81 0 -156.5 16t-144.5 50.5t-120 85t-81 125.5t-30 165q0 74 18.5 143.5t64 136.5t113.5 116t175 79.5t241 30.5 q97 0 181.5 -17t167.5 -61t141.5 -114t94.5 -183.5t36 -261.5q0 -52 -3 -103.5t-13.5 -118t-27 -127t-45.5 -126.5t-67 -121t-94.5 -105.5t-124.5 -85.5t-160.5 -56t-199.5 -21q-79 0 -152.5 11.5t-148 40t-131.5 72t-96.5 114t-49.5 159.5zM444 967q0 -70 26 -121.5t71 -79 t98 -40.5t115 -13q133 0 230 58.5t155 156.5q-7 80 -32 140.5t-59 96.5t-79.5 58.5t-88.5 30.5t-92 8q-80 0 -142.5 -18.5t-99.5 -48t-61 -69.5t-32.5 -78.5t-8.5 -80.5z" />
<glyph unicode=":" horiz-adv-x="606" d="M55 0l49 285h318l-49 -285h-318zM184 739l49 285h318l-49 -285h-318z" />
<glyph unicode=";" horiz-adv-x="618" d="M53 -188q151 28 176 170l4 18h-161l51 297h313l-53 -293q-47 -264 -301 -311zM184 739l49 285h318l-49 -285h-318z" />
<glyph unicode="&#x3c;" horiz-adv-x="1531" d="M326 575l32 185l1112 416l-36 -218l-848 -303l741 -301l-37 -194z" />
<glyph unicode="=" horiz-adv-x="1263" d="M78 383l33 190h1063l-33 -190h-1063zM147 774l33 191h1063l-33 -191h-1063z" />
<glyph unicode="&#x3e;" horiz-adv-x="1531" d="M117 160l37 217l847 303l-741 301l37 195l965 -416l-33 -185z" />
<glyph unicode="?" horiz-adv-x="1269" d="M133 1038q0 64 18 126.5t63 126t113 111t178 77.5t247 30q87 0 165 -11.5t154 -40.5t130.5 -73t88 -113t33.5 -157q0 -99 -42.5 -179t-109 -133.5t-163.5 -99.5l-144 -65q-68 -32 -96.5 -75.5t-38.5 -110.5l-10 -54h-258l12 80q16 104 64 173t149 114l162 70 q103 48 146.5 108t43.5 141q0 62 -25.5 106.5t-69.5 68.5t-93 34.5t-105 10.5q-82 0 -144.5 -18.5t-100 -47t-61 -69.5t-32 -80t-8.5 -84q0 -42 7 -82l-267 26q-6 25 -6 90zM369 0l45 266h311l-47 -266h-309z" />
<glyph unicode="@" horiz-adv-x="1908" d="M82 510q0 87 15 171.5t48.5 169t84 158.5t126.5 138.5t170.5 110t220.5 72t273 26.5q132 0 249.5 -21.5t226.5 -72.5t187 -128t125 -197t47 -271q0 -110 -25 -203.5t-74 -166.5t-130 -115t-186 -42q-114 0 -178.5 46.5t-75.5 131.5q-60 -88 -161 -139t-226 -51 q-61 0 -115.5 12.5t-104 39.5t-79 78t-29.5 120q0 118 94 192.5t303 85.5l340 19l4 35q5 52 -7.5 88t-40 55t-61 27t-77.5 8q-65 0 -110.5 -13t-68.5 -37t-34 -46.5t-16 -51.5h-230q12 60 41 111.5t81 96.5t139 71t200 26q444 0 383 -405l-31 -199q-12 -80 10 -119.5 t89 -39.5q62 0 107.5 34t70 90.5t36 119.5t11.5 132q0 112 -28.5 203t-80 152t-115.5 104t-143.5 66.5t-155 34t-157.5 10.5q-128 0 -237 -23.5t-188 -63t-142 -95.5t-103 -118t-66 -133t-37 -138t-11 -136q0 -128 39 -231.5t103.5 -171t151 -113t177 -65t186.5 -19.5 q215 0 416 66l37 -119q-199 -80 -447 -80q-124 0 -239 24.5t-222 80t-186 137t-126.5 205.5t-47.5 276zM707 399q0 -116 157 -116q121 0 209 61.5t105 161.5l8 49l-277 -16q-202 -12 -202 -140z" />
<glyph unicode="A" horiz-adv-x="1656" d="M-57 0l891 1454h321l379 -1454h-283l-80 354h-712l-205 -354h-311zM578 561h546l-100 447q-39 130 -49 233h-6q-42 -95 -133 -233z" />
<glyph unicode="B" horiz-adv-x="1611" d="M104 0l258 1454h752q210 0 331.5 -87t121.5 -259q0 -148 -90 -241t-252 -124q122 -20 193 -98t71 -215q0 -89 -32 -164.5t-97 -136t-177 -95t-261 -34.5h-818zM426 209h465q309 0 309 233q0 105 -63 152t-191 47h-444zM537 842h438q83 0 142.5 18t91.5 50.5t46.5 70 t14.5 82.5q0 182 -223 182h-439z" />
<glyph unicode="C" horiz-adv-x="1679" d="M104 627q0 90 15 178t48 174.5t82 162.5t120.5 141t159.5 112t203.5 73.5t248.5 26.5q109 0 205 -17.5t183.5 -57.5t153 -100t109 -150t54.5 -203l-293 -43q-21 179 -135 261.5t-289 82.5q-123 0 -222 -38.5t-161.5 -101t-104 -145.5t-58.5 -167t-17 -171 q0 -108 26 -190.5t67.5 -132t100.5 -80.5t118.5 -42.5t129.5 -11.5q357 0 471 330l278 -55q-84 -237 -270 -370.5t-485 -133.5q-122 0 -228.5 22t-201.5 72t-162.5 126t-106.5 190t-39 258z" />
<glyph unicode="D" horiz-adv-x="1724" d="M104 0l256 1454h607q122 0 227 -21t198.5 -69.5t159.5 -121t104 -182t38 -247.5q0 -128 -32 -244.5t-103 -221t-175 -181t-258 -121.5t-342 -45h-680zM426 213h358q115 0 210 24t160 67.5t113 98.5t75.5 122t40 133.5t12.5 136.5q0 99 -25 177t-66 128t-99 82.5 t-120 45.5t-133 13h-346z" />
<glyph unicode="E" horiz-adv-x="1482" d="M104 0l256 1454h1143l-37 -217h-860l-69 -389h825l-37 -211h-825l-74 -420h874l-38 -217h-1158z" />
<glyph unicode="F" horiz-adv-x="1417" d="M104 0l256 1454h1143l-37 -219h-860l-69 -393h823l-37 -217h-823l-111 -625h-285z" />
<glyph unicode="G" horiz-adv-x="1728" d="M102 610q0 107 21.5 210t65 203.5t116 185t167.5 149t228 101t289 36.5q284 0 469 -117.5t225 -339.5l-297 -49q-28 146 -137.5 216.5t-275.5 70.5q-124 0 -223.5 -39t-164 -102.5t-107.5 -149.5t-61 -175.5t-18 -184.5q0 -123 33 -212t94 -139t136.5 -73t171.5 -23 q114 0 208.5 32.5t156 86.5t99 117t50.5 131l6 33h-484l35 206h746l-140 -784h-208l20 236q-72 -130 -216.5 -203.5t-342.5 -73.5q-109 0 -205 22.5t-180.5 73t-145.5 125t-96 184.5t-35 246z" />
<glyph unicode="H" d="M104 0l256 1454h285l-106 -604h811l106 604h285l-256 -1454h-285l113 631h-813l-111 -631h-285z" />
<glyph unicode="I" horiz-adv-x="673" d="M104 0l256 1454h285l-256 -1454h-285z" />
<glyph unicode="J" horiz-adv-x="925" d="M-53 2l43 238q111 -27 198 -27q124 0 195.5 57.5t95.5 192.5l174 991h283l-184 -1044q-22 -123 -70.5 -210t-121 -137t-157.5 -72t-192 -22q-136 0 -264 33z" />
<glyph unicode="K" horiz-adv-x="1630" d="M104 0l256 1454h285l-123 -696l840 696h350l-680 -563l469 -891h-323l-369 709l-344 -279l-76 -430h-285z" />
<glyph unicode="L" horiz-adv-x="1333" d="M104 0l256 1454h285l-215 -1223h807l-41 -231h-1092z" />
<glyph unicode="M" horiz-adv-x="2088" d="M104 0l256 1454h400l213 -1028q14 -85 14 -145h4q13 38 70 147l571 1026h428l-256 -1454h-260l187 1053q16 92 41 176h-9q-27 -75 -84 -170l-600 -1059h-262l-227 1059q-14 79 -19 170h-8q-3 -70 -22 -176l-185 -1053h-252z" />
<glyph unicode="N" horiz-adv-x="1763" d="M104 0l256 1454h314l520 -962q44 -83 82 -177h4q11 80 33 197l166 942h256l-256 -1454h-295l-535 975q-55 99 -82 172h-6q-16 -112 -31 -195l-168 -952h-258z" />
<glyph unicode="O" d="M104 629q0 89 15 176t48 173t81.5 162t120 141.5t159.5 112.5t204 74t249 27q123 0 232.5 -22.5t207.5 -73.5t169 -127t112 -190.5t41 -256.5q0 -89 -15 -176t-48 -173t-82 -162t-120.5 -141.5t-159.5 -112.5t-203.5 -74t-248.5 -27q-123 0 -232.5 22.5t-207.5 73.5 t-169 127t-112 190.5t-41 256.5zM403 641q0 -103 26.5 -184t70.5 -132t105.5 -84t126 -46t136.5 -13q125 0 225.5 38.5t164.5 101t107 146.5t61 169.5t18 175.5q0 103 -27 184t-71 132t-106 84t-126 46t-137 13q-125 0 -225 -38.5t-164 -101t-107 -146.5t-60.5 -169.5 t-17.5 -175.5z" />
<glyph unicode="P" horiz-adv-x="1513" d="M104 0l258 1454h658q83 0 157 -11.5t145.5 -41.5t122.5 -75.5t82.5 -119.5t31.5 -168q0 -76 -19 -145.5t-65 -135.5t-115 -114t-177 -77t-243 -29h-457l-94 -537h-285zM520 745h373q87 0 153 17.5t105.5 44.5t64 65t33 74t8.5 76q0 64 -21 109t-60.5 68.5t-86 33.5 t-106.5 10h-375z" />
<glyph unicode="Q" horiz-adv-x="1775" d="M104 629q0 89 15 176t48 173t81.5 162t120 141.5t159.5 112.5t204 74t249 27q123 0 232.5 -22.5t207.5 -73.5t169 -127t112 -190.5t41 -256.5q0 -125 -30.5 -245t-92 -230.5t-167 -199.5t-243.5 -138q80 -94 254 -94q71 0 140 14l-41 -229q-71 -12 -133 -12 q-349 0 -449 274q-55 -6 -115 -6q-123 0 -232.5 22.5t-207.5 73.5t-169 127t-112 190.5t-41 256.5zM403 641q0 -103 26.5 -184t70.5 -132t105.5 -84t126 -46t136.5 -13q125 0 225.5 38.5t164.5 101t107 146.5t61 169.5t18 175.5q0 103 -27 184t-71 132t-106 84t-126 46 t-137 13q-125 0 -225 -38.5t-164 -101t-107 -146.5t-60.5 -169.5t-17.5 -175.5z" />
<glyph unicode="R" horiz-adv-x="1591" d="M104 0l258 1454h687q86 0 160 -13t140 -43t113 -75.5t74 -115t27 -156.5q0 -168 -98 -290.5t-310 -164.5l268 -596h-319l-248 569h-367l-100 -569h-285zM526 774h389q96 0 166 22t107.5 60.5t54.5 83.5t17 98q0 205 -252 205h-400z" />
<glyph unicode="S" horiz-adv-x="1507" d="M12 385l252 104q75 -313 496 -313q354 0 354 227q0 89 -54 129t-179 62l-244 43q-430 76 -430 405q0 72 20.5 136.5t68.5 123.5t120.5 101t183 67t248.5 25q122 0 226 -20t194 -62.5t153.5 -115.5t91.5 -173l-231 -114q-43 146 -154 210t-290 64q-96 0 -165.5 -18 t-106.5 -50t-53.5 -68t-16.5 -79q0 -83 60.5 -128.5t184.5 -68.5l244 -41q102 -19 175.5 -48.5t131 -76t86.5 -116.5t29 -164q0 -77 -20 -143t-68 -126.5t-122.5 -103.5t-190 -68.5t-263.5 -25.5q-201 0 -352 44t-251 140.5t-128 241.5z" />
<glyph unicode="T" horiz-adv-x="1374" d="M145 1227l39 227h1338l-41 -227h-525l-217 -1227h-284l217 1227h-527z" />
<glyph unicode="U" horiz-adv-x="1687" d="M178 649l144 805h284l-149 -829q-11 -62 -11 -115q0 -136 72 -212q100 -106 301 -105q89 0 159.5 21t117.5 55.5t81.5 87.5t54 110t32.5 129l151 858h285l-162 -905q-103 -590 -735 -590q-166 0 -293.5 41t-213.5 123.5t-118 216.5q-16 67 -15 145q0 77 15 164z" />
<glyph unicode="V" horiz-adv-x="1531" d="M170 1454h297l219 -1030q19 -117 19 -174h8q27 73 80 174l583 1030h318l-854 -1454h-328z" />
<glyph unicode="W" horiz-adv-x="2242" d="M211 1454h285l82 -1065q4 -40 4 -69q0 -21 -2 -37h6q13 41 45 106l508 1065h288l132 -1065q7 -47 7 -83q0 -12 -1 -23h6q7 28 41 106l459 1065h292l-669 -1454h-326l-123 1053q-4 33 -4 60q0 19 2 36h-10q-6 -33 -37 -96l-494 -1053h-333z" />
<glyph unicode="X" horiz-adv-x="1589" d="M-70 0l734 758l-441 696h328l266 -448q26 -41 43 -86h4q18 29 72 86l416 448h340l-680 -709l467 -745h-332l-285 479q-6 11 -14.5 27t-12.5 23t-9 17.5t-8 19t-5 18.5h-4q-23 -33 -86 -103l-447 -481h-346z" />
<glyph unicode="Y" horiz-adv-x="1466" d="M160 1454h305l272 -608q23 -60 25 -86h4q15 36 55 86l492 608h325l-759 -917l-95 -537h-284l94 537z" />
<glyph unicode="Z" horiz-adv-x="1439" d="M-2 0l39 215l1089 1022h-878l39 217h1229l-39 -213l-1090 -1024h946l-39 -217h-1296z" />
<glyph unicode="[" horiz-adv-x="770" d="M63 -240l318 1796h524l-35 -188h-284l-250 -1419h285l-33 -189h-525z" />
<glyph unicode="\" horiz-adv-x="1796" d="M274 1556h248l1053 -1796h-250z" />
<glyph unicode="]" horiz-adv-x="770" d="M-84 -240l35 189h285l249 1419h-284l32 188h525l-318 -1796h-524z" />
<glyph unicode="^" horiz-adv-x="1007" d="M111 905l452 547h213l260 -547h-211l-168 375l-301 -375h-245z" />
<glyph unicode="_" horiz-adv-x="1097" d="M-152 -344l29 160h1098l-29 -160h-1098z" />
<glyph unicode="`" horiz-adv-x="1228" d="M193 1487h284l311 -309h-229z" />
<glyph unicode="a" horiz-adv-x="1374" d="M51 268q0 145 109 230q125 96 385 110l432 21l6 37q3 20 3 39q0 75 -50 117q-62 52 -199 52q-267 0 -305 -186h-272q31 177 178 272t399 95q284 0 412 -114q96 -86 96 -244q0 -52 -10 -111l-45 -258q-31 -178 -31 -306v-22h-264q0 79 14 186q-135 -217 -448 -217 q-189 0 -299.5 76t-110.5 223zM330 293q0 -77 58.5 -112.5t158.5 -35.5q167 0 271.5 80.5t127.5 206.5l8 53l-338 -16q-153 -9 -219.5 -54t-66.5 -122z" />
<glyph unicode="b" horiz-adv-x="1468" d="M96 0l262 1485h263l-109 -625q66 86 170.5 140.5t239.5 54.5q69 0 133.5 -14t128 -48t110.5 -84.5t76 -130.5t29 -180q0 -86 -20 -171.5t-65.5 -169t-112 -147t-168 -102.5t-224.5 -39q-145 0 -257.5 50.5t-170.5 158.5l-57 -178h-228zM440 516q-10 -44 -10 -84 q0 -98 58 -168q82 -100 249 -100q85 0 153 28.5t109.5 72.5t69.5 101.5t38.5 111.5t10.5 106q0 64 -18 114t-47 80t-68.5 49t-77.5 26t-80 7q-145 0 -245 -76t-125 -196z" />
<glyph unicode="c" horiz-adv-x="1329" d="M72 449q0 86 20 168.5t69 163t121.5 140.5t187 97t257.5 37q83 0 157.5 -12t144 -40.5t122.5 -71.5t89 -108t46 -147l-272 -39q-10 63 -39 108t-71 68t-85.5 33t-93.5 10q-86 0 -154 -26t-108.5 -66.5t-67 -95t-36 -106t-9.5 -105.5q0 -80 25 -137.5t69 -89t95.5 -46 t113.5 -14.5q240 0 318 219l258 -45q-28 -83 -76 -149.5t-119 -118t-171 -79.5t-222 -28q-58 0 -113.5 6.5t-113 22.5t-107 40.5t-93.5 62.5t-75 86.5t-49 115.5t-18 146z" />
<glyph unicode="d" horiz-adv-x="1468" d="M72 434q0 90 21 176.5t68 167.5t114 142t166 98t218 37q143 0 254 -50.5t166 -154.5l111 635h264l-262 -1485h-252l31 186q-60 -100 -169 -158.5t-251 -58.5q-70 0 -135 14.5t-128.5 49t-110.5 86t-76 133t-29 182.5zM350 451q0 -66 18 -117.5t46.5 -83t68.5 -51.5 t80.5 -27.5t85.5 -7.5q151 0 246 83.5t117 203.5l10 55q8 43 8 82q0 44 -10 82q-20 70 -69 110.5t-110 60t-132 19.5q-77 0 -140 -26t-102.5 -68t-67 -97t-38.5 -109.5t-11 -108.5z" />
<glyph unicode="e" horiz-adv-x="1345" d="M72 449q0 89 21.5 173t72 163.5t124 138.5t185.5 95t250 36q87 0 165 -14.5t148.5 -47.5t122 -82t81.5 -122.5t30 -165.5q0 -95 -27 -177h-917q2 -64 22.5 -114t52 -81t75.5 -51t90.5 -28t99.5 -8q128 0 206 44t127 134l195 -96q-154 -277 -539 -277q-56 0 -110.5 6 t-113.5 22t-110.5 39.5t-98 62t-80 87t-53 116t-19.5 147.5zM344 612h670q6 21 6 54q0 58 -26 102.5t-70 69.5t-96 37t-111 12q-157 0 -250.5 -74.5t-122.5 -200.5z" />
<glyph unicode="f" horiz-adv-x="921" d="M96 838l33 186h238l20 115q67 362 432 362q113 0 232 -35l-37 -196q-72 26 -166 26q-99 0 -143 -42.5t-58 -131.5l-16 -98h338l-33 -186h-338l-147 -838h-267l150 838h-238z" />
<glyph unicode="g" horiz-adv-x="1351" d="M-51 -174q0 162 227 217q-119 52 -119 170q0 167 244 229q-119 82 -119 232q0 73 29.5 138.5t90.5 121t169 88.5t250 33q179 0 307 -54q32 93 106 145t185 52q57 0 104 -12l-32 -193q-55 19 -115 19q-110 0 -154 -70q95 -79 95 -211q0 -73 -30 -138.5t-91.5 -121 t-169.5 -88.5t-250 -33q-171 0 -291 47q-92 -26 -92 -96q0 -43 40.5 -61.5t131.5 -20.5l336 -6q89 -2 154.5 -14t123 -40.5t87.5 -83t30 -134.5q0 -371 -690 -371q-124 0 -219.5 12t-174.5 40t-121 79.5t-42 124.5zM178 -119q0 -47 27.5 -78t81.5 -46.5t114 -21t144 -5.5 q399 0 399 161q0 59 -44 82t-134 25l-338 4q-82 0 -143 12q-107 -46 -107 -133zM442 686q0 -51 21.5 -88t58.5 -57t78 -28.5t88 -8.5q73 0 127.5 19.5t83 52t42 68t13.5 75.5q0 51 -21.5 88t-57.5 56.5t-77 28.5t-87 9q-74 0 -129 -19.5t-84 -52t-42.5 -68t-13.5 -75.5z" />
<glyph unicode="h" horiz-adv-x="1462" d="M96 0l262 1485h265l-117 -662q58 103 162 167.5t262 64.5q65 0 121.5 -12t109.5 -40.5t90 -72t59.5 -111t22.5 -153.5q0 -65 -18 -170l-88 -496h-264l90 502q12 74 12 114q0 64 -20.5 111t-56.5 73t-79 38t-94 12q-90 0 -158 -30.5t-110 -86.5t-66.5 -119t-38.5 -143 l-82 -471h-264z" />
<glyph unicode="i" horiz-adv-x="618" d="M86 0l182 1024h264l-182 -1024h-264zM285 1194l47 264h289l-48 -264h-288z" />
<glyph unicode="j" horiz-adv-x="632" d="M-223 -389l37 203q72 -21 116 -21q76 0 113.5 42.5t52.5 137.5l187 1051h266l-195 -1085q-12 -68 -29.5 -120t-48 -97.5t-72.5 -75t-102.5 -46t-138.5 -16.5q-103 0 -186 27zM297 1194l47 264h289l-47 -264h-289z" />
<glyph unicode="k" horiz-adv-x="1368" d="M96 0l262 1485h265l-160 -912l598 451h340l-516 -399l356 -625h-293l-268 487l-268 -194l-52 -293h-264z" />
<glyph unicode="l" horiz-adv-x="636" d="M96 0l262 1485h265l-263 -1485h-264z" />
<glyph unicode="m" horiz-adv-x="2107" d="M86 0l180 1024h256l-35 -203q115 236 373 236q127 0 222.5 -60t121.5 -186q27 50 62 91.5t83.5 77.5t115 56.5t143.5 20.5q53 0 101.5 -9t99.5 -34.5t88 -65.5t61 -107.5t24 -154.5q0 -70 -14 -147l-96 -539h-264l94 526q8 52 8 105q0 118 -58 167.5t-147 49.5 q-243 0 -307 -354l-88 -494h-264l92 514q10 54 10 113q0 64 -17.5 109t-48 68.5t-64.5 33.5t-75 10q-245 0 -305 -352l-88 -496h-264z" />
<glyph unicode="n" horiz-adv-x="1452" d="M86 0l180 1024h256l-39 -217q136 248 435 248q57 0 109 -9.5t107 -36.5t94.5 -69.5t65 -115.5t25.5 -169q0 -86 -16 -170l-86 -485h-265l86 475q15 83 15 129q0 57 -14.5 100.5t-38 70t-57.5 43.5t-68.5 23.5t-75.5 6.5q-299 0 -367 -379l-82 -469h-264z" />
<glyph unicode="o" horiz-adv-x="1386" d="M72 446q0 90 22.5 175t73.5 164.5t125.5 139t187 95t250.5 35.5q88 0 167 -13.5t157 -47.5t134.5 -86.5t91 -137t34.5 -192.5q0 -90 -22.5 -175t-73.5 -164.5t-126 -139t-187.5 -95t-250.5 -35.5q-87 0 -166 13.5t-157 47.5t-134 86.5t-91 137t-35 192.5zM348 453 q0 -79 26.5 -137t73 -90t100.5 -47t118 -15q82 0 148 26.5t107 68t69 96t39 108.5t11 108q0 79 -26.5 137t-72.5 90t-100 47t-118 15q-102 0 -178.5 -39t-117.5 -102t-60 -130t-19 -136z" />
<glyph unicode="p" horiz-adv-x="1460" d="M16 -399l252 1423h256l-35 -186q60 96 166.5 156.5t257.5 60.5q68 0 132.5 -13.5t128 -47.5t110.5 -85t76 -131.5t29 -181.5q0 -86 -20 -171.5t-66 -168.5t-112.5 -146t-168 -102t-223.5 -39q-148 0 -258 47.5t-162 147.5l-98 -563h-265zM430 498q-8 -38 -8 -73 q0 -96 59 -166q80 -95 248 -95q85 0 153 28.5t109.5 72.5t69.5 101.5t38.5 111.5t10.5 106q0 64 -18 114t-47 80t-68.5 49t-78 26t-81.5 7q-152 0 -251 -85.5t-124 -209.5z" />
<glyph unicode="q" horiz-adv-x="1460" d="M72 434q0 90 21 176.5t68 167.5t114 142t167 98t220 37q147 0 260.5 -52t167.5 -153l61 174h223l-252 -1423h-264l103 575q-56 -100 -162.5 -153.5t-243.5 -53.5q-71 0 -137.5 14.5t-130.5 49t-111 86.5t-75.5 133t-28.5 182zM350 451q0 -66 18 -117.5t46.5 -83 t68.5 -51.5t80.5 -27.5t85.5 -7.5q153 0 249 85.5t116 207.5l10 53q6 38 6 72q0 48 -12 89q-21 70 -69 110t-109 59.5t-131 19.5q-77 0 -140 -26t-102.5 -68t-67 -97t-38.5 -109.5t-11 -108.5z" />
<glyph unicode="r" horiz-adv-x="911" d="M86 0l180 1024h242l-49 -285q25 68 57.5 120.5t79 97.5t111.5 69.5t145 24.5q66 0 115 -15l-43 -245q-59 16 -123 16q-131 0 -215 -64q-118 -90 -162 -329l-74 -414h-264z" />
<glyph unicode="s" horiz-adv-x="1239" d="M16 272l197 97q86 -213 405 -213q250 0 250 139q0 51 -30 73t-105 33l-276 35q-314 49 -314 285q0 153 127.5 243.5t378.5 90.5q130 0 234 -24.5t187.5 -84t125.5 -151.5l-188 -107q-27 55 -68 93t-93 57t-103 26.5t-113 7.5q-127 0 -183.5 -32t-56.5 -95q0 -50 33.5 -75 t112.5 -37l282 -39q156 -24 227.5 -93t71.5 -186q0 -76 -29.5 -137t-90.5 -109t-164.5 -74t-243.5 -26q-478 0 -574 303z" />
<glyph unicode="t" horiz-adv-x="948" d="M80 838l33 186h237l45 256l285 102l-66 -358h351l-35 -186h-346l-76 -422q-8 -35 -8 -64q0 -14 2 -28q6 -38 19.5 -62.5t41 -38.5t56 -19t67.5 -5q69 0 135 14l-37 -211q-98 -25 -202 -25q-59 1 -107.5 9.5t-93.5 29.5t-74.5 54.5t-50.5 83.5q-21 48 -22 116v10 q0 64 12 146l73 412h-239z" />
<glyph unicode="u" horiz-adv-x="1433" d="M123 313q0 24 3 55.5t6.5 55t9.5 61.5t8 54l86 485h262l-84 -475q-19 -145 -19 -168q0 -109 64.5 -158t167.5 -49q75 0 135 21.5t99 56t68 86.5t44.5 102.5t27.5 114.5l82 469h265l-181 -1024h-256l39 217q-54 -112 -161.5 -180t-270.5 -68q-57 0 -108.5 8.5t-105.5 31.5 t-92.5 60t-63.5 100t-25 144z" />
<glyph unicode="v" horiz-adv-x="1243" d="M96 1024h277l168 -672q10 -49 18 -127h6q17 42 64 127l403 672h295l-649 -1024h-293z" />
<glyph unicode="w" horiz-adv-x="1857" d="M127 1024h256l86 -698q4 -62 4 -107h4q8 29 43 107l357 698h272l106 -698q9 -70 9 -107h4q14 51 39 107l335 698h269l-529 -1024h-280l-113 684q-5 42 -5 78q0 15 1 29h-6q-15 -53 -43 -105l-352 -686h-289z" />
<glyph unicode="x" horiz-adv-x="1275" d="M-70 0l543 528l-338 496h309l168 -264q39 -63 47 -101h3q20 33 77 101l258 264h318l-508 -500l358 -524h-303l-190 285q-39 59 -49 98h-2q-21 -30 -86 -98l-281 -285h-324z" />
<glyph unicode="y" horiz-adv-x="1241" d="M-72 -389l37 209q76 -27 162 -27q160 0 252 154l31 59l-314 1018h285l178 -684q12 -53 16 -113h7q21 56 51 111l399 686h293l-696 -1126q-51 -83 -101.5 -141t-95.5 -92t-98.5 -52.5t-99.5 -24.5t-109 -6q-105 0 -197 29z" />
<glyph unicode="z" horiz-adv-x="1187" d="M-12 0l32 178l803 656h-659l33 190h985l-29 -174l-801 -657h715l-33 -193h-1046z" />
<glyph unicode="{" horiz-adv-x="784" d="M86 586l31 176q47 1 80.5 10.5t54 23t34.5 40.5t21 52.5t15 69.5l53 297q9 51 23 92t43.5 84.5t71.5 72t109.5 47t153.5 18.5h142l-33 -183h-66q-57 0 -97 -14t-62.5 -40.5t-33.5 -54.5t-18 -67l-41 -239q-22 -121 -74 -194.5t-157 -100.5q66 -22 99 -70.5t34 -108 t-10 -130.5l-45 -248q-4 -39 -4 -67.5t12 -48t25 -32t33.5 -19t39 -9t41.5 -2.5h74l-33 -183h-98q-39 0 -72.5 3t-69.5 10.5t-63 20.5t-53.5 33t-42 48t-27.5 65t-10 84.5t10 106.5l45 252q11 61 10.5 106t-35 71t-110.5 28z" />
<glyph unicode="|" horiz-adv-x="552" d="M53 -240l318 1796h180l-318 -1796h-180z" />
<glyph unicode="}" horiz-adv-x="784" d="M-80 -240l33 183h65q57 0 97 14t62.5 40.5t33.5 54.5t18 67l41 239q11 59 27 103.5t42.5 84t67 66.5t95.5 41q-66 22 -99 70.5t-34 108.5t10 131l45 247q10 56 0.5 93.5t-34.5 55t-52 24t-62 6.5h-73l33 182h98q39 0 72.5 -3t69.5 -10.5t63 -20.5t53.5 -33t42 -48 t27.5 -65t10 -84.5t-10 -106.5l-46 -252q-8 -41 -10 -68t2.5 -54.5t20.5 -44t46.5 -27t76.5 -11.5l-31 -176q-47 -1 -80.5 -10.5t-54 -23t-34.5 -40.5t-21 -52.5t-15 -69.5l-53 -297q-9 -51 -23.5 -92t-44 -84.5t-71.5 -72t-109.5 -47t-153.5 -18.5h-141z" />
<glyph unicode="~" horiz-adv-x="1427" d="M170 506q40 139 137 212t219 73q59 0 110 -16.5t87 -39.5t68.5 -46t71 -39.5t79.5 -16.5q67 0 112.5 34t75.5 111l166 -35q-38 -139 -136 -211.5t-220 -72.5q-59 0 -110 16t-87 39.5t-68.5 46.5t-71 39t-79.5 16q-66 0 -112 -33.5t-76 -109.5z" />
<glyph unicode="&#xa1;" horiz-adv-x="716" d="M57 -297l240 1053h209l-133 -1053h-316zM272 922l47 266h316l-47 -266h-316z" />
<glyph unicode="&#xa2;" horiz-adv-x="1359" d="M72 444q0 87 20 169t69 163t122.5 141.5t189.5 98.5t260 39l29 159h129l-29 -165q87 -10 160 -35t135 -67.5t101.5 -110t50.5 -154.5l-244 -35q-32 188 -236 221l-124 -712q133 7 206 65t107 156l239 -43q-38 -107 -109 -185t-193 -127.5t-283 -52.5l-29 -168h-129 l31 174q-76 9 -141 28t-127.5 55.5t-107 87t-71 127t-26.5 171.5zM326 459q0 -256 252 -299l124 712q-89 -5 -158 -34.5t-109 -71t-65.5 -97t-34.5 -106t-9 -104.5z" />
<glyph unicode="&#xa3;" horiz-adv-x="1470" d="M-33 141q90 22 156 57t116.5 90t76.5 135.5t26 186.5v52h-225l26 151h191q-2 23 -2 66q0 93 17.5 174t60 157.5t108 130.5t168 86.5t232.5 32.5q239 0 378.5 -89t161.5 -261l-270 -55q-33 205 -275 205q-58 0 -104 -11.5t-78 -30.5t-55.5 -49t-37 -61.5t-21.5 -74 t-10.5 -80.5t-2.5 -87q0 -35 2 -53h453l-27 -151h-420v-13q0 -183 -69 -287.5t-219 -162.5q94 24 204 24q93 0 215 -17.5t187 -17.5q107 0 166.5 49t81.5 146l243 -39q-36 -171 -164 -275t-321 -104q-89 0 -244.5 29t-290.5 29q-183 0 -409 -39z" />
<glyph unicode="&#xa4;" horiz-adv-x="1265" d="M66 221l133 121q-68 101 -68 242q0 100 33.5 193t99.5 163l-94 125l133 106l100 -131q118 54 261 54q201 0 335 -93l146 127l94 -104l-135 -123q70 -99 70 -244q0 -213 -132 -354l93 -123l-131 -106l-99 129q-118 -56 -264 -56q-200 0 -340 95l-141 -125zM338 596 q0 -70 25.5 -122.5t69 -81.5t93.5 -42.5t107 -13.5q92 0 160.5 28t105 75t53.5 98.5t17 107.5t-17.5 101.5t-46 74.5t-67 48.5t-79.5 27.5t-85 8q-92 0 -160.5 -28t-105 -75t-53.5 -98.5t-17 -107.5z" />
<glyph unicode="&#xa5;" horiz-adv-x="1431" d="M88 272l25 134h446l21 112h-449l25 133h426l-428 772h297l215 -409q50 -93 88 -205h6q53 80 162 205l362 409h313l-698 -772h428l-22 -133h-453l-21 -112h453l-22 -134h-453l-49 -272h-273l50 272h-449z" />
<glyph unicode="&#xa6;" horiz-adv-x="552" d="M53 -240l137 779h181l-138 -779h-180zM233 786l138 770h180l-137 -770h-181z" />
<glyph unicode="&#xa7;" horiz-adv-x="1222" d="M-43 74l195 92q56 -186 364 -186q272 0 272 157q0 51 -33.5 84t-111.5 58l-276 73q-63 19 -110 40.5t-91.5 54t-68 80.5t-23.5 108q0 184 205 266q-84 75 -84 201q0 56 16 106.5t54 98t95.5 81.5t147 55t201.5 21q119 0 221 -23t184.5 -80t110.5 -142l-197 -103 q-53 168 -319 168q-256 0 -256 -149q0 -51 35 -82.5t122 -59.5l267 -59q288 -77 288 -291q0 -184 -182 -285q66 -78 66 -196q0 -58 -15.5 -109t-55 -100t-99.5 -83.5t-155.5 -55.5t-217.5 -21q-97 0 -182.5 14.5t-163 45.5t-131.5 87.5t-72 133.5zM324 686q0 -55 45 -88.5 t170 -71.5l254 -59q2 -1 23 -7t32 -11q70 55 70 135q0 60 -41 93t-148 66l-278 72q-12 2 -31 10q-96 -50 -96 -139z" />
<glyph unicode="&#xa8;" horiz-adv-x="1228" d="M98 1202l45 248h267l-43 -248h-269zM629 1202l43 248h268l-45 -248h-266z" />
<glyph unicode="&#xa9;" horiz-adv-x="1812" d="M109 659q0 81 13 160.5t43 163.5t75.5 158t115.5 140t157 113.5t205.5 75t256.5 27.5q76 0 153 -11t157 -36t151.5 -62.5t135 -94.5t109.5 -127.5t72.5 -165.5t26.5 -205q0 -115 -26 -226.5t-89.5 -224t-159.5 -197t-248.5 -137.5t-343.5 -53q-76 0 -153 11t-157 36 t-151 62.5t-134.5 94.5t-109.5 127.5t-72.5 165.5t-26.5 205zM229 664q0 -124 42 -226.5t110 -170t157.5 -114t182 -67t186.5 -20.5q119 0 221.5 24.5t178 66.5t136 100t100 122.5t66 136.5t37.5 140t11 135q0 124 -41.5 226.5t-109.5 170t-157.5 114t-182.5 67t-187 20.5 q-119 0 -221 -24.5t-177.5 -66.5t-136 -100t-100 -122.5t-66 -136.5t-38 -140t-11.5 -135zM483 676q0 70 15 136t52 131.5t92 114t142 78.5t195 31q79 0 148 -16.5t127.5 -51t96 -94.5t46.5 -141l-197 -30q-14 97 -76 136.5t-145 39.5q-67 0 -119.5 -21t-84.5 -54 t-52.5 -77.5t-28.5 -87t-8 -86.5q1 -66 20.5 -113.5t53.5 -73t73 -37t87 -11.5q190 0 245 178l185 -37q-40 -138 -150 -218.5t-287 -80.5q-63 0 -120.5 10.5t-115.5 37.5t-100 69t-68 111t-26 157z" />
<glyph unicode="&#xaa;" horiz-adv-x="1079" d="M166 829q0 115 96 177.5t299 72.5l279 13l4 26q12 74 -29.5 109t-132.5 35q-174 0 -197 -119h-241q23 123 131 192.5t307 69.5q218 0 318.5 -85.5t70.5 -262.5l-33 -197q-24 -132 -24 -225h-232q0 65 15 139q-42 -79 -129 -120.5t-203 -41.5q-133 0 -216 53.5t-83 163.5z M412 854q0 -102 151 -102q103 0 173 50t83 136l8 49l-213 -10q-202 -10 -202 -123z" />
<glyph unicode="&#xab;" horiz-adv-x="1269" d="M63 565l488 422h272l-495 -434l323 -416h-258zM557 565l487 422h273l-496 -434l324 -416h-258z" />
<glyph unicode="&#xac;" horiz-adv-x="1517" d="M252 588l33 190h1042l-92 -518h-197l60 328h-846z" />
<glyph unicode="&#xad;" horiz-adv-x="1009" d="M92 461l39 217h807l-39 -217h-807z" />
<glyph unicode="&#xae;" horiz-adv-x="1812" d="M109 659q0 81 13 160.5t43 163.5t75.5 158t115.5 140t157 113.5t205.5 75t256.5 27.5q76 0 153 -11t157 -36t151.5 -62.5t135 -94.5t109.5 -127.5t72.5 -165.5t26.5 -205q0 -115 -26 -226.5t-89.5 -224t-159.5 -197t-248.5 -137.5t-343.5 -53q-76 0 -153 11t-157 36 t-151 62.5t-134.5 94.5t-109.5 127.5t-72.5 165.5t-26.5 205zM229 664q0 -124 42 -226.5t110 -170t157.5 -114t182 -67t186.5 -20.5q119 0 221.5 24.5t178 66.5t136 100t100 122.5t66 136.5t37.5 140t11 135q0 124 -41.5 226.5t-109.5 170t-157.5 114t-182.5 67t-187 20.5 q-119 0 -221 -24.5t-177.5 -66.5t-136 -100t-100 -122.5t-66 -136.5t-38 -140t-11.5 -135zM532 319l148 832h379q61 0 112.5 -10t100 -34.5t76.5 -73t28 -118.5q0 -90 -57.5 -162t-185.5 -98l153 -336h-203l-129 322h-176l-57 -322h-189zM801 776h209q94 0 134 37t40 92 q0 34 -11 56.5t-33 33.5t-46 15t-58 4h-192z" />
<glyph unicode="&#xaf;" horiz-adv-x="1228" d="M106 1235l29 168h791l-31 -168h-789z" />
<glyph unicode="&#xb0;" horiz-adv-x="940" d="M150 1020q0 79 26.5 156t78 143.5t140 107.5t199.5 41q168 0 280.5 -93.5t112.5 -258.5q0 -62 -15.5 -123.5t-50 -121t-85 -104.5t-126 -73t-167.5 -28q-173 0 -283 96t-110 258zM336 1030q0 -52 17.5 -91t48 -60.5t66 -32t75.5 -10.5q121 0 188.5 80.5t67.5 189.5 q0 52 -17.5 91t-47.5 60.5t-65 32t-75 10.5q-122 0 -190 -80t-68 -190z" />
<glyph unicode="&#xb1;" horiz-adv-x="1564" d="M156 0l32 190h1074l-33 -190h-1073zM260 594l33 188h430l57 322h209l-57 -322h434l-33 -188h-434l-57 -315h-209l57 315h-430z" />
<glyph unicode="&#xb4;" horiz-adv-x="1228" d="M98 1178l312 309h284l-366 -309h-230z" />
<glyph unicode="&#xb5;" horiz-adv-x="1468" d="M16 -399l166 934v4l86 485h262l-84 -475q-18 -137 -18 -168q0 -109 64.5 -158t166.5 -49q75 0 135 21.5t99 56t68.5 86.5t45 102.5t27.5 114.5l82 469h264l-180 -1024h-256l39 217q-54 -112 -161.5 -180t-270.5 -68q-133 0 -223 45l-74 -413h-238z" />
<glyph unicode="&#xb6;" horiz-adv-x="1597" d="M217 1049q0 426 627 426h782l-27 -144h-217l-270 -1536h-164l273 1536h-246l-273 -1536h-163l163 920q-51 0 -101 6t-107 19.5t-105 39t-87.5 61t-62 89t-22.5 119.5z" />
<glyph unicode="&#xb7;" horiz-adv-x="606" d="M152 551l49 285h317l-49 -285h-317z" />
<glyph unicode="&#xb8;" horiz-adv-x="1228" d="M111 -303l155 35q19 -54 103 -54q45 0 75.5 23.5t30.5 67.5q0 67 -88 67q-53 0 -86 -33l-115 29l138 180h135l-101 -116q41 28 113 28q87 0 134.5 -38t47.5 -105q0 -100 -79.5 -155.5t-204.5 -55.5q-104 0 -170 33.5t-88 93.5z" />
<glyph unicode="&#xba;" horiz-adv-x="1114" d="M170 963q0 67 17 129t55.5 119.5t96 100t143.5 68t192 25.5q65 0 124.5 -9.5t119.5 -34t103.5 -62.5t71 -101t27.5 -143q0 -66 -17 -128t-55.5 -120t-95.5 -100.5t-143.5 -68.5t-192.5 -26q-65 0 -124.5 9.5t-119.5 34t-103.5 63t-71 101t-27.5 143.5zM410 963 q0 -102 61 -148.5t154 -46.5q67 0 118.5 27t79.5 71t42 92t14 97q0 102 -59.5 148t-151.5 46q-68 0 -120 -27t-81 -70.5t-43 -91.5t-14 -97z" />
<glyph unicode="&#xbb;" horiz-adv-x="1271" d="M-29 137l496 434l-324 416h258l330 -428l-487 -422h-273zM465 137l496 434l-324 416h258l330 -428l-488 -422h-272z" />
<glyph unicode="&#xbc;" horiz-adv-x="1835" d="M119 -35l1292 1524h213l-1290 -1524h-215zM164 1151l29 164h40q172 0 234 137h156l-140 -793h-188l100 551q-47 -59 -172 -59h-59zM899 176l21 125l559 492h200l-86 -486h160l-22 -131h-158l-33 -176h-186l32 176h-487zM1100 307h311l74 350z" />
<glyph unicode="&#xbd;" horiz-adv-x="1939" d="M119 -35l1292 1524h213l-1290 -1524h-215zM164 1151l29 164h40q172 0 234 137h156l-140 -793h-188l100 551q-47 -59 -172 -59h-59zM1030 0l23 131q282 119 383 175q196 109 219 214q4 17 4 33q0 66 -45.5 93.5t-114.5 27.5q-100 0 -146 -50t-32 -139l-188 21 q-12 144 87.5 226.5t292.5 82.5q65 0 122.5 -11.5t110 -37t83.5 -74.5t31 -117q0 -56 -29 -110t-75 -97t-114 -86t-133.5 -74.5t-146.5 -64.5h436l-22 -143h-746z" />
<glyph unicode="&#xbe;" horiz-adv-x="2119" d="M131 907l195 15q9 -146 196 -146q87 0 130.5 33.5t43.5 87.5q0 52 -46.5 79.5t-123.5 27.5h-67l20 116h80q88 0 133 31t45 86q0 54 -47.5 78t-116.5 24q-175 0 -196 -149l-184 18q14 123 111.5 195t273.5 72q65 0 121.5 -9t113 -30t90 -65t33.5 -107q0 -89 -65.5 -142.5 t-168.5 -62.5q87 -9 139 -52t52 -118q0 -107 -93 -178.5t-272 -71.5q-60 0 -112 6.5t-105.5 24.5t-91.5 47t-62.5 77.5t-25.5 112.5zM403 -35l1293 1524h213l-1291 -1524h-215zM1184 176l20 125l559 492h201l-86 -486h160l-23 -131h-157l-33 -176h-187l33 176h-487z M1384 307h312l73 350z" />
<glyph unicode="&#xbf;" horiz-adv-x="1269" d="M-25 74q0 144 83 242t233 169l143 66q68 32 96.5 75.5t38.5 110.5l11 54h258l-13 -80q-16 -104 -64 -173t-149 -114l-161 -70q-103 -48 -147 -108.5t-44 -141.5q0 -62 25.5 -106.5t69.5 -68t93 -34t105 -10.5q82 0 144.5 18.5t100 47t61 69.5t32 80t8.5 84q0 48 -6 82 l266 -26q6 -25 6 -90q0 -53 -13 -105t-41 -106.5t-77 -100.5t-114.5 -82.5t-161.5 -57t-211 -20.5q-87 0 -165.5 12t-154 40.5t-130.5 72.5t-88.5 113.5t-33.5 157.5zM573 922l48 266h309l-45 -266h-312z" />
<glyph unicode="&#xc0;" horiz-adv-x="1656" d="M-57 0l891 1454h321l379 -1454h-283l-80 354h-712l-205 -354h-311zM578 561h546l-100 447q-39 130 -49 233h-6q-42 -95 -133 -233zM592 1780h272l283 -232h-236z" />
<glyph unicode="&#xc1;" horiz-adv-x="1656" d="M-57 0l891 1454h321l379 -1454h-283l-80 354h-712l-205 -354h-311zM578 561h546l-100 447q-39 130 -49 233h-6q-42 -95 -133 -233zM895 1548l283 232h272l-320 -232h-235z" />
<glyph unicode="&#xc2;" horiz-adv-x="1656" d="M-57 0l891 1454h321l379 -1454h-283l-80 354h-712l-205 -354h-311zM578 561h546l-100 447q-39 130 -49 233h-6q-42 -95 -133 -233zM612 1548l293 232h295l209 -232h-229l-133 146l-185 -146h-250z" />
<glyph unicode="&#xc3;" horiz-adv-x="1656" d="M-57 0l891 1454h321l379 -1454h-283l-80 354h-712l-205 -354h-311zM578 561h546l-100 447q-39 130 -49 233h-6q-42 -95 -133 -233zM592 1585q79 221 276 221q49 0 89.5 -11.5t68 -27.5t52.5 -32t55.5 -27.5t64.5 -11.5q51 0 82.5 23.5t52.5 80.5l142 -45 q-75 -219 -277 -219q-59 0 -108 17t-76 37.5t-64.5 37.5t-77.5 17q-52 0 -83.5 -23t-53.5 -82z" />
<glyph unicode="&#xc4;" horiz-adv-x="1656" d="M-57 0l891 1454h321l379 -1454h-283l-80 354h-712l-205 -354h-311zM578 561h546l-100 447q-39 130 -49 233h-6q-42 -95 -133 -233zM608 1548l39 221h264l-39 -221h-264zM1151 1548l39 221h266l-39 -221h-266z" />
<glyph unicode="&#xc5;" horiz-adv-x="1656" d="M-57 0l891 1454h321l379 -1454h-283l-80 354h-712l-205 -354h-311zM578 561h546l-100 447q-39 130 -49 233h-6q-42 -95 -133 -233zM791 1720q0 107 77 175.5t193 68.5q111 0 175 -55.5t64 -147.5q0 -107 -77 -176t-193 -69q-112 0 -175.5 56t-63.5 148zM934 1720 q0 -42 25.5 -66t70.5 -24q63 0 95 34.5t32 96.5q0 41 -26 65.5t-70 24.5q-63 0 -95 -34.5t-32 -96.5z" />
<glyph unicode="&#xc6;" horiz-adv-x="2512" d="M-16 0l1296 1454h1251l-37 -217h-860l-69 -389h825l-37 -211h-825l-74 -420h875l-39 -217h-1157l57 326h-619l-278 -326h-309zM745 530h482l125 709z" />
<glyph unicode="&#xc7;" horiz-adv-x="1679" d="M104 627q0 90 15 178t48 174.5t82 162.5t120.5 141t159.5 112t203.5 73.5t248.5 26.5q109 0 205 -17.5t183.5 -57.5t153 -100t109 -150t54.5 -203l-293 -43q-21 179 -135 261.5t-289 82.5q-123 0 -222 -38.5t-161.5 -101t-104 -145.5t-58.5 -167t-17 -171 q0 -108 26 -190.5t67.5 -132t100.5 -80.5t118.5 -42.5t129.5 -11.5q357 0 471 330l278 -55q-84 -237 -270 -370.5t-485 -133.5h-6l-56 -63q41 28 113 28q87 0 134.5 -38t47.5 -105q0 -100 -79.5 -155.5t-204.5 -55.5q-104 0 -170.5 33.5t-88.5 93.5l156 35q19 -54 103 -54 q45 0 75.5 23.5t30.5 67.5q0 67 -88 67q-53 0 -86 -33l-115 29l103 133q-131 14 -238 58.5t-191.5 122t-131 200t-46.5 281.5z" />
<glyph unicode="&#xc8;" horiz-adv-x="1482" d="M104 0l256 1454h1143l-37 -217h-860l-69 -389h825l-37 -211h-825l-74 -420h874l-38 -217h-1158zM553 1780h272l283 -232h-236z" />
<glyph unicode="&#xc9;" horiz-adv-x="1482" d="M104 0l256 1454h1143l-37 -217h-860l-69 -389h825l-37 -211h-825l-74 -420h874l-38 -217h-1158zM856 1548l283 232h272l-319 -232h-236z" />
<glyph unicode="&#xca;" horiz-adv-x="1482" d="M104 0l256 1454h1143l-37 -217h-860l-69 -389h825l-37 -211h-825l-74 -420h874l-38 -217h-1158zM573 1548l293 232h295l209 -232h-229l-133 146l-185 -146h-250z" />
<glyph unicode="&#xcb;" horiz-adv-x="1482" d="M104 0l256 1454h1143l-37 -217h-860l-69 -389h825l-37 -211h-825l-74 -420h874l-38 -217h-1158zM569 1548l39 221h264l-38 -221h-265zM1112 1548l39 221h266l-39 -221h-266z" />
<glyph unicode="&#xcc;" horiz-adv-x="673" d="M104 0l256 1454h285l-256 -1454h-285zM162 1780h254l211 -232h-228z" />
<glyph unicode="&#xcd;" horiz-adv-x="673" d="M104 0l256 1454h285l-256 -1454h-285zM408 1548l210 232h254l-237 -232h-227z" />
<glyph unicode="&#xce;" horiz-adv-x="673" d="M104 0l256 1454h285l-256 -1454h-285zM221 1548l201 232h278l119 -232h-196l-68 150l-119 -150h-215z" />
<glyph unicode="&#xcf;" horiz-adv-x="673" d="M104 0l256 1454h285l-256 -1454h-285zM225 1548l39 221h246l-39 -221h-246zM571 1548l39 221h246l-39 -221h-246z" />
<glyph unicode="&#xd0;" horiz-adv-x="1724" d="M27 666l32 178h195l106 610h607q122 0 227 -21t198.5 -69.5t159.5 -121t104 -182t38 -247.5q0 -128 -32 -244.5t-103 -221t-175 -181t-258 -121.5t-342 -45h-680l117 666h-194zM426 213h358q115 0 210 24t160 67.5t113 98.5t75.5 122t40 133.5t12.5 136.5q0 99 -25 177 t-66 128t-99 82.5t-120 45.5t-133 13h-346l-69 -397h409l-31 -178h-409z" />
<glyph unicode="&#xd1;" horiz-adv-x="1763" d="M104 0l256 1454h314l520 -962q44 -83 82 -177h4q11 80 33 197l166 942h256l-256 -1454h-295l-535 975q-55 99 -82 172h-6q-16 -112 -31 -195l-168 -952h-258zM647 1585q79 221 277 221q49 0 89.5 -11.5t68 -27.5t52 -32t55 -27.5t64.5 -11.5q51 0 83 23.5t53 80.5 l141 -45q-75 -219 -277 -219q-59 0 -107.5 17t-75.5 37.5t-64.5 37.5t-77.5 17q-52 0 -83.5 -23t-53.5 -82z" />
<glyph unicode="&#xd2;" d="M104 629q0 89 15 176t48 173t81.5 162t120 141.5t159.5 112.5t204 74t249 27q123 0 232.5 -22.5t207.5 -73.5t169 -127t112 -190.5t41 -256.5q0 -89 -15 -176t-48 -173t-82 -162t-120.5 -141.5t-159.5 -112.5t-203.5 -74t-248.5 -27q-123 0 -232.5 22.5t-207.5 73.5 t-169 127t-112 190.5t-41 256.5zM403 641q0 -103 26.5 -184t70.5 -132t105.5 -84t126 -46t136.5 -13q125 0 225.5 38.5t164.5 101t107 146.5t61 169.5t18 175.5q0 103 -27 184t-71 132t-106 84t-126 46t-137 13q-125 0 -225 -38.5t-164 -101t-107 -146.5t-60.5 -169.5 t-17.5 -175.5zM604 1780h273l282 -232h-235z" />
<glyph unicode="&#xd3;" d="M104 629q0 89 15 176t48 173t81.5 162t120 141.5t159.5 112.5t204 74t249 27q123 0 232.5 -22.5t207.5 -73.5t169 -127t112 -190.5t41 -256.5q0 -89 -15 -176t-48 -173t-82 -162t-120.5 -141.5t-159.5 -112.5t-203.5 -74t-248.5 -27q-123 0 -232.5 22.5t-207.5 73.5 t-169 127t-112 190.5t-41 256.5zM403 641q0 -103 26.5 -184t70.5 -132t105.5 -84t126 -46t136.5 -13q125 0 225.5 38.5t164.5 101t107 146.5t61 169.5t18 175.5q0 103 -27 184t-71 132t-106 84t-126 46t-137 13q-125 0 -225 -38.5t-164 -101t-107 -146.5t-60.5 -169.5 t-17.5 -175.5zM907 1548l283 232h272l-319 -232h-236z" />
<glyph unicode="&#xd4;" d="M104 629q0 89 15 176t48 173t81.5 162t120 141.5t159.5 112.5t204 74t249 27q123 0 232.5 -22.5t207.5 -73.5t169 -127t112 -190.5t41 -256.5q0 -89 -15 -176t-48 -173t-82 -162t-120.5 -141.5t-159.5 -112.5t-203.5 -74t-248.5 -27q-123 0 -232.5 22.5t-207.5 73.5 t-169 127t-112 190.5t-41 256.5zM403 641q0 -103 26.5 -184t70.5 -132t105.5 -84t126 -46t136.5 -13q125 0 225.5 38.5t164.5 101t107 146.5t61 169.5t18 175.5q0 103 -27 184t-71 132t-106 84t-126 46t-137 13q-125 0 -225 -38.5t-164 -101t-107 -146.5t-60.5 -169.5 t-17.5 -175.5zM625 1548l293 232h294l209 -232h-229l-133 146l-185 -146h-249z" />
<glyph unicode="&#xd5;" d="M104 629q0 89 15 176t48 173t81.5 162t120 141.5t159.5 112.5t204 74t249 27q123 0 232.5 -22.5t207.5 -73.5t169 -127t112 -190.5t41 -256.5q0 -89 -15 -176t-48 -173t-82 -162t-120.5 -141.5t-159.5 -112.5t-203.5 -74t-248.5 -27q-123 0 -232.5 22.5t-207.5 73.5 t-169 127t-112 190.5t-41 256.5zM403 641q0 -103 26.5 -184t70.5 -132t105.5 -84t126 -46t136.5 -13q125 0 225.5 38.5t164.5 101t107 146.5t61 169.5t18 175.5q0 103 -27 184t-71 132t-106 84t-126 46t-137 13q-125 0 -225 -38.5t-164 -101t-107 -146.5t-60.5 -169.5 t-17.5 -175.5zM604 1585q79 221 277 221q49 0 89.5 -11.5t68 -27.5t52 -32t55 -27.5t64.5 -11.5q51 0 83 23.5t53 80.5l141 -45q-75 -219 -277 -219q-59 0 -107.5 17t-75.5 37.5t-64.5 37.5t-77.5 17q-52 0 -83.5 -23t-53.5 -82z" />
<glyph unicode="&#xd6;" d="M104 629q0 89 15 176t48 173t81.5 162t120 141.5t159.5 112.5t204 74t249 27q123 0 232.5 -22.5t207.5 -73.5t169 -127t112 -190.5t41 -256.5q0 -89 -15 -176t-48 -173t-82 -162t-120.5 -141.5t-159.5 -112.5t-203.5 -74t-248.5 -27q-123 0 -232.5 22.5t-207.5 73.5 t-169 127t-112 190.5t-41 256.5zM403 641q0 -103 26.5 -184t70.5 -132t105.5 -84t126 -46t136.5 -13q125 0 225.5 38.5t164.5 101t107 146.5t61 169.5t18 175.5q0 103 -27 184t-71 132t-106 84t-126 46t-137 13q-125 0 -225 -38.5t-164 -101t-107 -146.5t-60.5 -169.5 t-17.5 -175.5zM621 1548l38 221h265l-39 -221h-264zM1163 1548l39 221h266l-38 -221h-267z" />
<glyph unicode="&#xd7;" horiz-adv-x="1558" d="M197 295l465 375l-334 372l164 138l337 -377l467 377l119 -138l-467 -372l334 -373l-162 -139l-338 377l-469 -375z" />
<glyph unicode="&#xd8;" d="M63 53l173 154q-132 167 -132 422q0 89 15 176t48 173t81.5 162t120 141.5t159.5 112.5t204 74t249 27q328 0 530 -152l168 150l99 -92l-170 -152q135 -164 135 -424q0 -89 -15 -176t-48 -173t-82 -162t-120.5 -141.5t-159.5 -112.5t-203.5 -74t-248.5 -27 q-329 0 -534 154l-170 -152zM403 641q0 -140 50 -242l858 764q-123 109 -334 109q-125 0 -225 -38.5t-164 -101t-107 -146.5t-60.5 -169.5t-17.5 -175.5zM532 293q122 -111 336 -111q125 0 225.5 38.5t164.5 101t107 146.5t61 169.5t18 175.5q0 147 -51 244z" />
<glyph unicode="&#xd9;" horiz-adv-x="1687" d="M178 649l144 805h284l-149 -829q-39 -221 61 -326.5t301 -105.5q89 0 159.5 21t117.5 55.5t81.5 87.5t54 110t32.5 129l151 858h285l-162 -905q-103 -590 -735 -590q-166 0 -293.5 41t-213.5 123.5t-117.5 216t-0.5 309.5zM608 1780h273l282 -232h-235z" />
<glyph unicode="&#xda;" horiz-adv-x="1687" d="M178 649l144 805h284l-149 -829q-39 -221 61 -326.5t301 -105.5q89 0 159.5 21t117.5 55.5t81.5 87.5t54 110t32.5 129l151 858h285l-162 -905q-103 -590 -735 -590q-166 0 -293.5 41t-213.5 123.5t-117.5 216t-0.5 309.5zM911 1548l283 232h272l-319 -232h-236z" />
<glyph unicode="&#xdb;" horiz-adv-x="1687" d="M178 649l144 805h284l-149 -829q-39 -221 61 -326.5t301 -105.5q89 0 159.5 21t117.5 55.5t81.5 87.5t54 110t32.5 129l151 858h285l-162 -905q-103 -590 -735 -590q-166 0 -293.5 41t-213.5 123.5t-117.5 216t-0.5 309.5zM629 1548l293 232h295l208 -232h-229l-133 146 l-184 -146h-250z" />
<glyph unicode="&#xdc;" horiz-adv-x="1687" d="M178 649l144 805h284l-149 -829q-39 -221 61 -326.5t301 -105.5q89 0 159.5 21t117.5 55.5t81.5 87.5t54 110t32.5 129l151 858h285l-162 -905q-103 -590 -735 -590q-166 0 -293.5 41t-213.5 123.5t-117.5 216t-0.5 309.5zM625 1548l39 221h264l-39 -221h-264zM1167 1548 l39 221h267l-39 -221h-267z" />
<glyph unicode="&#xdd;" horiz-adv-x="1466" d="M160 1454h305l272 -608q23 -60 25 -86h4q15 36 55 86l492 608h325l-759 -917l-95 -537h-284l94 537zM801 1548l282 232h273l-320 -232h-235z" />
<glyph unicode="&#xde;" horiz-adv-x="1415" d="M104 0l256 1454h285l-43 -250h309q78 0 147.5 -11t137 -39.5t116 -72.5t78 -114.5t29.5 -161.5q0 -226 -159.5 -359t-458.5 -133h-357l-55 -313h-285zM481 524h271q195 0 280.5 66.5t85.5 202.5q0 103 -71.5 150.5t-192.5 47.5h-291z" />
<glyph unicode="&#xdf;" horiz-adv-x="1476" d="M84 0l178 1006q45 262 200.5 382.5t426.5 120.5q251 0 386.5 -88t135.5 -272q0 -65 -24.5 -124.5t-72.5 -109t-127.5 -81.5t-180.5 -37q173 -16 273.5 -106t100.5 -249q0 -220 -160 -341t-444 -121q-177 0 -274 32l33 191q85 -31 225 -31q170 0 258 70t88 207 q0 124 -91 185.5t-251 61.5h-143l32 185h138q174 0 256.5 67.5t82.5 188.5q0 186 -258 186q-148 0 -231.5 -68t-114.5 -241l-178 -1014h-264z" />
<glyph unicode="&#xe0;" horiz-adv-x="1374" d="M51 268q0 145 109 230q125 96 385 110l432 21l6 37q15 105 -47 156.5t-199 51.5q-267 0 -305 -186h-272q31 177 178 272t399 95q284 0 412 -114t86 -355l-45 -258q-34 -194 -31 -328h-264q0 79 14 186q-135 -217 -448 -217q-189 0 -299.5 76t-110.5 223zM322 1487h284 l312 -309h-230zM330 293q0 -77 58.5 -112.5t158.5 -35.5q167 0 271.5 80.5t127.5 206.5l8 53l-338 -16q-153 -9 -219.5 -54t-66.5 -122z" />
<glyph unicode="&#xe1;" horiz-adv-x="1374" d="M51 268q0 145 109 230q125 96 385 110l432 21l6 37q15 105 -47 156.5t-199 51.5q-267 0 -305 -186h-272q31 177 178 272t399 95q284 0 412 -114t86 -355l-45 -258q-34 -194 -31 -328h-264q0 79 14 186q-135 -217 -448 -217q-189 0 -299.5 76t-110.5 223zM330 293 q0 -77 58.5 -112.5t158.5 -35.5q167 0 271.5 80.5t127.5 206.5l8 53l-338 -16q-153 -9 -219.5 -54t-66.5 -122zM668 1178l311 309h285l-367 -309h-229z" />
<glyph unicode="&#xe2;" horiz-adv-x="1374" d="M51 268q0 145 109 230q125 96 385 110l432 21l6 37q15 105 -47 156.5t-199 51.5q-267 0 -305 -186h-272q31 177 178 272t399 95q284 0 412 -114t86 -355l-45 -258q-34 -194 -31 -328h-264q0 79 14 186q-135 -217 -448 -217q-189 0 -299.5 76t-110.5 223zM330 293 q0 -77 58.5 -112.5t158.5 -35.5q167 0 271.5 80.5t127.5 206.5l8 53l-338 -16q-153 -9 -219.5 -54t-66.5 -122zM379 1178l319 309h277l209 -309h-213l-144 213l-217 -213h-231z" />
<glyph unicode="&#xe3;" horiz-adv-x="1374" d="M51 268q0 145 109 230q125 96 385 110l432 21l6 37q15 105 -47 156.5t-199 51.5q-267 0 -305 -186h-272q31 177 178 272t399 95q284 0 412 -114t86 -355l-45 -258q-34 -194 -31 -328h-264q0 79 14 186q-135 -217 -448 -217q-189 0 -299.5 76t-110.5 223zM330 293 q0 -77 58.5 -112.5t158.5 -35.5q167 0 271.5 80.5t127.5 206.5l8 53l-338 -16q-153 -9 -219.5 -54t-66.5 -122zM334 1249q40 117 113.5 180.5t173.5 63.5q63 0 116.5 -21t84 -45.5t71.5 -45.5t82 -21q53 0 90 28t59 93l142 -45q-38 -116 -111.5 -180t-169.5 -64 q-66 0 -121 21t-85.5 45.5t-72 45.5t-83.5 21q-107 0 -148 -121z" />
<glyph unicode="&#xe4;" horiz-adv-x="1374" d="M51 268q0 145 109 230q125 96 385 110l432 21l6 37q15 105 -47 156.5t-199 51.5q-267 0 -305 -186h-272q31 177 178 272t399 95q284 0 412 -114t86 -355l-45 -258q-34 -194 -31 -328h-264q0 79 14 186q-135 -217 -448 -217q-189 0 -299.5 76t-110.5 223zM330 293 q0 -77 58.5 -112.5t158.5 -35.5q167 0 271.5 80.5t127.5 206.5l8 53l-338 -16q-153 -9 -219.5 -54t-66.5 -122zM387 1202l45 248h266l-43 -248h-268zM918 1202l43 248h268l-45 -248h-266z" />
<glyph unicode="&#xe5;" horiz-adv-x="1374" d="M51 268q0 145 109 230q125 96 385 110l432 21l6 37q15 105 -47 156.5t-199 51.5q-267 0 -305 -186h-272q31 177 178 272t399 95q284 0 412 -114t86 -355l-45 -258q-34 -194 -31 -328h-264q0 79 14 186q-135 -217 -448 -217q-189 0 -299.5 76t-110.5 223zM330 293 q0 -77 58.5 -112.5t158.5 -35.5q167 0 271.5 80.5t127.5 206.5l8 53l-338 -16q-153 -9 -219.5 -54t-66.5 -122zM498 1343q0 108 85 176t222 68q126 0 200 -57t74 -152q0 -106 -84.5 -173.5t-220.5 -67.5q-128 0 -202 56t-74 150zM645 1343q0 -42 34 -68t95 -26 q75 0 116.5 35t41.5 94q0 44 -33.5 70.5t-93.5 26.5q-76 0 -118 -36t-42 -96z" />
<glyph unicode="&#xe6;" horiz-adv-x="2138" d="M47 252q0 153 115 237q125 87 391 99l399 18l6 56q17 108 -40.5 160t-196.5 52q-266 0 -295 -190h-272q31 174 178 272.5t397 98.5q310 0 406 -152q172 152 424 152q107 0 197 -24.5t160.5 -74.5t110 -133t39.5 -192q0 -84 -28 -182h-850q-7 -145 73.5 -215t217.5 -70 q114 0 190 44.5t125 133.5l195 -94q-156 -279 -527 -279q-99 0 -186.5 21.5t-165.5 75.5t-121 135q-177 -232 -540 -232q-183 0 -292.5 74.5t-109.5 208.5zM328 276q0 -64 55 -96.5t154 -32.5q152 0 258.5 72.5t126.5 196.5l8 53l-330 -16q-145 -7 -208.5 -51t-63.5 -126z M1208 614h598q9 31 9 58q0 107 -74.5 161t-192.5 54q-134 0 -222 -74.5t-118 -198.5z" />
<glyph unicode="&#xe7;" horiz-adv-x="1329" d="M72 449q0 86 20 168.5t69 163t121.5 140.5t187 97t257.5 37q83 0 157.5 -12t144 -40.5t122.5 -71.5t89 -108t46 -147l-272 -39q-10 63 -39 108t-71 68t-85.5 33t-93.5 10q-86 0 -154 -26t-108.5 -66.5t-67 -95t-36 -106t-9.5 -105.5q0 -80 25 -137.5t69 -89t95.5 -46 t113.5 -14.5q240 0 318 219l258 -45q-56 -167 -195.5 -268t-365.5 -107l-64 -73q41 28 113 28q87 0 134.5 -38t47.5 -105q0 -100 -80 -155.5t-205 -55.5q-104 0 -170 33.5t-88 93.5l156 35q19 -54 102 -54q46 0 76.5 23.5t30.5 67.5q0 67 -88 67q-53 0 -86 -33l-115 29 l109 143q-74 8 -138.5 27t-126.5 55.5t-106 88t-71 129.5t-27 174z" />
<glyph unicode="&#xe8;" horiz-adv-x="1345" d="M72 449q0 89 21.5 173t72 163.5t124 138.5t185.5 95t250 36q87 0 165 -14.5t148.5 -47.5t122 -82t81.5 -122.5t30 -165.5q0 -95 -27 -177h-917q2 -64 22.5 -114t52 -81t75.5 -51t90.5 -28t99.5 -8q128 0 206 44t127 134l195 -96q-154 -277 -539 -277q-56 0 -110.5 6 t-113.5 22t-110.5 39.5t-98 62t-80 87t-53 116t-19.5 147.5zM332 1487h284l312 -309h-230zM344 612h670q6 21 6 54q0 58 -26 102.5t-70 69.5t-96 37t-111 12q-157 0 -250.5 -74.5t-122.5 -200.5z" />
<glyph unicode="&#xe9;" horiz-adv-x="1345" d="M72 449q0 89 21.5 173t72 163.5t124 138.5t185.5 95t250 36q87 0 165 -14.5t148.5 -47.5t122 -82t81.5 -122.5t30 -165.5q0 -95 -27 -177h-917q2 -64 22.5 -114t52 -81t75.5 -51t90.5 -28t99.5 -8q128 0 206 44t127 134l195 -96q-154 -277 -539 -277q-56 0 -110.5 6 t-113.5 22t-110.5 39.5t-98 62t-80 87t-53 116t-19.5 147.5zM344 612h670q6 21 6 54q0 58 -26 102.5t-70 69.5t-96 37t-111 12q-157 0 -250.5 -74.5t-122.5 -200.5zM678 1178l311 309h285l-367 -309h-229z" />
<glyph unicode="&#xea;" horiz-adv-x="1345" d="M72 449q0 89 21.5 173t72 163.5t124 138.5t185.5 95t250 36q87 0 165 -14.5t148.5 -47.5t122 -82t81.5 -122.5t30 -165.5q0 -95 -27 -177h-917q2 -64 22.5 -114t52 -81t75.5 -51t90.5 -28t99.5 -8q128 0 206 44t127 134l195 -96q-154 -277 -539 -277q-56 0 -110.5 6 t-113.5 22t-110.5 39.5t-98 62t-80 87t-53 116t-19.5 147.5zM344 612h670q6 21 6 54q0 58 -26 102.5t-70 69.5t-96 37t-111 12q-157 0 -250.5 -74.5t-122.5 -200.5zM389 1178l320 309h276l209 -309h-213l-143 213l-217 -213h-232z" />
<glyph unicode="&#xeb;" horiz-adv-x="1345" d="M72 449q0 89 21.5 173t72 163.5t124 138.5t185.5 95t250 36q87 0 165 -14.5t148.5 -47.5t122 -82t81.5 -122.5t30 -165.5q0 -95 -27 -177h-917q2 -64 22.5 -114t52 -81t75.5 -51t90.5 -28t99.5 -8q128 0 206 44t127 134l195 -96q-154 -277 -539 -277q-56 0 -110.5 6 t-113.5 22t-110.5 39.5t-98 62t-80 87t-53 116t-19.5 147.5zM344 612h670q6 21 6 54q0 58 -26 102.5t-70 69.5t-96 37t-111 12q-157 0 -250.5 -74.5t-122.5 -200.5zM397 1202l45 248h267l-43 -248h-269zM928 1202l43 248h268l-45 -248h-266z" />
<glyph unicode="&#xec;" horiz-adv-x="618" d="M51 1487h256l223 -309h-223zM86 0l182 1024h264l-182 -1024h-264z" />
<glyph unicode="&#xed;" horiz-adv-x="618" d="M86 0l182 1024h264l-182 -1024h-264zM319 1178l224 309h256l-256 -309h-224z" />
<glyph unicode="&#xee;" horiz-adv-x="618" d="M86 0l182 1024h264l-182 -1024h-264zM143 1178l213 311h252l105 -311h-183l-57 215l-133 -215h-197z" />
<glyph unicode="&#xef;" horiz-adv-x="618" d="M86 0l182 1024h264l-182 -1024h-264zM135 1202l45 248h248l-43 -248h-250zM481 1202l45 248h248l-43 -248h-250z" />
<glyph unicode="&#xf0;" horiz-adv-x="1398" d="M74 442q0 84 18.5 164.5t63 160t111 138.5t171.5 96t236 37q287 0 393 -184h4q-12 186 -158 342l-311 -88l-20 94l247 72q-82 64 -186 110l234 129q135 -67 223 -163l213 61l20 -96l-162 -45q164 -224 164 -531q0 -76 -10 -150.5t-34.5 -151.5t-61.5 -144.5t-93.5 -128 t-128.5 -103t-169.5 -67.5t-212.5 -25q-85 0 -160.5 13t-149 46.5t-125.5 85.5t-84 136t-32 192zM350 459q0 -82 26 -141t71.5 -90.5t98.5 -45.5t116 -14q84 0 152.5 26.5t111 68.5t71.5 97t40.5 108t11.5 105q0 139 -84.5 209t-233.5 70q-88 0 -157 -25.5t-110 -65.5 t-68 -94t-36.5 -104.5t-9.5 -103.5z" />
<glyph unicode="&#xf1;" horiz-adv-x="1452" d="M86 0l180 1024h256l-39 -217q136 248 435 248q57 0 109 -9.5t107 -36.5t94.5 -69.5t65 -115.5t25.5 -169q0 -86 -16 -170l-86 -485h-265l86 475q15 83 15 129q0 57 -14.5 100.5t-38 70t-57.5 43.5t-68.5 23.5t-75.5 6.5q-299 0 -367 -379l-82 -469h-264zM459 1249 q40 117 113 180.5t173 63.5q63 0 117 -21t84.5 -45.5t71.5 -45.5t82 -21q53 0 90 28t59 93l142 -45q-38 -116 -111.5 -180t-169.5 -64q-66 0 -121 21t-85.5 45.5t-72 45.5t-83.5 21q-107 0 -148 -121z" />
<glyph unicode="&#xf2;" horiz-adv-x="1386" d="M72 446q0 90 22.5 175t73.5 164.5t125.5 139t187 95t250.5 35.5q88 0 167 -13.5t157 -47.5t134.5 -86.5t91 -137t34.5 -192.5q0 -90 -22.5 -175t-73.5 -164.5t-126 -139t-187.5 -95t-250.5 -35.5q-87 0 -166 13.5t-157 47.5t-134 86.5t-91 137t-35 192.5zM332 1487h284 l312 -309h-230zM348 453q0 -79 26.5 -137t73 -90t100.5 -47t118 -15q82 0 148 26.5t107 68t69 96t39 108.5t11 108q0 79 -26.5 137t-72.5 90t-100 47t-118 15q-102 0 -178.5 -39t-117.5 -102t-60 -130t-19 -136z" />
<glyph unicode="&#xf3;" horiz-adv-x="1386" d="M72 446q0 90 22.5 175t73.5 164.5t125.5 139t187 95t250.5 35.5q88 0 167 -13.5t157 -47.5t134.5 -86.5t91 -137t34.5 -192.5q0 -90 -22.5 -175t-73.5 -164.5t-126 -139t-187.5 -95t-250.5 -35.5q-87 0 -166 13.5t-157 47.5t-134 86.5t-91 137t-35 192.5zM348 453 q0 -79 26.5 -137t73 -90t100.5 -47t118 -15q82 0 148 26.5t107 68t69 96t39 108.5t11 108q0 79 -26.5 137t-72.5 90t-100 47t-118 15q-102 0 -178.5 -39t-117.5 -102t-60 -130t-19 -136zM678 1178l311 309h285l-367 -309h-229z" />
<glyph unicode="&#xf4;" horiz-adv-x="1386" d="M72 446q0 90 22.5 175t73.5 164.5t125.5 139t187 95t250.5 35.5q88 0 167 -13.5t157 -47.5t134.5 -86.5t91 -137t34.5 -192.5q0 -90 -22.5 -175t-73.5 -164.5t-126 -139t-187.5 -95t-250.5 -35.5q-87 0 -166 13.5t-157 47.5t-134 86.5t-91 137t-35 192.5zM348 453 q0 -79 26.5 -137t73 -90t100.5 -47t118 -15q82 0 148 26.5t107 68t69 96t39 108.5t11 108q0 79 -26.5 137t-72.5 90t-100 47t-118 15q-102 0 -178.5 -39t-117.5 -102t-60 -130t-19 -136zM389 1178l320 309h276l209 -309h-213l-143 213l-217 -213h-232z" />
<glyph unicode="&#xf5;" horiz-adv-x="1386" d="M72 446q0 90 22.5 175t73.5 164.5t125.5 139t187 95t250.5 35.5q88 0 167 -13.5t157 -47.5t134.5 -86.5t91 -137t34.5 -192.5q0 -90 -22.5 -175t-73.5 -164.5t-126 -139t-187.5 -95t-250.5 -35.5q-87 0 -166 13.5t-157 47.5t-134 86.5t-91 137t-35 192.5zM344 1249 q40 117 113.5 180.5t173.5 63.5q63 0 116.5 -21t84 -45.5t71.5 -45.5t82 -21q108 0 150 121l141 -45q-38 -116 -111.5 -180t-169.5 -64q-66 0 -121 21t-85.5 45.5t-72 45.5t-83.5 21q-107 0 -148 -121zM348 453q0 -79 26.5 -137t73 -90t100.5 -47t118 -15q82 0 148 26.5 t107 68t69 96t39 108.5t11 108q0 79 -26.5 137t-72.5 90t-100 47t-118 15q-102 0 -178.5 -39t-117.5 -102t-60 -130t-19 -136z" />
<glyph unicode="&#xf6;" horiz-adv-x="1386" d="M72 446q0 90 22.5 175t73.5 164.5t125.5 139t187 95t250.5 35.5q88 0 167 -13.5t157 -47.5t134.5 -86.5t91 -137t34.5 -192.5q0 -90 -22.5 -175t-73.5 -164.5t-126 -139t-187.5 -95t-250.5 -35.5q-87 0 -166 13.5t-157 47.5t-134 86.5t-91 137t-35 192.5zM348 453 q0 -79 26.5 -137t73 -90t100.5 -47t118 -15q82 0 148 26.5t107 68t69 96t39 108.5t11 108q0 79 -26.5 137t-72.5 90t-100 47t-118 15q-102 0 -178.5 -39t-117.5 -102t-60 -130t-19 -136zM397 1202l45 248h267l-43 -248h-269zM928 1202l43 248h268l-45 -248h-266z" />
<glyph unicode="&#xf7;" horiz-adv-x="1273" d="M113 573l32 191h1072l-33 -191h-1071zM469 287q0 57 35.5 92t91.5 35t91.5 -35t35.5 -92t-35.5 -92t-91.5 -35t-91.5 35t-35.5 92zM592 1057q0 57 35.5 92t91.5 35t91.5 -34.5t35.5 -92.5q0 -55 -36 -91t-91 -36q-56 0 -91.5 35t-35.5 92z" />
<glyph unicode="&#xf8;" horiz-adv-x="1386" d="M31 31l139 116q-98 120 -98 299q0 90 22.5 175t73.5 164.5t125.5 139t187 95t250.5 35.5q253 0 408 -107l145 119l74 -76l-139 -114q96 -117 96 -299q0 -90 -22.5 -175t-73.5 -164.5t-126 -139t-187.5 -95t-250.5 -35.5q-249 0 -407 107l-144 -119zM348 453 q0 -76 27 -138l575 476q-80 69 -227 69q-102 0 -178.5 -39t-117.5 -102t-60 -130t-19 -136zM438 233q83 -69 228 -69q82 0 148 26.5t107 68t69 96t39 108.5t11 108q0 76 -26 136z" />
<glyph unicode="&#xf9;" horiz-adv-x="1433" d="M123 313q0 24 3 55.5t6.5 55t9.5 61.5t8 54l86 485h262l-84 -475q-19 -145 -19 -168q0 -109 64.5 -158t167.5 -49q75 0 135 21.5t99 56t68 86.5t44.5 102.5t27.5 114.5l82 469h265l-181 -1024h-256l39 217q-54 -112 -161.5 -180t-270.5 -68q-57 0 -108.5 8.5t-105.5 31.5 t-92.5 60t-63.5 100t-25 144zM354 1487h285l311 -309h-229z" />
<glyph unicode="&#xfa;" horiz-adv-x="1433" d="M123 313q0 24 3 55.5t6.5 55t9.5 61.5t8 54l86 485h262l-84 -475q-19 -145 -19 -168q0 -109 64.5 -158t167.5 -49q75 0 135 21.5t99 56t68 86.5t44.5 102.5t27.5 114.5l82 469h265l-181 -1024h-256l39 217q-54 -112 -161.5 -180t-270.5 -68q-57 0 -108.5 8.5t-105.5 31.5 t-92.5 60t-63.5 100t-25 144zM700 1178l312 309h284l-366 -309h-230z" />
<glyph unicode="&#xfb;" horiz-adv-x="1433" d="M123 313q0 24 3 55.5t6.5 55t9.5 61.5t8 54l86 485h262l-84 -475q-19 -145 -19 -168q0 -109 64.5 -158t167.5 -49q75 0 135 21.5t99 56t68 86.5t44.5 102.5t27.5 114.5l82 469h265l-181 -1024h-256l39 217q-54 -112 -161.5 -180t-270.5 -68q-57 0 -108.5 8.5t-105.5 31.5 t-92.5 60t-63.5 100t-25 144zM412 1178l319 309h277l209 -309h-213l-144 213l-217 -213h-231z" />
<glyph unicode="&#xfc;" horiz-adv-x="1433" d="M123 313q0 24 3 55.5t6.5 55t9.5 61.5t8 54l86 485h262l-84 -475q-19 -145 -19 -168q0 -109 64.5 -158t167.5 -49q75 0 135 21.5t99 56t68 86.5t44.5 102.5t27.5 114.5l82 469h265l-181 -1024h-256l39 217q-54 -112 -161.5 -180t-270.5 -68q-57 0 -108.5 8.5t-105.5 31.5 t-92.5 60t-63.5 100t-25 144zM420 1202l45 248h266l-43 -248h-268zM950 1202l43 248h269l-45 -248h-267z" />
<glyph unicode="&#xfd;" horiz-adv-x="1241" d="M-72 -389l37 209q76 -27 162 -27q160 0 252 154l31 59l-314 1018h285l178 -684q12 -53 16 -113h7q21 56 51 111l399 686h293l-696 -1126q-51 -83 -101.5 -141t-95.5 -92t-98.5 -52.5t-99.5 -24.5t-109 -6q-105 0 -197 29zM629 1178l311 309h285l-367 -309h-229z" />
<glyph unicode="&#xfe;" horiz-adv-x="1468" d="M27 -399l69 399l262 1485h265l-111 -625q66 86 170.5 140.5t239.5 54.5q69 0 133.5 -14t128 -48t110.5 -84.5t76 -130.5t29 -180q0 -86 -20 -171.5t-65.5 -169t-112 -147t-168 -102.5t-224.5 -39q-139 0 -248.5 47t-169.5 146l-100 -561h-264zM440 516 q-33 -153 48.5 -252.5t248.5 -99.5q85 0 153 28.5t109.5 72.5t69.5 101.5t38.5 111.5t10.5 106q0 64 -18 114t-47 80t-68.5 49t-77.5 26t-80 7q-145 0 -245 -76t-125 -196z" />
<glyph unicode="&#xff;" horiz-adv-x="1241" d="M-72 -389l37 209q76 -27 162 -27q160 0 252 154l31 59l-314 1018h285l178 -684q12 -53 16 -113h7q21 56 51 111l399 686h293l-696 -1126q-51 -83 -101.5 -141t-95.5 -92t-98.5 -52.5t-99.5 -24.5t-109 -6q-105 0 -197 29zM348 1202l45 248h266l-43 -248h-268zM879 1202 l43 248h268l-45 -248h-266z" />
<glyph unicode="&#x152;" horiz-adv-x="2373" d="M102 629q0 82 14.5 162.5t47.5 163t83 155t126 136.5t171 109.5t223 72t277 26.5h1348l-37 -217h-860l-70 -389h826l-37 -211h-825l-74 -420h874l-39 -217h-1271q-124 0 -231.5 17.5t-210 62t-175 114t-116.5 181t-44 254.5zM401 637q0 -101 29 -177.5t75.5 -122.5 t113.5 -74.5t133 -39t143 -10.5h135l182 1028h-165q-147 0 -263 -39t-186 -100.5t-116 -143.5t-63.5 -160.5t-17.5 -160.5z" />
<glyph unicode="&#x153;" horiz-adv-x="2306" d="M72 446q0 90 22.5 175t73.5 164.5t125.5 139t186.5 95t249 35.5q147 0 270 -47.5t193 -153.5q166 201 494 201q87 0 165 -14.5t148.5 -47.5t121.5 -82t81 -122.5t30 -165.5q0 -98 -26 -177h-918q2 -64 22.5 -114t52 -81t75.5 -51t89.5 -28t98.5 -8q129 0 208 44t128 134 l195 -96q-154 -277 -539 -277q-68 0 -132.5 9.5t-131 31t-124.5 63t-97 99.5q-167 -203 -482 -203q-86 0 -164.5 13.5t-155.5 47.5t-133 86.5t-91 137t-35 192.5zM346 453q0 -79 26.5 -137t73 -90t100.5 -47t118 -15q83 0 149 26.5t107 68t68.5 96.5t38.5 108.5t11 107.5 q0 79 -26.5 137t-72.5 90t-100 47t-118 15q-82 0 -148 -26t-107.5 -68t-69 -96.5t-39 -108.5t-11.5 -108zM1305 612h669q6 21 6 54q0 58 -25.5 102.5t-69.5 69.5t-97 37t-113 12q-156 0 -249 -75t-121 -200z" />
<glyph unicode="&#x178;" horiz-adv-x="1466" d="M160 1454h305l272 -608q23 -60 25 -86h4q15 36 55 86l492 608h325l-759 -917l-95 -537h-284l94 537zM514 1548l39 221h264l-39 -221h-264zM1057 1548l39 221h266l-39 -221h-266z" />
<glyph unicode="&#x2c6;" horiz-adv-x="1228" d="M80 1178l319 309h277l209 -309h-213l-144 213l-217 -213h-231z" />
<glyph unicode="&#x2dc;" horiz-adv-x="1228" d="M109 1249q40 117 113 180.5t173 63.5q63 0 117 -21t84.5 -45.5t71.5 -45.5t82 -21q53 0 90 28t59 93l141 -45q-38 -116 -111 -180t-169 -64q-66 0 -121.5 21t-86 45.5t-72 45.5t-83.5 21q-106 0 -147 -121z" />
<glyph unicode="&#x2000;" horiz-adv-x="982" />
<glyph unicode="&#x2001;" horiz-adv-x="1964" />
<glyph unicode="&#x2002;" horiz-adv-x="982" />
<glyph unicode="&#x2003;" horiz-adv-x="1964" />
<glyph unicode="&#x2004;" horiz-adv-x="654" />
<glyph unicode="&#x2005;" horiz-adv-x="491" />
<glyph unicode="&#x2006;" horiz-adv-x="327" />
<glyph unicode="&#x2007;" horiz-adv-x="327" />
<glyph unicode="&#x2008;" horiz-adv-x="245" />
<glyph unicode="&#x2009;" horiz-adv-x="392" />
<glyph unicode="&#x200a;" horiz-adv-x="109" />
<glyph unicode="&#x2010;" horiz-adv-x="1009" d="M92 461l39 217h807l-39 -217h-807z" />
<glyph unicode="&#x2011;" horiz-adv-x="1009" d="M92 461l39 217h807l-39 -217h-807z" />
<glyph unicode="&#x2012;" horiz-adv-x="1009" d="M92 461l39 217h807l-39 -217h-807z" />
<glyph unicode="&#x2013;" horiz-adv-x="1341" d="M94 465l35 207h1141l-37 -207h-1139z" />
<glyph unicode="&#x2014;" horiz-adv-x="1898" d="M94 465l35 209h1696l-35 -209h-1696z" />
<glyph unicode="&#x2018;" horiz-adv-x="602" d="M211 891l53 293q47 264 301 311l29 -119q-151 -28 -176 -170l-4 -18h161l-51 -297h-313z" />
<glyph unicode="&#x2019;" horiz-adv-x="602" d="M240 969q151 28 176 170l4 18h-162l51 297h314l-54 -293q-47 -264 -301 -311z" />
<glyph unicode="&#x201a;" horiz-adv-x="602" d="M37 -188q151 28 176 170l4 18h-162l51 297h314l-53 -293q-47 -264 -301 -311z" />
<glyph unicode="&#x201c;" horiz-adv-x="1021" d="M211 891l53 293q47 264 301 311l29 -119q-151 -28 -176 -170l-4 -18h161l-51 -297h-313zM631 891l53 293q47 264 301 311l29 -119q-151 -28 -176 -170l-4 -18h161l-51 -297h-313z" />
<glyph unicode="&#x201d;" horiz-adv-x="1021" d="M242 969q151 28 176 170l4 18h-162l51 297h314l-54 -293q-47 -264 -301 -311zM662 969q151 28 176 170l4 18h-162l51 297h313l-53 -293q-47 -264 -301 -311z" />
<glyph unicode="&#x201e;" horiz-adv-x="1021" d="M39 -188q151 28 176 170l4 18h-162l52 297h313l-53 -293q-47 -264 -301 -311zM459 -188q151 28 176 170l4 18h-162l51 297h314l-54 -293q-47 -264 -301 -311z" />
<glyph unicode="&#x2022;" horiz-adv-x="753" d="M182 700q0 102 64.5 165t163.5 63q101 0 165 -62.5t64 -165.5q0 -99 -64.5 -161t-164.5 -62q-99 0 -163.5 62t-64.5 161z" />
<glyph unicode="&#x2026;" horiz-adv-x="1902" d="M55 0l49 279h318l-49 -279h-318zM702 0l50 279h317l-49 -279h-318zM1350 0l49 279h317l-49 -279h-317z" />
<glyph unicode="&#x202f;" horiz-adv-x="392" />
<glyph unicode="&#x2039;" horiz-adv-x="776" d="M63 565l488 422h272l-495 -434l323 -416h-258z" />
<glyph unicode="&#x203a;" horiz-adv-x="778" d="M-29 137l496 434l-324 416h258l330 -428l-487 -422h-273z" />
<glyph unicode="&#x205f;" horiz-adv-x="491" />
<glyph unicode="&#x20ac;" horiz-adv-x="1640" d="M39 627l22 129l11 61h127q20 104 62 196t112 175t162.5 142.5t221.5 94.5t281 35q105 0 199 -16t183.5 -51.5t159.5 -101t110 -156.5v-5l-267 -98q-99 211 -391 211q-100 0 -184.5 -24t-143.5 -64t-105 -96t-73 -115.5t-43 -126.5h738l-11 -61l-22 -129h-723 q2 -107 29.5 -188t69.5 -129t100 -78.5t114.5 -41t120.5 -10.5q86 0 157 18t122 52t86 70.5t67 85.5l225 -103q-38 -56 -77.5 -101t-98.5 -92t-126 -78t-159.5 -51t-199.5 -20q-112 0 -211.5 20t-193 68.5t-161 123t-108 191t-41.5 263.5h-141z" />
<glyph unicode="&#x2122;" horiz-adv-x="1998" d="M152 1311l26 147h787l-25 -147h-311l-121 -684h-182l120 684h-294zM909 627l148 831h256l102 -532q17 -89 17 -142h4q19 60 65 142l289 532h264l-147 -831h-164l92 534q16 89 35 160h-4q-38 -80 -72 -143l-303 -551h-164l-108 551q-22 135 -23 143h-2q-4 -43 -25 -160 l-94 -534h-166z" />
<glyph unicode="&#x25fc;" horiz-adv-x="1024" d="M0 0v1024h1024v-1024h-1024z" />
</font>
</defs>
</svg>
