<?xml version="1.0" standalone="no"?>
<!DOCTYPE svg PUBLIC "-//W3C//DTD SVG 1.1//EN" "http://www.w3.org/Graphics/SVG/1.1/DTD/svg11.dtd" >
<svg xmlns="http://www.w3.org/2000/svg" xmlns:xlink="http://www.w3.org/1999/xlink" version="1.1">
<metadata></metadata>
<defs>
<font id="gt_americaextended_medium" horiz-adv-x="1366" >
<font-face units-per-em="2048" ascent="1638" descent="-410" />
<missing-glyph horiz-adv-x="655" />
<glyph unicode="&#xfb01;" horiz-adv-x="1536" d="M39 838v186h235v102q0 182 107.5 278.5t312.5 96.5q97 0 185 -20v-199q-71 14 -154 14q-98 0 -141 -42.5t-43 -137.5v-92h338v-186h-338v-838h-267v838h-235zM1083 1194v264h289v-264h-289zM1096 0v1024h264v-1024h-264z" />
<glyph unicode="&#xfb02;" horiz-adv-x="1556" d="M39 838v186h235v102q0 182 107.5 278.5t312.5 96.5q97 0 185 -20v-199q-71 14 -154 14q-98 0 -141 -42.5t-43 -137.5v-92h338v-186h-338v-838h-267v838h-235zM1106 0v1485h264v-1485h-264z" />
<glyph horiz-adv-x="0" />
<glyph horiz-adv-x="0" />
<glyph horiz-adv-x="682" />
<glyph unicode="&#xd;" horiz-adv-x="0" />
<glyph unicode=" "  horiz-adv-x="655" />
<glyph unicode="&#x09;" horiz-adv-x="655" />
<glyph unicode="&#xa0;" horiz-adv-x="655" />
<glyph unicode="!" horiz-adv-x="716" d="M201 0v266h315v-266h-315zM201 1485h315l-53 -1053h-211z" />
<glyph unicode="&#x22;" horiz-adv-x="962" d="M145 1454h269l-43 -594h-183zM549 1454h268l-43 -594h-182z" />
<glyph unicode="#" horiz-adv-x="1431" d="M29 389v178h278l55 289h-251v178h284l74 387h215l-74 -387h326l74 387h215l-74 -387h252v-178h-285l-55 -289h270v-178h-305l-74 -389h-215l74 389h-326l-73 -389h-215l73 389h-243zM522 567h326l55 289h-325z" />
<glyph unicode="$" horiz-adv-x="1482" d="M35 346l229 103q109 -247 412 -277v463l-111 14q-229 38 -339.5 138.5t-110.5 271.5q0 175 149.5 282t411.5 117v178h131v-178q428 -24 575 -328l-215 -116q-90 214 -360 243v-415l119 -15q250 -40 366.5 -141.5t116.5 -288.5q0 -191 -161 -308.5t-441 -127.5v-176h-131 v178q-245 14 -410 111.5t-231 271.5zM379 1069q0 -86 67.5 -134.5t225.5 -74.5h4v402q-297 -12 -297 -193zM807 168q162 6 248 61.5t86 157.5q0 98 -69.5 148.5t-233.5 78.5l-31 4v-450z" />
<glyph unicode="%" horiz-adv-x="1933" d="M41 1096q-1 170 115 273.5t307 103.5q189 0 306.5 -105.5t117.5 -277.5q0 -171 -117.5 -275t-304.5 -104q-193 0 -309 104.5t-115 280.5zM248 1096q0 -106 58.5 -165t158.5 -59q96 0 153.5 58t57.5 160q0 103 -57.5 162t-155.5 59t-156.5 -57.5t-58.5 -157.5zM293 -35 l1128 1505h217l-1126 -1505h-219zM1047 350q-1 170 114.5 273.5t306.5 103.5q189 0 306.5 -105.5t117.5 -277.5q0 -171 -117.5 -275t-304.5 -104q-193 0 -308.5 104.5t-114.5 280.5zM1253 350q0 -106 58.5 -164.5t158.5 -58.5q96 0 153.5 57.5t57.5 159.5q0 103 -57.5 162 t-155.5 59t-156.5 -57.5t-58.5 -157.5z" />
<glyph unicode="&#x26;" horiz-adv-x="1564" d="M37 369q0 133 79.5 227.5t254.5 179.5q-103 104 -150 190t-47 179q0 167 121.5 265.5t316.5 98.5q199 0 317 -93t118 -251q0 -117 -74 -215t-195 -159l-67 -35l368 -348q114 167 140 411l217 -37q-29 -301 -197 -518q95 -74 201 -74q52 0 92 11v-203q-75 -21 -131 -21 q-179 0 -324 132q-205 -150 -477 -150q-265 0 -414 114t-149 296zM309 391q0 -103 92 -169t230 -66q164 0 297 94l-422 397q-108 -57 -152.5 -114.5t-44.5 -141.5zM426 1155q0 -66 32.5 -125.5t123.5 -150.5l57 26q81 36 123.5 101.5t42.5 150.5t-50 132.5t-143 47.5 q-89 0 -137.5 -47t-48.5 -135z" />
<glyph unicode="'" horiz-adv-x="559" d="M145 1454h269l-43 -594h-183z" />
<glyph unicode="(" horiz-adv-x="733" d="M119 668q0 261 107.5 506.5t299.5 429.5l193 -95q-178 -196 -260 -401.5t-82 -443.5t83 -447.5t259 -406.5l-197 -97q-191 192 -297 443t-106 512z" />
<glyph unicode=")" horiz-adv-x="733" d="M14 -190q176 197 259 406.5t83 447.5t-82 443.5t-260 401.5l193 95q192 -184 299.5 -429.5t107.5 -506.5t-106 -512t-297 -443z" />
<glyph unicode="*" horiz-adv-x="772" d="M37 1161l63 193l230 -127l-49 254h208l-47 -254l230 127l63 -193l-256 -39l193 -182l-166 -121l-121 242l-119 -242l-166 121l193 182z" />
<glyph unicode="+" horiz-adv-x="1273" d="M100 582v186h430v381h211v-381h430v-186h-430v-406h-211v406h-430z" />
<glyph unicode="," horiz-adv-x="600" d="M145 0v297h312v-274q0 -133 -57 -213t-191 -117l-49 119q83 25 114 67t31 115v6h-160z" />
<glyph unicode="-" horiz-adv-x="1009" d="M100 461v217h807v-217h-807z" />
<glyph unicode="." horiz-adv-x="606" d="M145 0v285h318v-285h-318z" />
<glyph unicode="/" horiz-adv-x="1161" d="M88 -240l735 1796h248l-733 -1796h-250z" />
<glyph unicode="0" horiz-adv-x="1531" d="M92 711q0 348 180.5 549.5t493.5 201.5t492.5 -201.5t179.5 -549.5q0 -347 -179.5 -548.5t-492.5 -201.5t-493.5 202t-180.5 548zM371 711q0 -255 104 -397t291 -142t291 142t104 397q0 258 -103.5 399t-291.5 141t-291.5 -141t-103.5 -399z" />
<glyph unicode="1" horiz-adv-x="929" d="M55 942v236h47q135 2 229 65t132 180h229v-1423h-270v1044q-39 -47 -119 -74.5t-172 -27.5h-76z" />
<glyph unicode="2" horiz-adv-x="1376" d="M72 0v205q402 186 661 389q130 103 182 192t52 201q0 120 -75.5 191t-221.5 71q-143 0 -225.5 -72t-82.5 -198q0 -42 13 -105l-277 27q-12 53 -12 103q0 206 161.5 332t430.5 126q276 0 426.5 -123t150.5 -338q0 -151 -78.5 -275t-234.5 -243q-202 -146 -475 -262h813 v-221h-1208z" />
<glyph unicode="3" horiz-adv-x="1406" d="M70 426l272 27q12 -136 104.5 -210.5t255.5 -74.5q160 0 244 62.5t84 177.5q0 118 -84.5 172.5t-249.5 54.5h-118v188h112q147 0 224 55t77 160q0 104 -78 160.5t-229 56.5q-155 0 -240 -78.5t-90 -220.5l-264 39q5 212 163.5 339.5t438.5 127.5q278 0 427 -106t149 -293 q0 -129 -85 -213t-222 -107q352 -50 352 -346q0 -197 -163 -316.5t-454 -119.5q-281 0 -447.5 125t-178.5 340z" />
<glyph unicode="4" horiz-adv-x="1392" d="M23 338v178l776 907h305v-888h264v-197h-264v-338h-264v338h-817zM297 535h547v469q0 143 6 196h-6q-32 -65 -115 -166l-295 -348q-74 -94 -137 -151z" />
<glyph unicode="5" horiz-adv-x="1382" d="M88 369l272 37q24 -108 111 -172t221 -64q157 0 244.5 80t87.5 223q0 146 -83 226.5t-236 80.5q-246 0 -328 -213l-250 23l90 833h1000v-213h-793l-51 -415q55 89 161.5 136.5t249.5 47.5q242 0 378 -131.5t136 -366.5q0 -237 -165 -378.5t-445 -141.5 q-244 0 -404.5 109.5t-195.5 298.5z" />
<glyph unicode="6" horiz-adv-x="1411" d="M88 690q0 367 172.5 569.5t484.5 202.5q232 0 381 -100t187 -283l-271 -45q-58 223 -303 223q-185 0 -284 -129t-105 -376q63 100 179 154.5t268 54.5q250 0 391 -129.5t141 -358.5q0 -228 -164 -370t-428 -142q-312 0 -480.5 189t-168.5 540zM365 494 q29 -156 124.5 -241t245.5 -85q148 0 236 81.5t88 219.5t-85 215.5t-237 77.5q-138 0 -235 -70t-137 -198z" />
<glyph unicode="7" horiz-adv-x="1220" d="M41 1198v225h1151v-202q-275 -245 -423 -539.5t-148 -628.5v-53h-302v27q0 316 151 613.5t431 557.5h-860z" />
<glyph unicode="8" horiz-adv-x="1429" d="M78 369q0 277 325 358q-145 52 -211.5 135.5t-66.5 210.5q0 177 161 283t429 106q266 0 424.5 -102t158.5 -273q0 -119 -71 -199.5t-207 -115.5q174 -55 253 -147.5t79 -235.5q0 -197 -170 -312.5t-461 -115.5q-298 0 -470.5 109.5t-172.5 298.5zM356 401 q0 -113 97.5 -177t269.5 -64q164 0 258 62t94 171q0 92 -71 148.5t-234 93.5l-154 35q-136 -41 -198 -105.5t-62 -163.5zM397 1073q0 -83 66 -135t213 -84l131 -29q119 42 170 98t51 140q0 103 -82.5 159t-232.5 56q-149 0 -232.5 -54t-83.5 -151z" />
<glyph unicode="9" horiz-adv-x="1413" d="M82 977q0 218 164 351.5t434 133.5q316 0 480.5 -185.5t164.5 -539.5q0 -177 -40 -318.5t-118.5 -244t-202 -158t-284.5 -55.5q-237 0 -389.5 104t-190.5 293l269 50q60 -238 319 -238q186 0 279.5 138t93.5 390q-62 -89 -172.5 -137.5t-259.5 -48.5q-252 0 -399.5 122 t-147.5 343zM352 981q0 -126 87.5 -197t236.5 -71q139 0 240 67.5t135 177.5q-28 139 -118.5 221.5t-250.5 82.5q-151 0 -240.5 -76t-89.5 -205z" />
<glyph unicode=":" horiz-adv-x="606" d="M145 0v285h318v-285h-318zM145 739v285h318v-285h-318z" />
<glyph unicode=";" horiz-adv-x="606" d="M145 0v297h312v-274q0 -133 -57 -213t-191 -117l-49 119q83 25 114 67t31 115v6h-160zM145 739v285h318v-285h-318z" />
<glyph unicode="&#x3c;" horiz-adv-x="1427" d="M154 575v185l1038 416v-205l-801 -301l801 -303v-207z" />
<glyph unicode="=" horiz-adv-x="1263" d="M100 383v190h1063v-190h-1063zM100 774v191h1063v-191h-1063z" />
<glyph unicode="&#x3e;" horiz-adv-x="1427" d="M236 160v207l800 303l-800 301v205l1038 -416v-185z" />
<glyph unicode="?" horiz-adv-x="1249" d="M33 1057q0 204 159 328t439 124q269 0 421 -113t152 -309q0 -122 -63.5 -210t-173.5 -158l-131 -82q-59 -36 -83 -77t-24 -105v-58h-260v84q0 80 36 145t124 122l137 81q79 49 119.5 104t40.5 140q0 101 -80 165.5t-215 64.5q-149 0 -237.5 -72.5t-88.5 -202.5 q0 -54 12 -106l-272 26q-12 52 -12 109zM446 0v266h312v-266h-312z" />
<glyph unicode="@" horiz-adv-x="1871" d="M68 565q0 173 63.5 319.5t177.5 250.5t280.5 162.5t364.5 58.5q391 0 620.5 -205.5t229.5 -544.5q0 -215 -98.5 -341t-267.5 -126q-213 0 -264 170q-53 -87 -148.5 -134.5t-218.5 -47.5q-149 0 -239.5 69t-90.5 183q0 120 86 184.5t277 87.5l317 33v18q0 97 -50 141 t-159 44q-96 0 -150.5 -38t-60.5 -110h-229q7 136 130.5 220.5t313.5 84.5q211 0 315.5 -89t104.5 -271v-244q0 -85 27 -122t88 -37q78 0 124 86t46 235q0 292 -183.5 458.5t-517.5 166.5q-343 0 -539 -180t-196 -482q0 -296 196.5 -470.5t530.5 -174.5q107 0 223 22.5 t203 59.5l58 -117q-200 -98 -504 -98q-397 0 -628.5 209.5t-231.5 568.5zM709 397q0 -51 47 -82.5t123 -31.5q121 0 199.5 64t78.5 165v49l-260 -29q-101 -12 -144.5 -43.5t-43.5 -91.5z" />
<glyph unicode="A" horiz-adv-x="1656" d="M33 0l635 1454h321l635 -1454h-297l-143 354h-711l-143 -354h-297zM555 561h547l-180 447q-28 60 -40 86.5t-27 67t-24 79.5h-4q-25 -90 -92 -233z" />
<glyph unicode="B" horiz-adv-x="1599" d="M195 0v1454h774q105 0 189 -21t139.5 -56.5t93 -84.5t53.5 -102.5t16 -112.5q0 -115 -67.5 -202.5t-194.5 -118.5q146 -23 223.5 -114.5t77.5 -235.5q0 -82 -28 -153t-86 -129t-158.5 -91t-233.5 -33h-798zM479 209h461q140 0 205 60t65 159q0 97 -65 155t-197 58h-469 v-432zM479 842h436q256 0 256 205q0 85 -59 141.5t-197 56.5h-436v-403z" />
<glyph unicode="C" horiz-adv-x="1660" d="M68 727q0 170 55.5 312.5t157.5 243t252 156.5t333 56q300 0 487.5 -140.5t235.5 -387.5l-293 -43q-31 163 -144 253.5t-294 90.5q-230 0 -363 -146t-133 -393q0 -242 134.5 -391.5t367.5 -149.5q172 0 286.5 86t154.5 244l284 -55q-66 -237 -253 -370.5t-480 -133.5 q-248 0 -427.5 98.5t-270 270.5t-90.5 399z" />
<glyph unicode="D" horiz-adv-x="1708" d="M195 0v1454h669q354 0 565 -192t211 -523t-214.5 -535t-563.5 -204h-667zM479 213h365q232 0 365.5 144.5t133.5 379.5q0 233 -134.5 368.5t-368.5 135.5h-361v-1028z" />
<glyph unicode="E" horiz-adv-x="1482" d="M195 0v1454h1142v-217h-858v-389h824v-211h-824v-420h873v-217h-1157z" />
<glyph unicode="F" horiz-adv-x="1417" d="M195 0v1454h1142v-219h-858v-393h824v-217h-824v-625h-284z" />
<glyph unicode="G" horiz-adv-x="1714" d="M68 723q0 170 55.5 312.5t157.5 244t253 158.5t336 57q151 0 277.5 -38t212.5 -102.5t140.5 -145t76.5 -171.5l-293 -49q-31 122 -137.5 204.5t-284.5 82.5q-234 0 -368 -150t-134 -403q0 -245 132.5 -395t371.5 -150q95 0 173.5 24t131 63t89 89.5t53.5 102t18 102.5v19 h-485v206h743v-784h-209l-20 238q-67 -127 -210 -203t-341 -76q-226 0 -394.5 97.5t-256.5 270t-88 396.5z" />
<glyph unicode="H" horiz-adv-x="1769" d="M195 0v1454h284v-604h811v604h285v-1454h-285v631h-811v-631h-284z" />
<glyph unicode="I" horiz-adv-x="673" d="M195 0v1454h284v-1454h-284z" />
<glyph unicode="J" horiz-adv-x="923" d="M37 -12v237q86 -12 184 -12q127 0 195.5 63t68.5 220v958h283v-997q0 -132 -37.5 -228.5t-107.5 -152t-159.5 -81.5t-203.5 -26q-143 0 -223 19z" />
<glyph unicode="K" horiz-adv-x="1630" d="M195 0v1454h284v-706l717 706h350l-579 -567l624 -887h-334l-495 700l-283 -270v-430h-284z" />
<glyph unicode="L" horiz-adv-x="1333" d="M195 0v1454h284v-1223h807v-231h-1091z" />
<glyph unicode="M" horiz-adv-x="2088" d="M195 0v1454h411l393 -1014q35 -110 41 -147h4q9 58 43 147l392 1014h415v-1454h-260v1053q0 79 11 176h-9q-14 -77 -53 -170l-414 -1059h-262l-413 1059q-35 95 -50 170h-8q10 -85 10 -176v-1053h-251z" />
<glyph unicode="N" horiz-adv-x="1763" d="M195 0v1454h321l696 -958q67 -94 99 -172h4q-2 57 -2 190v940h256v-1454h-305l-713 967q-74 112 -96 170h-6q4 -114 4 -189v-948h-258z" />
<glyph unicode="O" horiz-adv-x="1740" d="M68 727q0 352 218.5 560t583.5 208t584 -208t219 -560q0 -232 -99.5 -406.5t-281 -268t-422.5 -93.5q-364 0 -583 209t-219 559zM365 727q0 -249 136.5 -397t368.5 -148q233 0 369.5 147t136.5 398t-136.5 398t-369.5 147t-369 -147t-136 -398z" />
<glyph unicode="P" horiz-adv-x="1501" d="M195 0v1454h733q246 0 390 -123t144 -330q0 -213 -148 -338.5t-399 -125.5h-436v-537h-284zM479 745h391q136 0 215.5 67t79.5 183t-78.5 182t-216.5 66h-391v-498z" />
<glyph unicode="Q" horiz-adv-x="1740" d="M68 727q0 352 218.5 560t583.5 208t584 -208t219 -560q0 -259 -123 -445t-342 -266q100 -98 277 -98q52 0 131 14v-229q-76 -12 -150 -12q-169 0 -293 70.5t-190 203.5q-56 -6 -113 -6q-364 0 -583 209t-219 559zM365 727q0 -249 136.5 -397t368.5 -148q233 0 369.5 147 t136.5 398t-136.5 398t-369.5 147t-369 -147t-136 -398z" />
<glyph unicode="R" horiz-adv-x="1591" d="M195 0v1454h743q117 0 208.5 -24.5t150.5 -65.5t97 -98.5t54 -119t16 -132.5q0 -139 -79.5 -252t-245.5 -156l374 -606h-319l-348 569h-367v-569h-284zM479 774h406q148 0 215 65.5t67 172.5q0 105 -66 168t-216 63h-406v-469z" />
<glyph unicode="S" horiz-adv-x="1495" d="M35 381l237 106q55 -144 181 -227.5t323 -83.5q168 0 262.5 52.5t94.5 162.5q0 97 -63 143.5t-206 69.5l-311 43q-213 33 -323.5 134.5t-110.5 283.5q0 200 166 315t458 115q253 0 426 -91.5t244 -273.5l-221 -118q-103 272 -461 272q-155 0 -242.5 -52.5t-87.5 -146.5 q0 -90 57.5 -136t196.5 -68l299 -45q235 -35 350 -132t115 -286q0 -209 -169.5 -334t-483.5 -125q-292 0 -479.5 112t-251.5 310z" />
<glyph unicode="T" horiz-adv-x="1374" d="M18 1227v227h1338v-227h-527v-1227h-284v1227h-527z" />
<glyph unicode="U" horiz-adv-x="1685" d="M154 571v883h284v-864q0 -179 107.5 -288t298.5 -109q189 0 296 109.5t107 287.5v864h285v-883q0 -279 -181.5 -445.5t-506.5 -166.5q-326 0 -508 166.5t-182 445.5z" />
<glyph unicode="V" horiz-adv-x="1531" d="M4 1454h307l402 -1030q38 -104 49 -172h8q11 68 49 172l402 1030h307l-598 -1454h-328z" />
<glyph unicode="W" horiz-adv-x="2242" d="M45 1454h289l272 -1065q16 -66 21 -106h6q2 31 24 106l320 1065h289l319 -1065q24 -81 27 -106h6q2 32 20 106l271 1065h289l-414 -1454h-330l-307 1053q-19 62 -21 96h-10q0 -37 -18 -96l-307 -1053h-332z" />
<glyph unicode="X" horiz-adv-x="1589" d="M20 0l594 758l-557 696h338l342 -450q46 -65 56 -89h6q11 27 55 86l342 453h330l-551 -706l594 -748h-342l-367 483q-59 81 -69 105h-5q-20 -43 -67 -103l-369 -485h-330z" />
<glyph unicode="Y" horiz-adv-x="1466" d="M-6 1454h319l379 -608q33 -61 39 -86h4q8 33 41 86l383 608h314l-599 -917v-537h-284v537z" />
<glyph unicode="Z" horiz-adv-x="1439" d="M88 0v215l916 1022h-883v217h1229v-213l-916 -1024h950v-217h-1296z" />
<glyph unicode="[" horiz-adv-x="768" d="M195 -240v1796h526v-188h-287v-1419h287v-189h-526z" />
<glyph unicode="\" horiz-adv-x="1161" d="M90 1556h248l735 -1796h-250z" />
<glyph unicode="]" horiz-adv-x="768" d="M47 -51h287v1419h-287v188h526v-1796h-526v189z" />
<glyph unicode="^" horiz-adv-x="1007" d="M41 905l356 547h213l357 -547h-230l-233 375l-236 -375h-227z" />
<glyph unicode="_" horiz-adv-x="1095" d="M0 -184h1096v-160h-1096v160z" />
<glyph unicode="`" horiz-adv-x="1228" d="M18 1487h287l256 -309h-229z" />
<glyph unicode="a" d="M88 276q0 154 125 232q110 70 369 94l366 31v22q0 219 -264 219q-127 0 -201 -48t-86 -138h-276q19 168 170 267.5t393 99.5q271 0 400.5 -107t129.5 -330v-288q0 -207 27 -330h-266q-14 72 -17 186q-53 -104 -170 -160.5t-284 -56.5q-191 0 -303.5 82.5t-112.5 224.5z M362 291q0 -69 60.5 -107.5t169.5 -38.5q161 0 260.5 78.5t99.5 208.5v53l-346 -34q-132 -13 -188 -51t-56 -109z" />
<glyph unicode="b" horiz-adv-x="1460" d="M186 0v1485h265v-635q60 96 169.5 150.5t251.5 54.5q231 0 372.5 -149.5t141.5 -391.5q0 -243 -146 -394t-382 -151q-145 0 -253 55.5t-165 151.5l-26 -176h-228zM442 487q0 -147 90.5 -235t243.5 -88q155 0 244.5 94t89.5 256q0 160 -87.5 253t-242.5 93 q-153 0 -245.5 -87.5t-92.5 -233.5v-52z" />
<glyph unicode="c" horiz-adv-x="1316" d="M72 514q0 250 164 395.5t446 145.5q235 0 381.5 -98t183.5 -281l-270 -39q-23 106 -101 162.5t-202 56.5q-154 0 -241 -90t-87 -250q0 -162 89 -254t243 -92q248 0 305 219l262 -45q-38 -175 -189 -275t-378 -100q-277 0 -441.5 148t-164.5 397z" />
<glyph unicode="d" horiz-adv-x="1460" d="M74 512q0 241 148 392t384 151q273 0 404 -189v619h264v-1485h-254v193q-63 -107 -172 -165.5t-258 -58.5q-228 0 -372 150.5t-144 392.5zM350 514q0 -162 88.5 -256t241.5 -94q151 0 243.5 87.5t92.5 233.5v50q0 148 -93.5 236.5t-246.5 88.5q-154 0 -240 -91.5 t-86 -254.5z" />
<glyph unicode="e" horiz-adv-x="1329" d="M72 502q0 259 160 406t434 147q276 0 427.5 -134t151.5 -380v-95h-915q8 -130 102.5 -206t253.5 -76q238 0 336 178l207 -94q-77 -136 -218 -207.5t-335 -71.5q-283 0 -443.5 140.5t-160.5 392.5zM330 612h653v11q-1 124 -88.5 194t-232.5 70q-149 0 -236.5 -73.5 t-95.5 -201.5z" />
<glyph unicode="f" horiz-adv-x="919" d="M39 838v186h235v102q0 182 107.5 278.5t312.5 96.5q97 0 185 -20v-199q-71 14 -154 14q-98 0 -141 -42.5t-43 -137.5v-92h338v-186h-338v-838h-267v838h-235z" />
<glyph unicode="g" horiz-adv-x="1343" d="M68 -164q0 70 44 121.5t130 75.5q-136 59 -136 184q0 162 191 221q-150 98 -150 267q0 161 136 255.5t376 94.5q163 0 281 -45q25 89 98.5 138.5t188.5 49.5q33 0 71 -6v-191q-53 11 -92 11q-110 0 -157 -62q122 -93 122 -245q0 -160 -138 -258.5t-374 -98.5 q-152 0 -264 41q-67 -26 -67 -82q0 -90 155 -90h420q192 0 288.5 -74.5t96.5 -218.5q0 -354 -649 -354q-294 0 -432.5 70t-138.5 196zM285 -117q0 -82 92.5 -117.5t279.5 -35.5q214 0 304 37.5t90 113.5q0 119 -185 119h-422q-30 0 -84 4q-75 -43 -75 -121zM406 705 q0 -92 68 -146.5t185 -54.5q116 0 184 55t68 146q0 90 -68 143t-184 53q-118 0 -185.5 -52.5t-67.5 -143.5z" />
<glyph unicode="h" horiz-adv-x="1462" d="M186 0v1485h265v-668q58 117 166.5 178.5t254.5 61.5q218 0 331.5 -127t113.5 -371v-559h-264v532q0 157 -72 237.5t-211 80.5q-149 0 -234 -93t-85 -257v-500h-265z" />
<glyph unicode="i" horiz-adv-x="616" d="M164 1194v264h289v-264h-289zM176 0v1024h264v-1024h-264z" />
<glyph unicode="j" horiz-adv-x="628" d="M-63 -201q70 -6 116 -6q71 0 103 43t32 154v1034h265v-1065q0 -86 -18 -151.5t-58.5 -117.5t-113 -79t-175.5 -27q-94 0 -151 13v202zM172 1194v264h289v-264h-289z" />
<glyph unicode="k" horiz-adv-x="1368" d="M186 0v1485h265v-930l518 469h342l-426 -383l446 -641h-309l-334 487l-237 -194v-293h-265z" />
<glyph unicode="l" horiz-adv-x="636" d="M186 0v1485h265v-1485h-265z" />
<glyph unicode="m" horiz-adv-x="2105" d="M176 0v1024h256v-203q100 236 371 236q135 0 228 -60.5t136 -177.5q125 238 396 238q192 0 295.5 -117t103.5 -334v-606h-264v571q0 136 -59 206.5t-173 70.5q-125 0 -195.5 -79t-70.5 -220v-549h-264v573q0 135 -57.5 205t-171.5 70q-124 0 -195.5 -82.5t-71.5 -226.5 v-539h-264z" />
<glyph unicode="n" horiz-adv-x="1452" d="M176 0v1024h256v-219q124 252 434 252q217 0 329 -123t112 -359v-575h-265v541q0 307 -278 307q-151 0 -237.5 -92.5t-86.5 -257.5v-498h-264z" />
<glyph unicode="o" d="M72 512q0 251 167.5 397t444.5 146q275 0 442.5 -146t167.5 -397q0 -250 -168 -396.5t-442 -146.5q-276 0 -444 146.5t-168 396.5zM346 512q0 -166 90 -257t248 -91q157 0 246.5 91t89.5 257q0 167 -89.5 257.5t-246.5 90.5q-159 0 -248.5 -90.5t-89.5 -257.5z" />
<glyph unicode="p" horiz-adv-x="1449" d="M176 -399v1423h256v-186q62 105 174.5 161t253.5 56q233 0 374.5 -148t141.5 -393q0 -246 -146.5 -395.5t-379.5 -149.5q-136 0 -244.5 52.5t-165.5 138.5v-559h-264zM434 492q0 -149 91.5 -238.5t242.5 -89.5q154 0 243 93.5t89 256.5t-86 254.5t-240 91.5t-247 -87.5 t-93 -237.5v-43z" />
<glyph unicode="q" horiz-adv-x="1449" d="M74 514q0 246 146.5 394.5t381.5 148.5q142 0 249 -52.5t167 -152.5l26 172h230v-1423h-264v573q-58 -94 -165.5 -150.5t-248.5 -56.5q-233 0 -377.5 151.5t-144.5 395.5zM346 516q0 -165 90.5 -259.5t245.5 -94.5q154 0 242 89t88 236v54q0 143 -89.5 232t-246.5 89 q-150 0 -240 -90.5t-90 -255.5z" />
<glyph unicode="r" horiz-adv-x="909" d="M176 0v1024h242v-268q41 136 140.5 215.5t240.5 79.5q29 0 73 -7v-243q-40 6 -79 6q-166 0 -252 -86q-101 -101 -101 -322v-399h-264z" />
<glyph unicode="s" horiz-adv-x="1241" d="M61 262l181 100q114 -208 430 -208q241 0 241 131q0 59 -36.5 86.5t-126.5 36.5l-285 24q-352 37 -352 303q0 152 131.5 236t369.5 84q198 0 338.5 -66t202.5 -184l-168 -107q-118 176 -387 176q-240 0 -240 -124q0 -53 40 -81.5t126 -37.5l297 -27q177 -17 256.5 -91.5 t79.5 -207.5q0 -160 -128.5 -248t-377.5 -88q-441 0 -592 293z" />
<glyph unicode="t" horiz-adv-x="944" d="M23 838v186h237v256l264 102v-358h348v-186h-348v-449q0 -98 48.5 -144t148.5 -46q74 0 151 18v-211q-103 -29 -217 -29q-210 0 -302.5 96t-92.5 275v490h-237z" />
<glyph unicode="u" horiz-adv-x="1433" d="M143 416v608h265v-563q0 -149 71 -219t189 -70q105 0 180 47t110 122.5t35 168.5v514h264v-1024h-256v217q-49 -116 -161 -182t-256 -66q-221 0 -331 115t-110 332z" />
<glyph unicode="v" horiz-adv-x="1243" d="M6 1024h285l287 -672q25 -67 40 -127h7q18 71 41 127l284 672h287l-469 -1024h-293z" />
<glyph unicode="w" horiz-adv-x="1857" d="M37 1024h266l211 -692q16 -63 21 -107h4q3 17 26 107l232 692h264l231 -692q19 -60 27 -107h4q8 48 23 107l210 692h265l-348 -1024h-283l-234 680q-21 61 -24 104h-6q-2 -32 -23 -104l-233 -680h-285z" />
<glyph unicode="x" horiz-adv-x="1275" d="M20 0l449 526l-424 498h315l215 -264q49 -61 64 -101h2q16 37 64 101l210 264h310l-420 -500l450 -524h-319l-240 285q-51 64 -65 98h-2q-20 -40 -70 -98l-237 -285h-302z" />
<glyph unicode="y" horiz-adv-x="1241" d="M6 1024h297l297 -684q21 -51 35 -111h6q7 36 35 109l278 686h281l-481 -1081q-85 -194 -207 -277.5t-311 -83.5q-88 0 -144 12v209q72 -10 115 -10q207 0 280 166l17 45z" />
<glyph unicode="z" horiz-adv-x="1187" d="M78 0v178l682 656h-654v190h986v-174l-676 -657h708v-193h-1046z" />
<glyph unicode="{" horiz-adv-x="782" d="M72 586v176q47 1 79 10.5t50 23t27 40.5t11.5 52.5t2.5 69.5v302q0 148 95.5 228.5t270.5 80.5h123v-183h-65q-92 0 -136.5 -43.5t-44.5 -132.5v-239q0 -118 -38.5 -193t-139.5 -102q100 -33 138 -112t38 -197v-258q0 -89 43.5 -128.5t132.5 -39.5h76v-183h-139 q-352 0 -352 305v318q0 52 -5 83.5t-21.5 61.5t-52.5 44.5t-93 15.5z" />
<glyph unicode="|" horiz-adv-x="552" d="M186 -240v1796h181v-1796h-181z" />
<glyph unicode="}" horiz-adv-x="782" d="M47 -59h76q89 0 132.5 39.5t43.5 128.5v258q0 118 38 197t138 112q-101 27 -139.5 102t-38.5 193v239q0 89 -44 132.5t-136 43.5h-66v183h123q175 0 271 -80.5t96 -228.5v-302q0 -44 2.5 -69.5t11.5 -52.5t27 -40.5t50 -23t79 -10.5v-176q-57 -1 -93 -15.5t-52.5 -44.5 t-21.5 -61.5t-5 -83.5v-318q0 -305 -353 -305h-139v183z" />
<glyph unicode="~" horiz-adv-x="1427" d="M170 510q27 135 115.5 208t214.5 73q57 0 109 -16.5t91 -39.5t74.5 -46t73.5 -39.5t74 -16.5q122 0 161 145l172 -33q-28 -140 -116 -213t-211 -73q-56 0 -107.5 16t-90 39.5t-74 46.5t-73.5 39t-75 16q-129 0 -164 -141z" />
<glyph unicode="&#xa1;" horiz-adv-x="716" d="M201 -297l51 1053h211l53 -1053h-315zM201 922v266h315v-266h-315z" />
<glyph unicode="&#xa2;" horiz-adv-x="1345" d="M72 512q0 237 148 380.5t409 160.5v161h129v-161q216 -12 350 -108t168 -263l-248 -35q-47 197 -270 221v-710q223 24 274 219l242 -43q-37 -158 -173 -253.5t-343 -109.5v-170h-129v170q-259 17 -408 161t-149 380zM324 514q0 -154 79.5 -246.5t225.5 -109.5v710 q-145 -15 -225 -107.5t-80 -246.5z" />
<glyph unicode="&#xa3;" horiz-adv-x="1470" d="M31 141q299 88 299 361q0 72 -15 160h-227v151h193q-25 102 -25 188q0 214 146 336.5t401 122.5q227 0 367.5 -89t181.5 -261l-260 -55q-25 100 -97.5 152.5t-187.5 52.5q-281 0 -281 -254q0 -70 25 -193h455v-151h-420q10 -62 10 -123q0 -238 -211 -332q76 16 176 16 q82 0 211.5 -17.5t206.5 -17.5q92 0 150 50.5t71 144.5l250 -39q-28 -177 -144 -278t-294 -101q-97 0 -261 29t-290 29q-179 0 -377 -39z" />
<glyph unicode="&#xa4;" horiz-adv-x="1263" d="M72 205l129 129q-95 122 -95 287q0 164 97 288l-131 129l114 107l138 -131q133 82 317 82q174 0 303 -74l133 125l115 -107l-125 -120q104 -122 104 -299t-104 -299l121 -119l-115 -105l-127 123q-130 -76 -305 -76q-183 0 -322 84l-133 -131zM319 621q0 -130 88 -209.5 t234 -79.5q142 0 229.5 80t87.5 209t-87 207.5t-230 78.5q-146 0 -234 -78.5t-88 -207.5z" />
<glyph unicode="&#xa5;" horiz-adv-x="1431" d="M-6 1423h309l289 -409q84 -127 123 -205h6q44 87 125 205l289 409h303l-564 -772h431v-133h-453v-112h453v-134h-453v-272h-272v272h-449v134h449v112h-449v133h426z" />
<glyph unicode="&#xa6;" horiz-adv-x="552" d="M186 -240v779h181v-779h-181zM186 786v770h181v-770h-181z" />
<glyph unicode="&#xa7;" horiz-adv-x="1216" d="M35 74l176 92q92 -186 385 -186q256 0 256 149q0 58 -36 91t-130 61l-303 71q-175 44 -252.5 117.5t-77.5 196.5q0 151 150 229q-111 75 -111 227q0 159 136 250.5t370 91.5q185 0 315 -63.5t185 -181.5l-176 -103q-91 168 -338 168q-118 0 -180 -35.5t-62 -103.5 q0 -60 38 -91.5t146 -60.5l301 -67q163 -38 239.5 -114t76.5 -202q0 -150 -127 -241q90 -78 90 -217q0 -170 -140 -264.5t-391 -94.5q-208 0 -346.5 71.5t-193.5 209.5zM293 705q0 -66 47 -101t190 -78l271 -57q9 -3 29 -8t30 -8q45 42 45 108q0 69 -45.5 107t-171.5 75 l-291 70q-6 2 -18.5 5t-18.5 5q-67 -43 -67 -118z" />
<glyph unicode="&#xa8;" horiz-adv-x="1228" d="M98 1202v248h269v-248h-269zM629 1202v248h266v-248h-266z" />
<glyph unicode="&#xa9;" horiz-adv-x="1783" d="M68 727q0 175 63 320.5t173 243t261.5 151t327.5 53.5q235 0 421 -91.5t294 -267.5t108 -409t-108 -409t-294 -267.5t-421 -91.5q-176 0 -327.5 53.5t-261.5 151t-173 243t-63 320.5zM193 727q0 -199 92.5 -350.5t250.5 -230t357 -78.5q198 0 355.5 78.5t250 230 t92.5 350.5q0 200 -92.5 351.5t-250 229.5t-355.5 78q-149 0 -277 -46t-222 -129.5t-147.5 -208t-53.5 -275.5zM453 727q0 200 120 319t332 119q173 0 284 -79t126 -209l-199 -27q-11 73 -67 117.5t-146 44.5q-117 0 -185.5 -77.5t-68.5 -207.5q0 -129 69 -206t187 -77 q86 0 143.5 44t71.5 116l197 -31q-27 -128 -137 -206t-275 -78q-210 0 -331 118.5t-121 319.5z" />
<glyph unicode="&#xaa;" horiz-adv-x="1075" d="M84 838q0 60 25 103t74.5 68.5t106.5 39.5t138 22l283 25v20q0 79 -42.5 115.5t-131.5 36.5q-85 0 -134.5 -33t-56.5 -96h-240q15 125 130.5 195.5t300.5 70.5q211 0 308 -78.5t97 -243.5v-221q0 -126 19 -227h-228q-9 53 -12 137q-34 -74 -120.5 -117t-205.5 -43 q-144 0 -227.5 61t-83.5 165zM315 854q0 -49 43.5 -77.5t118.5 -28.5q107 0 173.5 52.5t66.5 135.5v59l-223 -22q-95 -10 -137 -38.5t-42 -80.5z" />
<glyph unicode="&#xab;" horiz-adv-x="1255" d="M53 565l414 422h258l-403 -422l401 -428h-262zM547 565l414 422h258l-404 -422l402 -428h-263z" />
<glyph unicode="&#xac;" horiz-adv-x="1427" d="M180 588v190h1041v-518h-197v328h-844z" />
<glyph unicode="&#xad;" horiz-adv-x="1009" d="M100 461v217h807v-217h-807z" />
<glyph unicode="&#xae;" horiz-adv-x="1783" d="M68 727q0 175 63 320.5t173 243t261.5 151t327.5 53.5q235 0 421 -91.5t294 -267.5t108 -409t-108 -409t-294 -267.5t-421 -91.5q-176 0 -327.5 53.5t-261.5 151t-173 243t-63 320.5zM193 727q0 -199 92.5 -350.5t250.5 -230t357 -78.5q198 0 355.5 78.5t250 230 t92.5 350.5q0 200 -92.5 351.5t-250 229.5t-355.5 78q-149 0 -277 -46t-222 -129.5t-147.5 -208t-53.5 -275.5zM555 319v832h430q150 0 230.5 -66t80.5 -188q0 -86 -49.5 -149t-138.5 -89l211 -340h-213l-186 322h-177v-322h-188zM743 776h209q152 0 152 119t-150 119h-211 v-238z" />
<glyph unicode="&#xaf;" horiz-adv-x="1228" d="M106 1235v168h789v-168h-789z" />
<glyph unicode="&#xb0;" horiz-adv-x="925" d="M51 1069q0 179 117.5 289t294.5 110t293 -109.5t116 -289.5q0 -181 -116 -291t-293 -110t-294.5 110t-117.5 291zM236 1069q0 -105 64 -169t163 -64t162 64t63 169q0 103 -63 167t-162 64t-163 -64t-64 -167z" />
<glyph unicode="&#xb1;" horiz-adv-x="1427" d="M176 0v190h1073v-190h-1073zM176 594v188h430v322h209v-322h434v-188h-434v-315h-209v315h-430z" />
<glyph unicode="&#xb4;" horiz-adv-x="1228" d="M98 1178l256 309h287l-313 -309h-230z" />
<glyph unicode="&#xb5;" horiz-adv-x="1464" d="M176 -399v1423h264v-563q0 -149 71 -219t189 -70q105 0 180 47t110.5 122.5t35.5 168.5v514h264v-1024h-256v217q-49 -116 -161.5 -182t-256.5 -66q-120 0 -202 33v-401h-238z" />
<glyph unicode="&#xb6;" horiz-adv-x="1589" d="M115 1092q0 195 149.5 289t411.5 94h772v-144h-217v-1536h-164v1536h-246v-1536h-164v920q-124 0 -219.5 19.5t-169.5 62t-113.5 117t-39.5 178.5z" />
<glyph unicode="&#xb7;" horiz-adv-x="606" d="M145 551v285h318v-285h-318z" />
<glyph unicode="&#xb8;" horiz-adv-x="1228" d="M111 -303l149 35q29 -54 105 -54q44 0 71 21.5t27 58.5q0 35 -25 56.5t-67 21.5q-50 0 -88 -33l-121 29l102 180h139l-79 -116q42 28 116 28q93 0 146 -44.5t53 -123.5q0 -87 -73.5 -136.5t-198.5 -49.5q-94 0 -160 33t-96 94z" />
<glyph unicode="&#xba;" horiz-adv-x="1071" d="M72 1010q0 185 127.5 290t337.5 105q209 0 336.5 -105t127.5 -290q0 -186 -127.5 -292t-336.5 -106q-210 0 -337.5 106t-127.5 292zM305 1010q0 -117 62.5 -180.5t169.5 -63.5q106 0 168.5 63.5t62.5 180.5q0 115 -62.5 178t-168.5 63q-107 0 -169.5 -63t-62.5 -178z" />
<glyph unicode="&#xbb;" horiz-adv-x="1255" d="M37 987h258l414 -422l-408 -428h-262l401 428zM530 987h258l414 -422l-407 -428h-263l402 428z" />
<glyph unicode="&#xbc;" horiz-adv-x="1853" d="M51 1155v162h27q170 0 223 137h154v-792h-183v555q-62 -62 -180 -62h-41zM215 -35l1024 1524h215l-1020 -1524h-219zM983 176v123l467 494h205v-486h157v-131h-157v-176h-180v176h-492zM1159 307h316v336z" />
<glyph unicode="&#xbd;" horiz-adv-x="1941" d="M51 1155v162h27q170 0 223 137h154v-792h-183v555q-62 -62 -180 -62h-41zM215 -35l1024 1524h215l-1020 -1524h-219zM1122 0v131q69 32 108 51t97.5 48.5t92.5 49.5t77 48t67.5 51.5t47.5 51t33 56t10 58.5q0 62 -44 96.5t-122 34.5q-77 0 -124.5 -35.5t-47.5 -103.5 q0 -14 8 -50l-192 17q-7 28 -7 53q0 120 102 189t265 69q167 0 262.5 -65.5t95.5 -190.5q0 -237 -438 -416h453v-143h-744z" />
<glyph unicode="&#xbe;" horiz-adv-x="2131" d="M59 907l189 17q4 -70 55 -109t139 -39q86 0 135.5 29.5t49.5 89.5q0 53 -44.5 78.5t-144.5 25.5h-84v127h84q82 0 126 27t44 78q0 54 -45.5 82t-124.5 28q-88 0 -136.5 -38.5t-49.5 -110.5l-184 18q3 124 103 195.5t273 71.5q164 0 259.5 -59.5t95.5 -166.5 q0 -73 -53.5 -121t-137.5 -57q104 -12 159.5 -60t55.5 -130q0 -114 -104.5 -178t-276.5 -64q-175 0 -277 71t-106 195zM494 -35l1024 1524h215l-1020 -1524h-219zM1262 176v123l467 494h204v-486h158v-131h-158v-176h-180v176h-491zM1438 307h315v336z" />
<glyph unicode="&#xbf;" horiz-adv-x="1249" d="M45 100q0 122 64 210.5t174 158.5l131 82q59 36 82.5 77t23.5 105v58h260v-84q0 -80 -35.5 -145t-123.5 -122l-138 -82q-51 -32 -83 -61.5t-54 -76t-22 -105.5q0 -101 79.5 -165.5t214.5 -64.5q149 0 237.5 72.5t88.5 202.5q0 54 -12 106l272 -26q13 -56 13 -109 q0 -204 -159.5 -328.5t-439.5 -124.5q-269 0 -421 113t-152 309zM492 922v266h311v-266h-311z" />
<glyph unicode="&#xc0;" horiz-adv-x="1656" d="M33 0l635 1454h321l635 -1454h-297l-143 354h-711l-143 -354h-297zM424 1780h272l242 -232h-236zM555 561h547l-180 447q-28 60 -40 86.5t-27 67t-24 79.5h-4q-25 -90 -92 -233z" />
<glyph unicode="&#xc1;" horiz-adv-x="1656" d="M33 0l635 1454h321l635 -1454h-297l-143 354h-711l-143 -354h-297zM555 561h547l-180 447q-28 60 -40 86.5t-27 67t-24 79.5h-4q-25 -90 -92 -233zM711 1548l241 232h273l-279 -232h-235z" />
<glyph unicode="&#xc2;" horiz-adv-x="1656" d="M33 0l635 1454h321l635 -1454h-297l-143 354h-711l-143 -354h-297zM430 1548l252 232h295l250 -232h-240l-158 146l-157 -146h-242zM555 561h547l-180 447q-28 60 -40 86.5t-27 67t-24 79.5h-4q-25 -90 -92 -233z" />
<glyph unicode="&#xc3;" horiz-adv-x="1656" d="M33 0l635 1454h321l635 -1454h-297l-143 354h-711l-143 -354h-297zM403 1585q23 107 91.5 164t175.5 57q55 0 103.5 -17t78 -38t67 -38t72.5 -17q89 0 115 104l151 -45q-23 -107 -91 -163t-175 -56q-55 0 -103.5 17t-78 37.5t-67 37.5t-72.5 17q-89 0 -115 -105zM555 561 h547l-180 447q-28 60 -40 86.5t-27 67t-24 79.5h-4q-25 -90 -92 -233z" />
<glyph unicode="&#xc4;" horiz-adv-x="1656" d="M33 0l635 1454h321l635 -1454h-297l-143 354h-711l-143 -354h-297zM426 1548v221h264v-221h-264zM555 561h547l-180 447q-28 60 -40 86.5t-27 67t-24 79.5h-4q-25 -90 -92 -233zM969 1548v221h266v-221h-266z" />
<glyph unicode="&#xc5;" horiz-adv-x="1656" d="M33 0l635 1454h321l635 -1454h-297l-143 354h-711l-143 -354h-297zM555 561h547l-180 447q-28 60 -40 86.5t-27 67t-24 79.5h-4q-25 -90 -92 -233zM578 1741q0 100 68.5 161.5t180.5 61.5q113 0 182.5 -61.5t69.5 -161.5t-70 -162.5t-182 -62.5t-180.5 62.5t-68.5 162.5z M717 1741q0 -50 30.5 -80.5t79.5 -30.5t80 31t31 80t-30.5 79.5t-80.5 30.5q-49 0 -79.5 -30.5t-30.5 -79.5z" />
<glyph unicode="&#xc6;" horiz-adv-x="2422" d="M-16 0l1040 1454h1251v-217h-858v-389h824v-211h-824v-420h873v-217h-1157v326h-621l-219 -326h-309zM651 530h482v715z" />
<glyph unicode="&#xc7;" horiz-adv-x="1660" d="M68 727q0 170 55.5 312.5t157.5 243t252 156.5t333 56q300 0 487.5 -140.5t235.5 -387.5l-293 -43q-31 163 -144 253.5t-294 90.5q-230 0 -363 -146t-133 -393q0 -242 134.5 -391.5t367.5 -149.5q172 0 286.5 86t154.5 244l284 -55q-63 -225 -232.5 -357t-436.5 -145 l-46 -65q42 28 117 28q93 0 146 -44.5t53 -123.5q0 -87 -73.5 -136.5t-198.5 -49.5q-94 0 -160 33t-96 94l149 35q29 -54 104 -54q45 0 72 21.5t27 58.5q0 35 -25 56.5t-67 21.5q-50 0 -88 -33l-121 29l73 129q-227 14 -390.5 115.5t-245.5 268t-82 382.5z" />
<glyph unicode="&#xc8;" horiz-adv-x="1482" d="M195 0v1454h1142v-217h-858v-389h824v-211h-824v-420h873v-217h-1157zM365 1780h272l242 -232h-236z" />
<glyph unicode="&#xc9;" horiz-adv-x="1482" d="M195 0v1454h1142v-217h-858v-389h824v-211h-824v-420h873v-217h-1157zM651 1548l242 232h272l-278 -232h-236z" />
<glyph unicode="&#xca;" horiz-adv-x="1482" d="M195 0v1454h1142v-217h-858v-389h824v-211h-824v-420h873v-217h-1157zM371 1548l252 232h295l249 -232h-239l-158 146l-158 -146h-241z" />
<glyph unicode="&#xcb;" horiz-adv-x="1482" d="M195 0v1454h1142v-217h-858v-389h824v-211h-824v-420h873v-217h-1157zM367 1548v221h264v-221h-264zM909 1548v221h267v-221h-267z" />
<glyph unicode="&#xcc;" horiz-adv-x="673" d="M27 1780h254l170 -232h-228zM195 0v1454h284v-1454h-284z" />
<glyph unicode="&#xcd;" horiz-adv-x="673" d="M195 0v1454h284v-1454h-284zM223 1548l170 232h254l-196 -232h-228z" />
<glyph unicode="&#xce;" horiz-adv-x="673" d="M39 1548l160 232h278l160 -232h-207l-92 150l-92 -150h-207zM195 0v1454h284v-1454h-284z" />
<glyph unicode="&#xcf;" horiz-adv-x="673" d="M43 1548v221h246v-221h-246zM195 0v1454h284v-1454h-284zM389 1548v221h246v-221h-246z" />
<glyph unicode="&#xd0;" horiz-adv-x="1708" d="M23 666v178h172v610h669q354 0 565 -192t211 -523t-214.5 -535t-563.5 -204h-667v666h-172zM479 213h365q232 0 365.5 144.5t133.5 379.5q0 233 -134.5 368.5t-368.5 135.5h-361v-397h430v-178h-430v-453z" />
<glyph unicode="&#xd1;" horiz-adv-x="1763" d="M195 0v1454h321l696 -958q67 -94 99 -172h4q-2 57 -2 190v940h256v-1454h-305l-713 967q-74 112 -96 170h-6q4 -114 4 -189v-948h-258zM459 1585q23 108 91 164.5t175 56.5q55 0 104 -17t78.5 -38t67 -38t72.5 -17q88 0 114 104l152 -45q-23 -107 -91 -163t-175 -56 q-55 0 -104 17t-78.5 37.5t-67 37.5t-72.5 17q-89 0 -115 -105z" />
<glyph unicode="&#xd2;" horiz-adv-x="1740" d="M68 727q0 352 218.5 560t583.5 208t584 -208t219 -560q0 -232 -99.5 -406.5t-281 -268t-422.5 -93.5q-364 0 -583 209t-219 559zM365 727q0 -249 136.5 -397t368.5 -148q233 0 369.5 147t136.5 398t-136.5 398t-369.5 147t-369 -147t-136 -398zM465 1780h272l242 -232 h-236z" />
<glyph unicode="&#xd3;" horiz-adv-x="1740" d="M68 727q0 352 218.5 560t583.5 208t584 -208t219 -560q0 -232 -99.5 -406.5t-281 -268t-422.5 -93.5q-364 0 -583 209t-219 559zM365 727q0 -249 136.5 -397t368.5 -148q233 0 369.5 147t136.5 398t-136.5 398t-369.5 147t-369 -147t-136 -398zM752 1548l241 232h273 l-279 -232h-235z" />
<glyph unicode="&#xd4;" horiz-adv-x="1740" d="M68 727q0 352 218.5 560t583.5 208t584 -208t219 -560q0 -232 -99.5 -406.5t-281 -268t-422.5 -93.5q-364 0 -583 209t-219 559zM365 727q0 -249 136.5 -397t368.5 -148q233 0 369.5 147t136.5 398t-136.5 398t-369.5 147t-369 -147t-136 -398zM471 1548l252 232h295 l250 -232h-240l-158 146l-157 -146h-242z" />
<glyph unicode="&#xd5;" horiz-adv-x="1740" d="M68 727q0 352 218.5 560t583.5 208t584 -208t219 -560q0 -232 -99.5 -406.5t-281 -268t-422.5 -93.5q-364 0 -583 209t-219 559zM365 727q0 -249 136.5 -397t368.5 -148q233 0 369.5 147t136.5 398t-136.5 398t-369.5 147t-369 -147t-136 -398zM444 1585q23 107 91.5 164 t175.5 57q55 0 103.5 -17t78 -38t67 -38t72.5 -17q89 0 115 104l151 -45q-23 -107 -91 -163t-175 -56q-55 0 -103.5 17t-78 37.5t-67 37.5t-72.5 17q-89 0 -115 -105z" />
<glyph unicode="&#xd6;" horiz-adv-x="1740" d="M68 727q0 352 218.5 560t583.5 208t584 -208t219 -560q0 -232 -99.5 -406.5t-281 -268t-422.5 -93.5q-364 0 -583 209t-219 559zM365 727q0 -249 136.5 -397t368.5 -148q233 0 369.5 147t136.5 398t-136.5 398t-369.5 147t-369 -147t-136 -398zM467 1548v221h264v-221 h-264zM1010 1548v221h266v-221h-266z" />
<glyph unicode="&#xd7;" horiz-adv-x="1427" d="M170 295l399 375l-399 372l141 138l402 -375l401 375l143 -138l-399 -372l399 -373l-141 -139l-403 377l-404 -375z" />
<glyph unicode="&#xd8;" horiz-adv-x="1740" d="M68 727q0 352 218.5 560t583.5 208q292 0 496 -137l127 135l115 -92l-129 -137q194 -203 194 -537q0 -232 -99.5 -406.5t-281 -268t-422.5 -93.5q-293 0 -495 139l-129 -137l-115 92l131 140q-194 203 -194 534zM365 727q0 -198 88 -334l737 778q-129 101 -320 101 q-233 0 -369 -147t-136 -398zM551 285q131 -103 319 -103q233 0 369.5 147t136.5 398q0 200 -88 336z" />
<glyph unicode="&#xd9;" horiz-adv-x="1685" d="M154 571v883h284v-864q0 -179 107.5 -288t298.5 -109q189 0 296 109.5t107 287.5v864h285v-883q0 -279 -181.5 -445.5t-506.5 -166.5q-326 0 -508 166.5t-182 445.5zM438 1780h273l241 -232h-235z" />
<glyph unicode="&#xda;" horiz-adv-x="1685" d="M154 571v883h284v-864q0 -179 107.5 -288t298.5 -109q189 0 296 109.5t107 287.5v864h285v-883q0 -279 -181.5 -445.5t-506.5 -166.5q-326 0 -508 166.5t-182 445.5zM725 1548l242 232h272l-278 -232h-236z" />
<glyph unicode="&#xdb;" horiz-adv-x="1685" d="M154 571v883h284v-864q0 -179 107.5 -288t298.5 -109q189 0 296 109.5t107 287.5v864h285v-883q0 -279 -181.5 -445.5t-506.5 -166.5q-326 0 -508 166.5t-182 445.5zM444 1548l252 232h295l250 -232h-240l-157 146l-158 -146h-242z" />
<glyph unicode="&#xdc;" horiz-adv-x="1685" d="M154 571v883h284v-864q0 -179 107.5 -288t298.5 -109q189 0 296 109.5t107 287.5v864h285v-883q0 -279 -181.5 -445.5t-506.5 -166.5q-326 0 -508 166.5t-182 445.5zM440 1548v221h265v-221h-265zM983 1548v221h266v-221h-266z" />
<glyph unicode="&#xdd;" horiz-adv-x="1466" d="M-6 1454h319l379 -608q33 -61 39 -86h4q8 33 41 86l383 608h314l-599 -917v-537h-284v537zM616 1548l242 232h272l-278 -232h-236z" />
<glyph unicode="&#xde;" horiz-adv-x="1411" d="M195 0v1454h284v-250h381q236 0 374 -119.5t138 -324.5t-139 -326t-375 -121h-379v-313h-284zM479 524h326q127 0 197.5 62.5t70.5 171.5q0 110 -70 171.5t-198 61.5h-326v-467z" />
<glyph unicode="&#xdf;" horiz-adv-x="1462" d="M174 0v1014q0 239 148.5 367t431.5 128q254 0 397 -96t143 -274q0 -137 -83.5 -225t-233.5 -107q198 -19 303.5 -117t105.5 -264q0 -216 -152 -331t-437 -115q-97 0 -205 18v190q91 -16 172 -16q350 0 350 262q0 256 -383 262h-145v185h133q301 9 301 233 q0 101 -72.5 155t-206.5 54q-154 0 -228.5 -74t-74.5 -229v-1020h-264z" />
<glyph unicode="&#xe0;" d="M88 276q0 154 125 232q110 70 369 94l366 31v22q0 219 -264 219q-127 0 -201 -48t-86 -138h-276q19 168 170 267.5t393 99.5q271 0 400.5 -107t129.5 -330v-288q0 -207 27 -330h-266q-14 72 -17 186q-53 -104 -170 -160.5t-284 -56.5q-191 0 -303.5 82.5t-112.5 224.5z M260 1487h287l256 -309h-230zM362 291q0 -69 60.5 -107.5t169.5 -38.5q161 0 260.5 78.5t99.5 208.5v53l-346 -34q-132 -13 -188 -51t-56 -109z" />
<glyph unicode="&#xe1;" d="M88 276q0 154 125 232q110 70 369 94l366 31v22q0 219 -264 219q-127 0 -201 -48t-86 -138h-276q19 168 170 267.5t393 99.5q271 0 400.5 -107t129.5 -330v-288q0 -207 27 -330h-266q-14 72 -17 186q-53 -104 -170 -160.5t-284 -56.5q-191 0 -303.5 82.5t-112.5 224.5z M362 291q0 -69 60.5 -107.5t169.5 -38.5q161 0 260.5 78.5t99.5 208.5v53l-346 -34q-132 -13 -188 -51t-56 -109zM573 1178l256 309h287l-313 -309h-230z" />
<glyph unicode="&#xe2;" d="M88 276q0 154 125 232q110 70 369 94l366 31v22q0 219 -264 219q-127 0 -201 -48t-86 -138h-276q19 168 170 267.5t393 99.5q271 0 400.5 -107t129.5 -330v-288q0 -207 27 -330h-266q-14 72 -17 186q-53 -104 -170 -160.5t-284 -56.5q-191 0 -303.5 82.5t-112.5 224.5z M285 1178l264 309h276l265 -309h-222l-180 213l-180 -213h-223zM362 291q0 -69 60.5 -107.5t169.5 -38.5q161 0 260.5 78.5t99.5 208.5v53l-346 -34q-132 -13 -188 -51t-56 -109z" />
<glyph unicode="&#xe3;" d="M88 276q0 154 125 232q110 70 369 94l366 31v22q0 219 -264 219q-127 0 -201 -48t-86 -138h-276q19 168 170 267.5t393 99.5q271 0 400.5 -107t129.5 -330v-288q0 -207 27 -330h-266q-14 72 -17 186q-53 -104 -170 -160.5t-284 -56.5q-191 0 -303.5 82.5t-112.5 224.5z M240 1249q22 118 91 181t179 63q60 0 113.5 -21t85.5 -45.5t73.5 -45.5t79.5 -21q94 0 123 121l154 -45q-22 -116 -92.5 -180t-180.5 -64q-59 0 -112 21t-85.5 45.5t-74 45.5t-80.5 21q-47 0 -76.5 -29t-46.5 -92zM362 291q0 -69 60.5 -107.5t169.5 -38.5q161 0 260.5 78.5 t99.5 208.5v53l-346 -34q-132 -13 -188 -51t-56 -109z" />
<glyph unicode="&#xe4;" d="M88 276q0 154 125 232q110 70 369 94l366 31v22q0 219 -264 219q-127 0 -201 -48t-86 -138h-276q19 168 170 267.5t393 99.5q271 0 400.5 -107t129.5 -330v-288q0 -207 27 -330h-266q-14 72 -17 186q-53 -104 -170 -160.5t-284 -56.5q-191 0 -303.5 82.5t-112.5 224.5z M289 1202v248h268v-248h-268zM362 291q0 -69 60.5 -107.5t169.5 -38.5q161 0 260.5 78.5t99.5 208.5v53l-346 -34q-132 -13 -188 -51t-56 -109zM819 1202v248h266v-248h-266z" />
<glyph unicode="&#xe5;" d="M88 276q0 154 125 232q110 70 369 94l366 31v22q0 219 -264 219q-127 0 -201 -48t-86 -138h-276q19 168 170 267.5t393 99.5q271 0 400.5 -107t129.5 -330v-288q0 -207 27 -330h-266q-14 72 -17 186q-53 -104 -170 -160.5t-284 -56.5q-191 0 -303.5 82.5t-112.5 224.5z M362 291q0 -69 60.5 -107.5t169.5 -38.5q161 0 260.5 78.5t99.5 208.5v53l-346 -34q-132 -13 -188 -51t-56 -109zM401 1362q0 102 78 163.5t209 61.5t209 -61.5t78 -163.5t-78 -163.5t-209 -61.5t-209 61.5t-78 163.5zM547 1362q0 -51 38 -82t103 -31t103 31t38 82t-38 82 t-103 31t-103 -31t-38 -82z" />
<glyph unicode="&#xe6;" horiz-adv-x="2131" d="M88 274q0 278 430 312l406 26v33q0 115 -63.5 171t-194.5 56q-125 0 -196.5 -48.5t-80.5 -139.5h-270q19 174 164.5 272.5t384.5 98.5q287 0 409 -156q147 156 420 156q260 0 405.5 -139t145.5 -388v-79h-860q8 -131 95 -208t233 -77q107 0 186 45.5t123 132.5l207 -92 q-74 -137 -208 -209t-317 -72q-172 0 -296.5 60.5t-192.5 173.5q-70 -116 -198.5 -175t-303.5 -59q-200 0 -314 80.5t-114 224.5zM362 285q0 -64 58.5 -101t161.5 -37q148 0 247 72t99 207v43l-332 -25q-123 -10 -178.5 -48.5t-55.5 -110.5zM1188 614h594q0 126 -79.5 199.5 t-207.5 73.5q-135 0 -218 -72.5t-89 -200.5z" />
<glyph unicode="&#xe7;" horiz-adv-x="1316" d="M72 514q0 250 164 395.5t446 145.5q235 0 381.5 -98t183.5 -281l-270 -39q-23 106 -101 162.5t-202 56.5q-154 0 -241 -90t-87 -250q0 -162 89 -254t243 -92q248 0 305 219l262 -45q-35 -163 -169.5 -262t-338.5 -111l-51 -75q42 28 117 28q93 0 145.5 -44.5t52.5 -123.5 q0 -87 -73.5 -136.5t-198.5 -49.5q-94 0 -160 33t-96 94l150 35q29 -54 104 -54q44 0 71 21.5t27 58.5q0 35 -25 56.5t-67 21.5q-50 0 -88 -33l-121 29l80 139q-246 22 -389 167t-143 376z" />
<glyph unicode="&#xe8;" horiz-adv-x="1329" d="M72 502q0 259 160 406t434 147q276 0 427.5 -134t151.5 -380v-95h-915q8 -130 102.5 -206t253.5 -76q238 0 336 178l207 -94q-77 -136 -218 -207.5t-335 -71.5q-283 0 -443.5 140.5t-160.5 392.5zM233 1487h287l256 -309h-229zM330 612h653v11q-1 124 -88.5 194 t-232.5 70q-149 0 -236.5 -73.5t-95.5 -201.5z" />
<glyph unicode="&#xe9;" horiz-adv-x="1329" d="M72 502q0 259 160 406t434 147q276 0 427.5 -134t151.5 -380v-95h-915q8 -130 102.5 -206t253.5 -76q238 0 336 178l207 -94q-77 -136 -218 -207.5t-335 -71.5q-283 0 -443.5 140.5t-160.5 392.5zM330 612h653v11q-1 124 -88.5 194t-232.5 70q-149 0 -236.5 -73.5 t-95.5 -201.5zM547 1178l256 309h287l-314 -309h-229z" />
<glyph unicode="&#xea;" horiz-adv-x="1329" d="M72 502q0 259 160 406t434 147q276 0 427.5 -134t151.5 -380v-95h-915q8 -130 102.5 -206t253.5 -76q238 0 336 178l207 -94q-77 -136 -218 -207.5t-335 -71.5q-283 0 -443.5 140.5t-160.5 392.5zM258 1178l264 309h277l264 -309h-221l-180 213l-181 -213h-223zM330 612 h653v11q-1 124 -88.5 194t-232.5 70q-149 0 -236.5 -73.5t-95.5 -201.5z" />
<glyph unicode="&#xeb;" horiz-adv-x="1329" d="M72 502q0 259 160 406t434 147q276 0 427.5 -134t151.5 -380v-95h-915q8 -130 102.5 -206t253.5 -76q238 0 336 178l207 -94q-77 -136 -218 -207.5t-335 -71.5q-283 0 -443.5 140.5t-160.5 392.5zM262 1202v248h268v-248h-268zM330 612h653v11q-1 124 -88.5 194 t-232.5 70q-149 0 -236.5 -73.5t-95.5 -201.5zM793 1202v248h266v-248h-266z" />
<glyph unicode="&#xec;" horiz-adv-x="616" d="M-8 1487h258l168 -309h-223zM176 0v1024h264v-1024h-264z" />
<glyph unicode="&#xed;" horiz-adv-x="616" d="M176 0v1024h264v-1024h-264zM201 1178l168 309h258l-203 -309h-223z" />
<glyph unicode="&#xee;" horiz-adv-x="616" d="M25 1178l159 311h250l160 -311h-191l-94 215l-94 -215h-190zM176 0v1024h264v-1024h-264z" />
<glyph unicode="&#xef;" horiz-adv-x="616" d="M10 1202v248h250v-248h-250zM176 0v1024h264v-1024h-264zM356 1202v248h250v-248h-250z" />
<glyph unicode="&#xf0;" horiz-adv-x="1380" d="M74 506q0 243 146.5 387.5t397.5 144.5q136 0 229 -51.5t146 -132.5h4q-43 187 -215 342l-297 -88l-36 94l235 72q-88 60 -207 110l211 129q149 -70 256 -161l199 59l37 -96l-150 -45q266 -281 266 -707q0 -270 -169.5 -432t-456.5 -162q-288 0 -442 143t-154 394z M348 508q0 -157 88 -248.5t246 -91.5q165 0 255.5 90.5t90.5 249.5q0 160 -92 252t-254 92q-160 0 -247 -91.5t-87 -252.5z" />
<glyph unicode="&#xf1;" horiz-adv-x="1452" d="M176 0v1024h256v-219q124 252 434 252q217 0 329 -123t112 -359v-575h-265v541q0 307 -278 307q-151 0 -237.5 -92.5t-86.5 -257.5v-498h-264zM360 1249q22 118 91.5 181t179.5 63q60 0 113.5 -21t85.5 -45.5t73.5 -45.5t79.5 -21q94 0 123 121l154 -45 q-22 -116 -92.5 -180t-180.5 -64q-59 0 -112 21t-85.5 45.5t-74 45.5t-80.5 21q-47 0 -76.5 -29t-46.5 -92z" />
<glyph unicode="&#xf2;" d="M72 512q0 251 167.5 397t444.5 146q275 0 442.5 -146t167.5 -397q0 -250 -168 -396.5t-442 -146.5q-276 0 -444 146.5t-168 396.5zM256 1487h287l256 -309h-230zM346 512q0 -166 90 -257t248 -91q157 0 246.5 91t89.5 257q0 167 -89.5 257.5t-246.5 90.5 q-159 0 -248.5 -90.5t-89.5 -257.5z" />
<glyph unicode="&#xf3;" d="M72 512q0 251 167.5 397t444.5 146q275 0 442.5 -146t167.5 -397q0 -250 -168 -396.5t-442 -146.5q-276 0 -444 146.5t-168 396.5zM346 512q0 -166 90 -257t248 -91q157 0 246.5 91t89.5 257q0 167 -89.5 257.5t-246.5 90.5q-159 0 -248.5 -90.5t-89.5 -257.5zM569 1178 l256 309h287l-313 -309h-230z" />
<glyph unicode="&#xf4;" d="M72 512q0 251 167.5 397t444.5 146q275 0 442.5 -146t167.5 -397q0 -250 -168 -396.5t-442 -146.5q-276 0 -444 146.5t-168 396.5zM281 1178l264 309h276l264 -309h-221l-180 213l-180 -213h-223zM346 512q0 -166 90 -257t248 -91q157 0 246.5 91t89.5 257 q0 167 -89.5 257.5t-246.5 90.5q-159 0 -248.5 -90.5t-89.5 -257.5z" />
<glyph unicode="&#xf5;" d="M72 512q0 251 167.5 397t444.5 146q275 0 442.5 -146t167.5 -397q0 -250 -168 -396.5t-442 -146.5q-276 0 -444 146.5t-168 396.5zM236 1249q22 118 91 181t179 63q60 0 113.5 -21t85.5 -45.5t73.5 -45.5t79.5 -21q94 0 123 121l154 -45q-22 -116 -92.5 -180t-180.5 -64 q-59 0 -112 21t-85.5 45.5t-74 45.5t-80.5 21q-47 0 -76.5 -29t-46.5 -92zM346 512q0 -166 90 -257t248 -91q157 0 246.5 91t89.5 257q0 167 -89.5 257.5t-246.5 90.5q-159 0 -248.5 -90.5t-89.5 -257.5z" />
<glyph unicode="&#xf6;" d="M72 512q0 251 167.5 397t444.5 146q275 0 442.5 -146t167.5 -397q0 -250 -168 -396.5t-442 -146.5q-276 0 -444 146.5t-168 396.5zM285 1202v248h268v-248h-268zM346 512q0 -166 90 -257t248 -91q157 0 246.5 91t89.5 257q0 167 -89.5 257.5t-246.5 90.5 q-159 0 -248.5 -90.5t-89.5 -257.5zM815 1202v248h266v-248h-266z" />
<glyph unicode="&#xf7;" horiz-adv-x="1273" d="M100 573v191h1071v-191h-1071zM506 287q0 57 35.5 92t91.5 35t91.5 -35t35.5 -92t-35.5 -92t-91.5 -35t-91.5 35t-35.5 92zM506 1049q0 57 35.5 93t91.5 36t91.5 -35.5t35.5 -93.5q0 -55 -36 -91t-91 -36t-91 36t-36 91z" />
<glyph unicode="&#xf8;" d="M72 512q0 251 167.5 397t444.5 146q218 0 377 -97l113 109l90 -76l-111 -106q141 -144 141 -373q0 -250 -168 -396.5t-442 -146.5q-219 0 -379 99l-112 -111l-89 74l111 108q-143 146 -143 373zM346 512q0 -121 47 -201l504 488q-82 61 -213 61q-159 0 -248.5 -90.5 t-89.5 -257.5zM471 225q82 -61 213 -61q157 0 246.5 91t89.5 257q0 117 -45 199z" />
<glyph unicode="&#xf9;" horiz-adv-x="1433" d="M143 416v608h265v-563q0 -149 71 -219t189 -70q105 0 180 47t110 122.5t35 168.5v514h264v-1024h-256v217q-49 -116 -161 -182t-256 -66q-221 0 -331 115t-110 332zM270 1487h287l256 -309h-229z" />
<glyph unicode="&#xfa;" horiz-adv-x="1433" d="M143 416v608h265v-563q0 -149 71 -219t189 -70q105 0 180 47t110 122.5t35 168.5v514h264v-1024h-256v217q-49 -116 -161 -182t-256 -66q-221 0 -331 115t-110 332zM584 1178l256 309h286l-313 -309h-229z" />
<glyph unicode="&#xfb;" horiz-adv-x="1433" d="M143 416v608h265v-563q0 -149 71 -219t189 -70q105 0 180 47t110 122.5t35 168.5v514h264v-1024h-256v217q-49 -116 -161 -182t-256 -66q-221 0 -331 115t-110 332zM295 1178l264 309h277l264 -309h-221l-181 213l-180 -213h-223z" />
<glyph unicode="&#xfc;" horiz-adv-x="1433" d="M143 416v608h265v-563q0 -149 71 -219t189 -70q105 0 180 47t110 122.5t35 168.5v514h264v-1024h-256v217q-49 -116 -161 -182t-256 -66q-221 0 -331 115t-110 332zM299 1202v248h268v-248h-268zM829 1202v248h267v-248h-267z" />
<glyph unicode="&#xfd;" horiz-adv-x="1241" d="M6 1024h297l297 -684q21 -51 35 -111h6q7 36 35 109l278 686h281l-481 -1081q-85 -194 -207 -277.5t-311 -83.5q-88 0 -144 12v209q72 -10 115 -10q207 0 280 166l17 45zM510 1178l256 309h287l-314 -309h-229z" />
<glyph unicode="&#xfe;" horiz-adv-x="1460" d="M186 -399v1884h265v-633q64 98 173.5 150.5t247.5 52.5q233 0 373.5 -151.5t140.5 -389.5q0 -156 -64 -279.5t-183.5 -194.5t-274.5 -71q-134 0 -242 49.5t-171 139.5v-557h-265zM444 492q0 -150 90.5 -239t245.5 -89q152 0 241 97t89 253q0 155 -88 250.5t-238 95.5 q-155 0 -247.5 -87.5t-92.5 -235.5v-45z" />
<glyph unicode="&#xff;" horiz-adv-x="1241" d="M6 1024h297l297 -684q21 -51 35 -111h6q7 36 35 109l278 686h281l-481 -1081q-85 -194 -207 -277.5t-311 -83.5q-88 0 -144 12v209q72 -10 115 -10q207 0 280 166l17 45zM225 1202v248h269v-248h-269zM756 1202v248h266v-248h-266z" />
<glyph unicode="&#x152;" horiz-adv-x="2455" d="M68 739q0 335 215 525t573 190h1454v-217h-858v-389h823v-211h-823v-420h872v-217h-1484q-353 0 -562.5 200t-209.5 539zM362 737q0 -240 136 -382t370 -142h299v1028h-295q-239 0 -374.5 -134.5t-135.5 -369.5z" />
<glyph unicode="&#x153;" horiz-adv-x="2283" d="M72 512q0 244 167 393.5t447 149.5q301 0 465 -185q159 185 469 185q276 0 428 -134.5t152 -379.5v-95h-916q8 -130 102.5 -206t253.5 -76q238 0 336 178l207 -94q-77 -136 -218 -207.5t-335 -71.5q-325 0 -483 181q-163 -181 -461 -181q-279 0 -446.5 150.5 t-167.5 392.5zM346 512q0 -159 89 -252.5t251 -93.5t251 93.5t89 252.5t-89.5 252.5t-250.5 93.5q-162 0 -251 -93.5t-89 -252.5zM1284 612h653v11q-1 124 -88.5 194t-232.5 70q-149 0 -236.5 -73.5t-95.5 -201.5z" />
<glyph unicode="&#x178;" horiz-adv-x="1466" d="M-6 1454h319l379 -608q33 -61 39 -86h4q8 33 41 86l383 608h314l-599 -917v-537h-284v537zM332 1548v221h264v-221h-264zM874 1548v221h267v-221h-267z" />
<glyph unicode="&#x2c6;" horiz-adv-x="1228" d="M80 1178l264 309h277l264 -309h-221l-181 213l-180 -213h-223z" />
<glyph unicode="&#x2dc;" horiz-adv-x="1228" d="M109 1249q22 118 91 181t179 63q60 0 113.5 -21t85.5 -45.5t73.5 -45.5t79.5 -21q94 0 123 121l154 -45q-22 -116 -92.5 -180t-180.5 -64q-59 0 -112 21t-85.5 45.5t-74 45.5t-80.5 21q-47 0 -76.5 -29t-46.5 -92z" />
<glyph unicode="&#x2000;" horiz-adv-x="982" />
<glyph unicode="&#x2001;" horiz-adv-x="1964" />
<glyph unicode="&#x2002;" horiz-adv-x="982" />
<glyph unicode="&#x2003;" horiz-adv-x="1964" />
<glyph unicode="&#x2004;" horiz-adv-x="654" />
<glyph unicode="&#x2005;" horiz-adv-x="491" />
<glyph unicode="&#x2006;" horiz-adv-x="327" />
<glyph unicode="&#x2007;" horiz-adv-x="327" />
<glyph unicode="&#x2008;" horiz-adv-x="245" />
<glyph unicode="&#x2009;" horiz-adv-x="392" />
<glyph unicode="&#x200a;" horiz-adv-x="109" />
<glyph unicode="&#x2010;" horiz-adv-x="1009" d="M100 461v217h807v-217h-807z" />
<glyph unicode="&#x2011;" horiz-adv-x="1009" d="M100 461v217h807v-217h-807z" />
<glyph unicode="&#x2012;" horiz-adv-x="1009" d="M100 461v217h807v-217h-807z" />
<glyph unicode="&#x2013;" horiz-adv-x="1341" d="M100 465v207h1141v-207h-1141z" />
<glyph unicode="&#x2014;" horiz-adv-x="1896" d="M100 465v209h1696v-209h-1696z" />
<glyph unicode="&#x2018;" horiz-adv-x="600" d="M143 891v274q0 133 57 213t191 117l49 -119q-83 -25 -114 -67t-31 -115v-6h160v-297h-312z" />
<glyph unicode="&#x2019;" horiz-adv-x="600" d="M145 1157v297h312v-274q0 -133 -57 -213t-191 -117l-49 119q83 25 114 67t31 115v6h-160z" />
<glyph unicode="&#x201a;" horiz-adv-x="600" d="M145 0v297h312v-274q0 -133 -57 -213t-191 -117l-49 119q83 25 114 67t31 115v6h-160z" />
<glyph unicode="&#x201c;" horiz-adv-x="1019" d="M143 891v274q0 133 57 213t191 117l49 -119q-83 -25 -114 -67t-31 -115v-6h160v-297h-312zM563 891v274q0 133 57 213t191 117l49 -119q-83 -25 -114 -67t-31 -115v-6h159v-297h-311z" />
<glyph unicode="&#x201d;" horiz-adv-x="1019" d="M145 1157v297h312v-274q0 -133 -57 -213t-191 -117l-49 119q83 25 114 67t31 115v6h-160zM565 1157v297h312v-274q0 -133 -57 -213t-191 -117l-49 119q83 25 114 67t31 115v6h-160z" />
<glyph unicode="&#x201e;" horiz-adv-x="1019" d="M145 0v297h312v-274q0 -133 -57 -213t-191 -117l-49 119q83 25 114 67t31 115v6h-160zM565 0v297h312v-274q0 -133 -57 -213t-191 -117l-49 119q83 25 114 67t31 115v6h-160z" />
<glyph unicode="&#x2022;" horiz-adv-x="745" d="M145 700q0 102 64 165t162 63q101 0 165 -62.5t64 -165.5q0 -99 -64.5 -161t-164.5 -62q-98 0 -162 62t-64 161z" />
<glyph unicode="&#x2026;" horiz-adv-x="1900" d="M145 0v279h318v-279h-318zM793 0v279h317v-279h-317zM1440 0v279h317v-279h-317z" />
<glyph unicode="&#x202f;" horiz-adv-x="392" />
<glyph unicode="&#x2039;" horiz-adv-x="763" d="M53 565l414 422h258l-403 -422l401 -428h-262z" />
<glyph unicode="&#x203a;" horiz-adv-x="763" d="M39 987h258l414 -422l-408 -428h-262l401 428z" />
<glyph unicode="&#x205f;" horiz-adv-x="491" />
<glyph unicode="&#x20ac;" horiz-adv-x="1630" d="M18 522v129h144q-2 27 -2 80q0 42 2 62h-144v129h162q54 250 245.5 394t500.5 144q234 0 398.5 -83.5t252.5 -239.5l-250 -105q-126 211 -409 211q-185 0 -299.5 -84t-157.5 -237h708v-129h-729q-2 -18 -2 -60q0 -28 4 -82h727v-129h-704q47 -160 164.5 -251t296.5 -91 q134 0 241 58t174 170l238 -101q-91 -163 -261.5 -254.5t-402.5 -91.5q-156 0 -284 41.5t-217.5 117.5t-148 177t-85.5 225h-162z" />
<glyph unicode="&#x2122;" horiz-adv-x="1998" d="M10 1311v147h789v-147h-312v-684h-182v684h-295zM891 627v831h260l197 -532q27 -74 38 -142h5q16 73 41 142l194 532h262v-831h-166v534q0 101 4 160h-2q-7 -25 -14 -46t-16.5 -48t-16.5 -49l-207 -551h-163l-205 551q-7 22 -16.5 49t-16.5 48t-14 46h-4q6 -59 6 -160 v-534h-166z" />
<glyph unicode="&#x25fc;" horiz-adv-x="1024" d="M0 0v1024h1024v-1024h-1024z" />
</font>
</defs>
</svg>
