<?xml version="1.0" standalone="no"?>
<!DOCTYPE svg PUBLIC "-//W3C//DTD SVG 1.1//EN" "http://www.w3.org/Graphics/SVG/1.1/DTD/svg11.dtd" >
<svg xmlns="http://www.w3.org/2000/svg" xmlns:xlink="http://www.w3.org/1999/xlink" version="1.1">
<metadata></metadata>
<defs>
<font id="gt_americaExRgIt" horiz-adv-x="1351" >
<font-face units-per-em="2048" ascent="1638" descent="-410" />
<missing-glyph horiz-adv-x="671" />
<glyph unicode="&#xfb01;" horiz-adv-x="1445" d="M109 877l26 147h244l24 139q32 167 125 252.5t258 85.5q118 0 207 -35l-28 -153q-74 28 -168 28q-107 0 -153 -48.5t-62 -149.5l-23 -119h352l-26 -147h-350l-156 -877h-180l153 877h-243zM977 0l180 1024h180l-180 -1024h-180zM1174 1212l38 228h213l-41 -228h-210z" />
<glyph unicode="&#xfb02;" horiz-adv-x="1466" d="M109 877l26 147h244l24 139q32 167 125 252.5t258 85.5q118 0 207 -35l-28 -153q-74 28 -168 28q-107 0 -153 -48.5t-62 -149.5l-23 -119h352l-26 -147h-350l-156 -877h-180l153 877h-243zM987 0l262 1485h181l-263 -1485h-180z" />
<glyph horiz-adv-x="0" />
<glyph horiz-adv-x="0" />
<glyph horiz-adv-x="682" />
<glyph unicode="&#xd;" horiz-adv-x="0" />
<glyph unicode=" "  horiz-adv-x="671" />
<glyph unicode="&#x09;" horiz-adv-x="671" />
<glyph unicode="&#xa0;" horiz-adv-x="671" />
<glyph unicode="!" horiz-adv-x="690" d="M131 0l41 225h248l-41 -225h-248zM256 395l143 1090h236l-244 -1090h-135z" />
<glyph unicode="&#x22;" horiz-adv-x="880" d="M274 922l58 532h200l-131 -532h-127zM625 922l57 532h201l-131 -532h-127z" />
<glyph unicode="#" horiz-adv-x="1341" d="M37 416v139h285l59 313h-262v140h289l79 415h166l-80 -415h363l80 415h164l-80 -415h266v-140h-293l-59 -313h282v-139h-309l-80 -416h-164l80 416h-364l-80 -416h-164l80 416h-258zM485 555h365l59 313h-362z" />
<glyph unicode="$" horiz-adv-x="1482" d="M47 401l207 33q23 -265 354 -305l94 526l-57 9q-412 75 -412 389q0 85 33.5 156.5t102.5 128.5t186.5 89.5t273.5 32.5h15l30 174h125l-32 -182q205 -22 335 -116t154 -269l-199 -45q-32 237 -317 276l-86 -483l92 -16q210 -39 312 -134t102 -268q0 -95 -34.5 -172 t-107 -137t-195.5 -92.5t-288 -32.5h-33l-30 -176h-123l33 184q-239 26 -378.5 133t-156.5 297zM436 1071q0 -100 70.5 -153.5t216.5 -79.5l10 -2l84 469q-89 0 -158 -14t-110 -36t-67.5 -53.5t-36 -63t-9.5 -67.5zM731 121h12q416 0 416 260q0 114 -72.5 168.5t-222.5 79.5 l-43 6z" />
<glyph unicode="%" horiz-adv-x="1871" d="M147 1040q0 75 24.5 146t73 133.5t132.5 100.5t192 38q73 0 138 -18.5t118.5 -55.5t85 -100.5t31.5 -146.5q0 -59 -15 -117t-48.5 -113t-82 -97t-121 -67.5t-159.5 -25.5q-71 0 -134 18t-117 54.5t-86 101t-32 149.5zM227 -37l1309 1497h180l-1308 -1497h-181zM303 1049 q0 -56 19 -96.5t51.5 -62t67.5 -31t75 -9.5q70 0 124 25.5t84.5 67.5t46 89t15.5 96q0 55 -18.5 95t-51 61.5t-67.5 31t-76 9.5q-70 0 -124 -25t-84.5 -66.5t-46 -88.5t-15.5 -96zM995 276q0 75 24.5 146t73 133.5t132.5 100.5t192 38q73 0 138 -18.5t118.5 -55.5t85 -100.5 t31.5 -146.5q0 -59 -15 -117t-48.5 -113t-82 -97t-121 -67.5t-159.5 -25.5q-71 0 -134 18t-117 54.5t-86 101t-32 149.5zM1151 285q0 -56 19 -96.5t51.5 -62t67.5 -31t75 -9.5q70 0 124 26t84.5 68t46 89t15.5 96q0 55 -18.5 95t-51 61t-67.5 30.5t-76 9.5q-70 0 -124 -25 t-84.5 -66.5t-46 -88.5t-15.5 -96z" />
<glyph unicode="&#x26;" horiz-adv-x="1527" d="M23 340q0 149 97 258.5t306 192.5l6 2q-133 188 -133 346q0 53 12.5 103t43 99.5t76 86t116.5 59t160 22.5q58 0 110 -8.5t104 -31t90 -57t61.5 -90.5t23.5 -128q0 -42 -9 -83.5t-35 -92t-66.5 -95.5t-110 -91t-160.5 -82l-13 -5l340 -419q156 173 234 485l164 -25 q-33 -153 -106 -305.5t-187 -271.5q74 -62 178 -62q53 0 111 15l-29 -162q-48 -18 -135 -18q-151 0 -273 106q-198 -129 -462 -129q-57 0 -111.5 7t-114.5 22t-110 44t-91 69.5t-64 102t-23 136.5zM219 360q0 -62 25 -108t60 -71t85 -39.5t88 -18.5t80 -4q193 0 340 88 l-375 471l-8 -4q-162 -64 -228.5 -141t-66.5 -173zM489 1157q0 -69 30 -138.5t93 -160.5l4 2q293 117 293 305q0 59 -18 100.5t-49.5 62t-65.5 29.5t-74 9q-54 0 -94.5 -15.5t-62.5 -37t-35.5 -52t-17 -54.5t-3.5 -50z" />
<glyph unicode="'" horiz-adv-x="530" d="M274 922l58 532h200l-131 -532h-127z" />
<glyph unicode="(" horiz-adv-x="710" d="M147 537q0 157 35 299.5t89.5 249.5t134.5 206.5t156 168.5t169 136l125 -96q-99 -82 -167.5 -147.5t-140.5 -156.5t-115.5 -183t-71 -214.5t-27.5 -262.5q0 -196 50.5 -364.5t178.5 -371.5l-139 -84q-277 366 -277 820z" />
<glyph unicode=")" horiz-adv-x="710" d="M-94 -186q99 82 167.5 147.5t140.5 156.5t115.5 183t71 214.5t27.5 262.5q0 196 -50.5 364t-178.5 371l139 84q276 -364 276 -819q0 -157 -35 -299.5t-89 -250t-134 -207t-156 -168.5t-169 -136z" />
<glyph unicode="*" horiz-adv-x="718" d="M170 1210l76 142l196 -105l9 238h159l-75 -240l235 107l23 -148l-242 -47l137 -174l-143 -96l-78 223l-160 -223l-108 100l192 172z" />
<glyph unicode="+" horiz-adv-x="1263" d="M125 598l29 154h430l69 387h176l-67 -387h434l-27 -154h-436l-71 -412h-179l74 412h-432z" />
<glyph unicode="," horiz-adv-x="591" d="M49 -193q135 28 164 177l2 16h-139l43 252h262l-45 -244q-11 -62 -31.5 -111t-44.5 -79.5t-56.5 -53t-60.5 -34t-63 -19.5z" />
<glyph unicode="-" horiz-adv-x="1009" d="M106 487l29 166h789l-29 -166h-789z" />
<glyph unicode="." horiz-adv-x="589" d="M76 0l43 242h260l-43 -242h-260z" />
<glyph unicode="/" horiz-adv-x="1097" d="M-41 -240l1053 1796h178l-1051 -1796h-180z" />
<glyph unicode="0" horiz-adv-x="1540" d="M139 582q0 80 11 162t37 169.5t64.5 166t97.5 149t132 122t172.5 81.5t214.5 30q97 0 182.5 -20t163.5 -66.5t134 -116.5t89 -176.5t33 -240.5q0 -80 -11 -162t-37 -169.5t-64.5 -166t-97.5 -149.5t-132 -122.5t-172.5 -81.5t-214.5 -30q-97 0 -182.5 20t-163.5 67 t-134 117t-89 176.5t-33 240.5zM334 571q0 -102 24 -182t63.5 -129.5t94 -82t110 -45.5t117.5 -13q100 0 183.5 32.5t140 90t98.5 129t65.5 156t34.5 164.5t11 161q0 102 -24 182t-63.5 130t-94 82.5t-110.5 45.5t-118 13q-120 0 -214.5 -47.5t-153 -122.5t-96.5 -174.5 t-53 -195.5t-15 -194z" />
<glyph unicode="1" horiz-adv-x="884" d="M150 1001l30 170h51q155 0 253.5 67t140.5 185h159l-249 -1423h-187l195 1112q-90 -111 -314 -111h-79z" />
<glyph unicode="2" horiz-adv-x="1339" d="M-14 0l28 162q220 91 414.5 193.5t327.5 191.5q75 50 131.5 98.5t106.5 108t76 129t26 145.5q0 65 -21 114.5t-54 78.5t-79.5 47.5t-90.5 25t-95 6.5q-383 0 -383 -356l2 -63l-191 20q-4 40 -4 72q0 71 18.5 138t62.5 132t109 112.5t167 77t229 29.5q84 0 158.5 -12.5 t144.5 -43t120.5 -76.5t80.5 -118t30 -163q0 -80 -24 -154.5t-61.5 -134t-97.5 -120.5t-118.5 -107t-138.5 -101q-209 -136 -510 -260h824l-31 -172h-1157z" />
<glyph unicode="3" horiz-adv-x="1402" d="M68 412l192 22q10 -78 40.5 -136.5t70.5 -92t95 -53.5t104.5 -26.5t109.5 -6.5q106 0 184 24t121 66t62.5 90.5t19.5 106.5q0 61 -20 107t-51.5 73t-77.5 43.5t-90.5 22t-98.5 5.5h-129l27 156h157q176 0 263.5 72.5t87.5 189.5q0 56 -22 98.5t-56.5 67t-82.5 39.5 t-92.5 20t-95.5 5q-371 0 -413 -336l-174 37q26 209 175 332.5t417 123.5q81 0 154 -10t145 -36.5t124.5 -66.5t84.5 -105t32 -148q0 -144 -98.5 -241.5t-269.5 -119.5q301 -50 301 -327q0 -66 -18.5 -127.5t-62.5 -120.5t-109.5 -102.5t-167.5 -70t-228 -26.5 q-91 0 -171 12.5t-159.5 44t-137.5 81.5t-96.5 130t-45.5 183z" />
<glyph unicode="4" horiz-adv-x="1331" d="M-2 362l22 130l965 931h213l-164 -913h271l-25 -148h-270l-64 -362h-182l65 362h-831zM238 510h616l107 547q10 49 18.5 94.5t13.5 70.5t11 52h-5q-43 -70 -145 -172l-442 -426q-114 -117 -174 -166z" />
<glyph unicode="5" horiz-adv-x="1374" d="M78 360l201 29q56 -268 380 -268q99 0 174.5 24t120 61.5t73 90.5t38.5 103.5t10 107.5q0 74 -20 131.5t-52 91.5t-76.5 55.5t-88 29t-93.5 7.5q-84 0 -150.5 -18.5t-114.5 -54t-81.5 -77.5t-62.5 -98l-180 17l237 831h959l-31 -163h-819l-146 -490q55 94 168.5 152.5 t266.5 58.5q67 0 130 -11.5t128.5 -43t113.5 -79.5t78.5 -128.5t30.5 -183.5q0 -115 -36 -215.5t-108.5 -182t-195.5 -129t-283 -47.5q-81 0 -154.5 12t-144.5 41.5t-125.5 74t-93.5 114t-53 157.5z" />
<glyph unicode="6" horiz-adv-x="1425" d="M137 596q0 84 11 167.5t36 170t63.5 162.5t96.5 144t130 116.5t170 77t212 28.5q73 0 140.5 -11t136 -38.5t122 -69.5t92.5 -109.5t52 -152.5l-191 -43q-58 267 -354 267q-102 0 -185 -30t-140 -82.5t-98 -128t-64 -160.5t-33 -187q64 117 189.5 179t281.5 62 q76 0 148 -16t138.5 -51.5t116 -87.5t79.5 -130t30 -173q0 -83 -21.5 -160.5t-68.5 -146.5t-115 -120.5t-166.5 -81.5t-216.5 -30q-94 0 -175.5 18t-160 63.5t-134 115.5t-89 182t-33.5 256zM328 520q5 -93 32 -165t66.5 -115.5t93 -71.5t106 -38.5t111.5 -10.5q87 0 156 23 t111.5 60t70 87t38.5 99t11 101q0 75 -23.5 132t-59 90t-84.5 53.5t-92.5 27.5t-90.5 7q-155 0 -272 -72.5t-174 -206.5z" />
<glyph unicode="7" horiz-adv-x="1196" d="M178 1253l31 170h1116l-27 -147q-357 -234 -570 -552t-257 -663l-8 -61h-217l6 41q53 339 255 649t560 563h-889z" />
<glyph unicode="8" horiz-adv-x="1425" d="M72 356q0 149 101.5 254t305.5 140q-231 99 -231 313q0 47 11.5 92t37 91t70 84t105 68t148.5 47t195 17q81 0 157 -11t150.5 -37.5t130 -66t89.5 -103t34 -142.5q0 -132 -91.5 -222.5t-276.5 -123.5q65 -24 115.5 -53.5t94 -72t66.5 -101t23 -130.5q0 -89 -35 -165 t-107 -138.5t-196 -98.5t-289 -36q-96 0 -181.5 12.5t-165 42t-136.5 74t-91 112.5t-34 154zM270 383q0 -77 38 -132.5t103 -83.5t134 -40t149 -12q98 0 173 16.5t120.5 42.5t74.5 62.5t39.5 72.5t10.5 76q0 108 -77.5 173t-200.5 95l-172 41q-205 -28 -298.5 -109.5 t-93.5 -201.5zM442 1081q0 -180 260 -241l144 -37q188 39 262 106t74 166q0 59 -24.5 104.5t-61 71.5t-87 42.5t-95 22t-91.5 5.5q-94 0 -165.5 -17t-111.5 -42t-64.5 -59t-32 -62.5t-7.5 -59.5z" />
<glyph unicode="9" horiz-adv-x="1435" d="M100 356l193 43q9 -66 37.5 -117.5t65.5 -81.5t84.5 -49t89.5 -25.5t87 -6.5q85 0 156 20.5t122 55.5t92 85.5t67 105.5t44 120.5t26.5 125.5t11.5 126q-148 -236 -474 -236q-102 0 -192 26t-164.5 77.5t-118 138.5t-43.5 199q0 75 18.5 144.5t62.5 135t109 113.5t166 77 t226 29q94 0 176 -17.5t161.5 -62.5t135.5 -115t90.5 -183t34.5 -259q0 -74 -6 -145t-25.5 -160t-50.5 -164.5t-85.5 -150.5t-126.5 -127t-178 -84.5t-235 -32.5q-75 0 -144.5 11t-141.5 39t-126.5 71t-94 113.5t-50.5 160.5zM379 971q0 -66 21 -118t54.5 -84t80.5 -52.5 t95.5 -28.5t102.5 -8q162 0 272 72.5t166 195.5q-11 88 -42 154.5t-70 104t-91.5 60.5t-97.5 30.5t-96 7.5q-78 0 -141.5 -14.5t-105.5 -40.5t-72 -57.5t-46 -70.5t-23 -75.5t-7 -75.5z" />
<glyph unicode=":" horiz-adv-x="589" d="M76 0l43 242h260l-43 -242h-260zM213 782l43 242h260l-43 -242h-260z" />
<glyph unicode=";" horiz-adv-x="604" d="M63 -193q135 28 164 177l2 16h-139l43 252h262l-45 -244q-11 -62 -31.5 -111t-44.5 -79.5t-56.5 -53t-60.5 -34t-63 -19.5zM213 782l43 242h260l-43 -242h-260z" />
<glyph unicode="&#x3c;" horiz-adv-x="1527" d="M342 592l27 151l1104 420l-29 -180l-883 -328l768 -323l-31 -160z" />
<glyph unicode="=" horiz-adv-x="1261" d="M88 395l31 166h1042l-28 -166h-1045zM158 786l30 166h1043l-29 -166h-1044z" />
<glyph unicode="&#x3e;" horiz-adv-x="1527" d="M111 172l28 180l883 328l-768 324l31 159l956 -420l-27 -151z" />
<glyph unicode="?" horiz-adv-x="1210" d="M135 1032q0 61 15.5 122t57.5 126t105.5 114t169.5 81t240 32q104 0 194.5 -19.5t170.5 -62t127 -120.5t47 -185q0 -279 -322 -424l-143 -63q-65 -31 -97 -79.5t-43 -121.5l-8 -61h-186l12 86q18 107 66.5 177.5t148.5 115.5l160 67q112 50 160.5 118t48.5 159 q0 71 -29.5 122.5t-81 78.5t-107.5 39t-120 12q-95 0 -167 -22t-113.5 -55.5t-67.5 -80.5t-34.5 -90.5t-8.5 -91.5q0 -50 6 -91l-195 25q-6 25 -6 92zM373 0l39 225h239l-39 -225h-239z" />
<glyph unicode="@" horiz-adv-x="1929" d="M94 512q0 85 14 167t46 167.5t81 159.5t124 140t169 113t221.5 74t276.5 27q134 0 253 -22t227.5 -74t186 -130t123.5 -197t46 -269q0 -109 -25 -203t-73 -166t-125 -113t-175 -41q-105 0 -166 46t-69 128q-57 -82 -159.5 -136t-231.5 -54q-44 0 -87 6t-89.5 23.5 t-80.5 44.5t-56.5 72.5t-22.5 103.5q0 119 94.5 191.5t298.5 82.5l362 15l5 30q5 50 -6 87.5t-31.5 59.5t-52 35.5t-63 18t-69.5 4.5q-63 0 -110.5 -10.5t-74.5 -25.5t-46 -39t-26 -43t-13 -46h-166q9 47 26.5 87.5t51 79.5t80.5 66.5t118.5 44.5t159.5 17q427 0 363 -391 l-33 -199q-13 -87 11.5 -130.5t95.5 -43.5q64 0 112 35t74.5 93.5t39.5 125t13 138.5q0 96 -22 176.5t-59 138.5t-90.5 103.5t-113 74t-129.5 47t-136.5 26t-137.5 7.5q-179 0 -319 -46t-225 -118.5t-140.5 -169.5t-76.5 -190t-21 -191q0 -128 40.5 -232.5t106.5 -173 t154 -115t179.5 -67t186.5 -20.5q96 0 212.5 17.5t209.5 45.5l39 -112q-94 -38 -217 -59t-239 -21q-119 0 -232.5 24.5t-222 80.5t-189.5 138t-130.5 207.5t-49.5 278.5zM676 391q0 -135 182 -135q141 0 246 70.5t125 179.5l8 51l-328 -16q-233 -12 -233 -150z" />
<glyph unicode="A" horiz-adv-x="1611" d="M-49 0l919 1454h203l408 -1454h-201l-94 377h-785l-227 -377h-223zM502 545h641l-127 508q-48 134 -62 227h-4q-8 -16 -16 -31.5t-18.5 -32t-17.5 -28t-20 -32t-20 -30.5t-24 -35.5l-25 -37.5z" />
<glyph unicode="B" horiz-adv-x="1591" d="M129 0l256 1454h694q210 0 327.5 -90t117.5 -258q0 -148 -86.5 -240t-249.5 -123q121 -23 189.5 -102.5t68.5 -214.5q0 -91 -32 -166.5t-96 -134.5t-170.5 -92t-246.5 -33h-772zM358 168h539q350 0 350 264q0 117 -70.5 171t-215.5 54h-517zM475 825h500q95 0 164 20.5 t106.5 57t54.5 79.5t17 95q0 209 -254 209h-506z" />
<glyph unicode="C" horiz-adv-x="1662" d="M117 621q0 130 29.5 252.5t96 236.5t164.5 198.5t245.5 135.5t328.5 51q104 0 196 -16.5t176.5 -55.5t147.5 -98.5t104.5 -150t51.5 -205.5l-207 -21q-10 100 -50.5 174t-106 117.5t-145.5 64.5t-177 21q-139 0 -250.5 -42t-182.5 -110t-119 -159t-67.5 -184.5 t-19.5 -192.5q0 -120 29.5 -211.5t76.5 -146t114.5 -89t135 -47t146.5 -12.5q403 0 534 358l197 -34q-38 -111 -98.5 -198.5t-149 -155.5t-212 -105t-274.5 -37q-117 0 -219.5 21t-194.5 70t-157.5 124t-104 189t-38.5 258z" />
<glyph unicode="D" horiz-adv-x="1710" d="M129 0l256 1454h580q117 0 219 -21.5t192.5 -70t154.5 -121.5t101 -182.5t37 -247.5q0 -128 -31 -244.5t-100 -220.5t-171 -180.5t-252.5 -121t-334.5 -44.5h-651zM358 168h424q153 0 273 38t194 98.5t122 145t66.5 169t18.5 178.5q0 111 -28 197t-74 140t-112 89 t-136 49t-152 14h-397z" />
<glyph unicode="E" horiz-adv-x="1480" d="M129 0l256 1454h1100l-29 -168h-899l-80 -457h862l-28 -167h-865l-86 -494h912l-29 -168h-1114z" />
<glyph unicode="F" horiz-adv-x="1411" d="M129 0l256 1454h1100l-29 -168h-899l-82 -459h864l-28 -168h-865l-116 -659h-201z" />
<glyph unicode="G" horiz-adv-x="1724" d="M115 614q0 129 29.5 251.5t97 238t166.5 201.5t248.5 138t332.5 52q277 0 453 -116.5t215 -338.5l-207 -32q-34 162 -160 240.5t-317 78.5q-102 0 -189 -22t-152.5 -61t-117.5 -93t-87 -116t-58 -133t-33 -141t-10 -143q0 -109 25.5 -194.5t69.5 -140.5t107 -90.5 t132.5 -50.5t152.5 -15q130 0 239 38t180.5 100.5t116 137t58.5 154.5l6 37h-530l28 168h713l-133 -762h-152l23 244q-80 -137 -230 -211t-348 -74q-106 0 -201 21.5t-182 71.5t-149.5 124t-99.5 186.5t-37 251.5z" />
<glyph unicode="H" horiz-adv-x="1769" d="M129 0l256 1454h201l-111 -627h930l111 627h200l-256 -1454h-200l116 659h-930l-116 -659h-201z" />
<glyph unicode="I" horiz-adv-x="638" d="M129 0l256 1454h201l-256 -1454h-201z" />
<glyph unicode="J" horiz-adv-x="913" d="M-49 2l35 182q113 -30 215 -30q64 0 113.5 12.5t92.5 43.5t72 87t43 137l180 1020h201l-186 -1051q-17 -101 -52 -177.5t-81 -125t-108.5 -79t-129 -42.5t-147.5 -12q-132 0 -248 35z" />
<glyph unicode="K" horiz-adv-x="1601" d="M129 0l256 1454h201l-133 -756l946 756h266l-694 -555l493 -899h-239l-414 766l-401 -315l-80 -451h-201z" />
<glyph unicode="L" horiz-adv-x="1329" d="M129 0l256 1454h201l-226 -1282h857l-31 -172h-1057z" />
<glyph unicode="M" horiz-adv-x="2062" d="M129 0l256 1454h289l270 -1137q17 -80 19 -127h4q11 32 63 127l674 1137h307l-256 -1454h-186l203 1137q11 78 30 147h-8q-23 -57 -76 -147l-684 -1137h-194l-281 1139q-12 51 -18 145h-9q-3 -51 -18 -147l-201 -1137h-184z" />
<glyph unicode="N" horiz-adv-x="1761" d="M129 0l256 1454h238l606 -1079q63 -128 76 -164h6q3 28 28 186l189 1057h180l-256 -1454h-223l-617 1092q-44 82 -77 163h-7q-8 -68 -26 -182l-191 -1073h-182z" />
<glyph unicode="O" horiz-adv-x="1763" d="M115 627q0 127 30 248.5t98 235t166.5 198t246 135.5t325.5 51q84 0 162.5 -11t153.5 -35.5t138.5 -61.5t117 -91t91.5 -121.5t59 -156t21 -191.5q0 -90 -15.5 -178t-49 -174.5t-82.5 -162.5t-120 -141t-158 -112t-200.5 -73.5t-242.5 -26.5q-119 0 -224.5 22t-201.5 72 t-165 125.5t-109.5 190.5t-40.5 258zM328 637q0 -116 31 -206.5t82 -146.5t122.5 -92.5t144.5 -50.5t156 -14q141 0 254 42.5t185 111t120 160.5t68 185t20 191q0 116 -31 206.5t-82 146.5t-122.5 92.5t-144.5 50.5t-156 14q-141 0 -254 -42.5t-185 -111t-120 -160.5 t-68 -185t-20 -191z" />
<glyph unicode="P" horiz-adv-x="1480" d="M129 0l256 1454h627q82 0 153.5 -12t138 -41t114 -74t76 -115t28.5 -159q0 -74 -19 -141.5t-63.5 -131.5t-112 -110.5t-172 -74.5t-235.5 -28h-490l-100 -567h-201zM459 735h440q98 0 173 19t119 49t71.5 72t37 81.5t9.5 83.5q0 71 -23.5 121t-67.5 76.5t-96.5 37.5 t-120.5 11h-444z" />
<glyph unicode="Q" horiz-adv-x="1767" d="M115 627q0 127 30 248.5t98 235t166.5 198t246 135.5t325.5 51q84 0 162.5 -11t153.5 -35.5t138.5 -61.5t117 -91t91.5 -121.5t59 -156t21 -191.5q0 -127 -31.5 -248.5t-94 -232t-168 -199t-242.5 -135.5q23 -39 56 -65t71.5 -36.5t66 -13.5t62.5 -3q64 0 135 12 l-31 -176q-80 -13 -125 -13q-313 0 -413 252q-82 -10 -154 -10q-119 0 -224.5 22t-201.5 72t-165 125.5t-109.5 190.5t-40.5 258zM328 637q0 -116 31 -206.5t82 -146.5t122.5 -92.5t144.5 -50.5t156 -14q141 0 254 42.5t185 111t120 160.5t68 185t20 191q0 116 -31 206.5 t-82 146.5t-122.5 92.5t-144.5 50.5t-156 14q-141 0 -254 -42.5t-185 -111t-120 -160.5t-68 -185t-20 -191z" />
<glyph unicode="R" horiz-adv-x="1570" d="M129 0l256 1454h649q105 0 191 -21.5t154.5 -66.5t106.5 -122t38 -181q0 -171 -103.5 -292t-320.5 -159l286 -612h-235l-277 598h-438l-106 -598h-201zM465 764h450q110 0 190 24t123.5 66.5t63 93t19.5 111.5q0 227 -287 227h-467z" />
<glyph unicode="S" horiz-adv-x="1509" d="M53 440l209 35q17 -181 144.5 -265.5t359.5 -84.5q405 0 405 268q0 108 -64 156.5t-210 73.5l-246 43q-207 38 -315.5 133.5t-108.5 261.5q0 92 35.5 168.5t108 137t193.5 94.5t280 34q132 0 240 -23.5t195 -72.5t141 -132.5t67 -197.5l-201 -49q-24 166 -134 239.5 t-308 73.5q-116 0 -198.5 -22.5t-125 -61.5t-60.5 -81t-18 -91q0 -100 72.5 -154t214.5 -79l246 -43q208 -39 309.5 -128.5t101.5 -266.5q0 -95 -33.5 -173t-105.5 -141t-197.5 -98t-295.5 -35q-320 0 -504.5 119t-196.5 362z" />
<glyph unicode="T" d="M156 1284l30 170h1311l-29 -170h-555l-227 -1284h-201l226 1284h-555z" />
<glyph unicode="U" horiz-adv-x="1689" d="M199 639l145 815h203l-150 -836q-12 -70 -12 -130q0 -151 79 -236q111 -119 349 -119q104 0 185 23.5t135 62.5t93 99.5t61 125t36 148.5l156 862h200l-161 -905q-18 -105 -51.5 -191t-90.5 -161.5t-135.5 -127t-190.5 -81t-251 -29.5q-343 0 -501 173q-115 126 -115 337 q0 79 16 170z" />
<glyph unicode="V" horiz-adv-x="1464" d="M172 1454h211l258 -1098q20 -108 23 -168h6q20 53 84 168l645 1098h225l-870 -1454h-224z" />
<glyph unicode="W" horiz-adv-x="2181" d="M217 1454h205l104 -1169q4 -44 4 -73v-17h7q11 35 41 90l573 1169h203l162 -1169q8 -52 8 -80v-10h6q4 14 37 90l518 1169h213l-674 -1454h-244l-151 1135q-7 35 -7 65q0 10 1 19h-9q-5 -21 -34 -84l-553 -1135h-250z" />
<glyph unicode="X" horiz-adv-x="1536" d="M-63 0l751 764l-450 690h241l305 -489q27 -44 41 -82h4q14 21 70 80l473 491h250l-688 -702l485 -752h-245l-330 539q-38 67 -47 96h-4q-29 -43 -80 -96l-520 -539h-256z" />
<glyph unicode="Y" horiz-adv-x="1421" d="M166 1454h227l318 -653q19 -51 24 -78h4q8 20 52 78l552 653h244l-770 -899l-98 -555h-203l98 555z" />
<glyph unicode="Z" horiz-adv-x="1411" d="M0 0l33 174l1175 1112h-944l29 168h1194l-31 -172l-1180 -1114h1022l-30 -168h-1268z" />
<glyph unicode="[" horiz-adv-x="741" d="M86 -240l317 1796h463l-26 -147h-297l-264 -1501h296l-24 -148h-465z" />
<glyph unicode="\" horiz-adv-x="1732" d="M276 1556h179l1052 -1796h-180z" />
<glyph unicode="]" horiz-adv-x="741" d="M-74 -240l27 148h297l264 1501h-297l25 147h465l-318 -1796h-463z" />
<glyph unicode="^" horiz-adv-x="978" d="M111 901l471 551h147l277 -551h-160l-199 408l-344 -408h-192z" />
<glyph unicode="_" horiz-adv-x="1067" d="M-147 -324l22 131h1067l-22 -131h-1067z" />
<glyph unicode="`" horiz-adv-x="1228" d="M225 1487h226l303 -299h-179z" />
<glyph unicode="a" d="M66 270q0 138 102 219q123 102 373 113l481 25l4 35q4 27 4 50q0 88 -58 136q-74 60 -241 61q-318 0 -362 -215h-191q30 176 175 268.5t380 92.5q267 0 387 -110q90 -83 90 -236q0 -51 -10 -109l-45 -248q-32 -178 -32 -310q0 -21 1 -42h-188q4 117 16 199 q-154 -230 -475 -230q-193 0 -302 77.5t-109 223.5zM260 283q0 -170 252 -170q204 0 328 96t151 240l8 53l-411 -23q-178 -10 -253 -59.5t-75 -136.5z" />
<glyph unicode="b" horiz-adv-x="1449" d="M119 0l262 1485h180l-115 -641q69 91 177.5 151t253.5 60q70 0 136 -14.5t131 -49t113.5 -85.5t78.5 -131.5t30 -180.5q0 -87 -20.5 -173t-67.5 -168.5t-114.5 -145t-169 -100.5t-224.5 -38q-147 0 -265.5 52t-178.5 167l-60 -188h-147zM385 518q-11 -50 -11 -95 q0 -111 66 -188q92 -108 289 -108q101 0 181 31.5t128 80t79 113t42.5 122.5t11.5 116q0 74 -22 130.5t-55.5 89t-80 53t-89 27.5t-88.5 7q-170 0 -289.5 -86t-147.5 -221z" />
<glyph unicode="c" horiz-adv-x="1300" d="M86 446q0 85 19 167t66 163.5t117.5 142t181.5 98.5t249 38q76 0 144.5 -11.5t134 -39.5t114.5 -70.5t83 -108.5t44 -149l-186 -23q-8 59 -33 103.5t-58 71t-76 43t-83 22.5t-84 6q-103 0 -182.5 -29.5t-126.5 -75t-77.5 -107.5t-41 -119t-10.5 -117q0 -90 29 -155.5 t80.5 -101.5t112 -52.5t132.5 -16.5q81 0 143.5 19t105.5 54.5t70.5 76t49.5 94.5l178 -29q-125 -371 -553 -371q-82 0 -156 13.5t-146 48t-124.5 87t-84.5 137t-32 191.5z" />
<glyph unicode="d" horiz-adv-x="1449" d="M84 436q0 90 21.5 176.5t68.5 167t115 141.5t168 97.5t219 36.5q147 0 265.5 -54t176.5 -170l115 654h180l-260 -1485h-174l33 190q-63 -102 -173.5 -161.5t-260.5 -59.5q-71 0 -138.5 14.5t-133 49.5t-114 87t-78.5 133.5t-30 182.5zM279 449q0 -76 21.5 -134t56 -93.5 t82 -58t94 -30.5t98.5 -8q176 0 287.5 94t136.5 227l8 48q10 47 10 89q1 37 -7 67q-16 68 -51 114.5t-89 76.5t-113.5 44t-124.5 14q-89 0 -161 -29t-117 -74.5t-75.5 -106t-43 -120.5t-12.5 -120z" />
<glyph unicode="e" horiz-adv-x="1333" d="M86 446q0 90 22 174.5t71 164.5t121 139t180 95t239 36q109 0 202 -24.5t166.5 -74t115.5 -133t42 -192.5q0 -93 -26 -172h-951q1 -77 23 -136t57.5 -96t85.5 -60.5t102.5 -32.5t112.5 -9q145 0 233 48.5t146 154.5l146 -72q-148 -287 -525 -287q-76 0 -148.5 12 t-150 45.5t-134 85t-93.5 137.5t-37 197zM283 600h778q6 27 6 62q0 71 -31.5 123.5t-84.5 80t-111 40t-123 12.5q-183 0 -292 -86.5t-142 -231.5z" />
<glyph unicode="f" horiz-adv-x="868" d="M109 877l26 147h244l24 139q32 167 125 252.5t258 85.5q118 0 207 -35l-28 -153q-74 28 -168 28q-107 0 -153 -48.5t-62 -149.5l-23 -119h352l-26 -147h-350l-156 -877h-180l153 877h-243z" />
<glyph unicode="g" horiz-adv-x="1310" d="M-35 -162q0 81 52 139t171 95q-104 46 -104 153q0 159 225 219q-100 84 -100 224q0 75 29 142.5t87 123t157.5 88.5t228.5 33q174 0 288 -60q31 92 101.5 144.5t179.5 52.5q48 0 94 -12l-26 -158q-35 14 -97 14q-131 0 -168 -100q80 -80 80 -205q0 -75 -29 -142.5 t-87 -123t-157.5 -88.5t-227.5 -33q-162 0 -277 53q-68 -17 -97.5 -48t-29.5 -68q0 -51 46.5 -71t148.5 -22l313 -6q83 -2 146.5 -14.5t117.5 -41t82.5 -81t28.5 -127.5q0 -346 -629 -346q-120 0 -213.5 12.5t-171.5 41t-120 82.5t-42 130zM143 -121q0 -40 20.5 -69.5 t53.5 -47.5t84 -28.5t104 -14.5t121 -4q430 0 430 185q0 71 -50.5 97t-157.5 28l-314 4q-78 0 -139 12q-152 -52 -152 -162zM387 682q0 -57 25.5 -98.5t69 -63.5t91 -31.5t101.5 -9.5q85 0 147.5 21t96.5 56.5t49.5 75.5t15.5 85q0 57 -25 98.5t-68 63.5t-90.5 31.5 t-101.5 9.5q-85 0 -147.5 -20.5t-97 -56t-50.5 -75.5t-16 -86z" />
<glyph unicode="h" horiz-adv-x="1439" d="M119 0l262 1485h180l-117 -672q53 105 163.5 173.5t275.5 68.5q85 0 156 -21.5t129 -66.5t91 -123t33 -182q0 -79 -16 -164l-88 -498h-180l88 510q12 56 12 123q0 73 -23 125.5t-64.5 82t-91 43t-110.5 13.5q-361 0 -436 -422l-84 -475h-180z" />
<glyph unicode="i" horiz-adv-x="577" d="M109 0l180 1024h180l-180 -1024h-180zM305 1212l39 228h213l-41 -228h-211z" />
<glyph unicode="j" horiz-adv-x="593" d="M-221 -389l26 156q71 -21 127 -21q82 0 121.5 44.5t57.5 150.5l192 1083h182l-196 -1106q-15 -85 -37.5 -143.5t-61.5 -103.5t-99 -66t-144 -21q-89 0 -168 27zM315 1212l39 228h213l-41 -228h-211z" />
<glyph unicode="k" horiz-adv-x="1312" d="M119 0l262 1485h180l-170 -961l686 500h250l-518 -391l367 -633h-215l-295 530l-312 -217l-55 -313h-180z" />
<glyph unicode="l" horiz-adv-x="598" d="M119 0l262 1485h180l-262 -1485h-180z" />
<glyph unicode="m" horiz-adv-x="2072" d="M109 0l180 1024h174l-35 -205q110 238 373 238q130 0 223.5 -62t118.5 -194q55 111 155.5 183.5t253.5 72.5q53 0 102 -9t101.5 -34.5t90.5 -66t62.5 -108t24.5 -155.5q0 -61 -16 -152l-98 -532h-181l97 535q10 72 10 114q0 58 -14 102.5t-36 72t-54 45t-65 24t-71 6.5 q-290 0 -360 -391l-90 -508h-183l93 516q12 70 12 127q0 75 -20.5 127.5t-57 79.5t-76 38t-86.5 11q-286 0 -358 -387l-90 -512h-180z" />
<glyph unicode="n" horiz-adv-x="1429" d="M109 0l180 1024h174l-39 -223q55 112 165.5 183t276.5 71q58 0 110.5 -9.5t110 -36.5t98.5 -70t68 -116.5t27 -169.5q0 -70 -16 -164l-86 -489h-181l88 496q13 76 13 125q0 79 -24.5 135t-68.5 85.5t-93.5 42.5t-110.5 13q-83 0 -151 -25t-113.5 -64.5t-79.5 -96.5 t-53 -113.5t-31 -122.5l-84 -475h-180z" />
<glyph unicode="o" horiz-adv-x="1363" d="M86 442q0 90 21.5 175t70.5 165.5t120.5 140.5t180 96t240.5 36q86 0 163.5 -14t151 -49t127 -87.5t85.5 -135.5t32 -187q0 -90 -21.5 -175t-70.5 -165.5t-120.5 -140.5t-180 -96t-240.5 -36q-86 0 -163.5 14t-151 49t-127 87.5t-85.5 135.5t-32 187zM281 453 q0 -91 31.5 -157t86.5 -102t117.5 -52.5t136.5 -16.5q96 0 172 28.5t123 74t78.5 105.5t44 119t12.5 119q0 91 -31.5 157t-86.5 102t-117.5 52.5t-136.5 16.5q-96 0 -172 -28.5t-123 -74t-78.5 -105.5t-44 -119t-12.5 -119z" />
<glyph unicode="p" horiz-adv-x="1439" d="M39 -399l252 1423h174l-37 -201q38 61 92 110t145.5 85.5t200.5 36.5q70 0 136.5 -14.5t132 -48.5t113.5 -85.5t78 -132t30 -180.5q0 -88 -20.5 -174t-67.5 -168t-114 -144.5t-168 -100.5t-222 -38q-342 0 -442 211l-103 -579h-180zM373 494q-8 -41 -8 -78 q0 -111 67 -187q89 -102 287 -102q102 0 182 31.5t127.5 80t78.5 112.5t42.5 122t11.5 115q0 75 -22 132t-55.5 89.5t-80 53t-89 27.5t-89.5 7q-179 0 -296 -99t-144 -239z" />
<glyph unicode="q" horiz-adv-x="1441" d="M84 436q0 90 21.5 176.5t69 167t115 141.5t168 97.5t220.5 36.5q151 0 270.5 -52.5t177.5 -162.5l66 184h141l-252 -1423h-180l103 585q-59 -108 -167.5 -162.5t-252.5 -54.5q-75 0 -144 15t-134.5 50t-114 87t-78 133t-29.5 182zM279 449q0 -76 21.5 -134t56 -93.5 t82 -58t94 -30.5t98.5 -8q177 0 288 94.5t136 229.5l8 47q10 47 10 87q0 36 -8 67q-16 67 -50.5 114.5t-89 77t-113.5 43.5t-124 14q-89 0 -161 -29t-117 -74.5t-75.5 -106t-43 -120.5t-12.5 -120z" />
<glyph unicode="r" horiz-adv-x="858" d="M109 0l180 1024h168l-47 -274q27 69 59.5 120.5t78.5 94.5t109 65.5t142 22.5q60 0 110 -15l-32 -178q-58 14 -107 14q-134 0 -221 -69q-131 -102 -180 -371l-80 -434h-180z" />
<glyph unicode="s" horiz-adv-x="1236" d="M53 319l176 41q14 -71 48 -120.5t86 -75.5t109.5 -36.5t131.5 -10.5q305 0 305 174q0 62 -36 90.5t-121 40.5l-289 37q-147 21 -223 92.5t-76 181.5q0 145 126.5 233.5t356.5 88.5q97 0 179.5 -16.5t152.5 -51.5t117.5 -95.5t66.5 -143.5l-174 -52q-17 54 -45 94 t-60 62.5t-75 35.5t-80.5 17t-85.5 4q-159 0 -228 -40.5t-69 -120.5q0 -61 39.5 -92.5t130.5 -43.5l295 -41q283 -42 283 -272q0 -153 -127 -241.5t-377 -88.5q-106 0 -191 16.5t-159 55t-122 108.5t-65 170z" />
<glyph unicode="t" horiz-adv-x="907" d="M98 877l27 147h246l47 268l196 76l-63 -344h364l-24 -147h-365l-88 -494q-8 -36 -8 -65v-14q2 -34 8 -59t21 -42.5t30.5 -28.5t38.5 -17t43.5 -8t46.5 -2q72 0 148 15l-29 -160q-83 -22 -176 -22q-65 0 -116.5 13t-95 43.5t-67.5 79.5q-24 50 -32 122q-3 22 -2 46 q0 56 14 124l84 469h-248z" />
<glyph unicode="u" horiz-adv-x="1409" d="M139 311q0 66 27 224l84 489h182l-88 -496q-20 -137 -20 -176q0 -119 75.5 -173t194.5 -54q366 0 440 424l84 475h182l-180 -1024h-174l39 223q-52 -112 -164.5 -183t-283.5 -71q-56 0 -107.5 8.5t-106 32t-94 60.5t-65 99t-25.5 142z" />
<glyph unicode="v" horiz-adv-x="1183" d="M102 1024h195l209 -741q13 -68 16 -115h4q30 66 60 115l469 741h207l-660 -1024h-201z" />
<glyph unicode="w" horiz-adv-x="1826" d="M133 1024h178l117 -764q6 -50 6 -104h4q11 38 45 104l410 764h209l135 -764q10 -78 10 -104h4q11 37 39 104l391 764h193l-541 -1024h-207l-141 762q-7 52 -7 84q0 10 1 18h-4q-10 -41 -43 -102l-408 -762h-211z" />
<glyph unicode="x" horiz-adv-x="1210" d="M-63 0l552 526l-346 498h224l204 -305q40 -64 50 -96h2q14 21 77 94l310 307h235l-522 -506l371 -518h-220l-223 322q-42 61 -53 98h-2q-13 -23 -88 -101l-326 -319h-245z" />
<glyph unicode="y" horiz-adv-x="1185" d="M-70 -393l29 160q55 -21 137 -21q180 0 287 188l39 74l-320 1016h201l221 -752q12 -58 15 -96h4q21 52 49 96l463 752h209l-721 -1145q-60 -96 -116 -156.5t-113 -90t-107 -39t-119 -9.5q-79 0 -158 23z" />
<glyph unicode="z" horiz-adv-x="1175" d="M0 0l27 143l874 729h-717l27 152h950l-24 -139l-877 -733h780l-26 -152h-1014z" />
<glyph unicode="{" horiz-adv-x="743" d="M100 604l25 139q47 1 79.5 11.5t52.5 24.5t34 43t20.5 54.5t14.5 71.5l55 314q12 69 34 120t64.5 97t115.5 70t175 24h98l-24 -135h-53q-66 0 -111.5 -14.5t-71.5 -44t-38.5 -61t-20.5 -77.5l-51 -278q-21 -117 -67.5 -188.5t-139.5 -98.5q58 -22 86 -70.5t27 -106.5 t-11 -124l-49 -277q-11 -63 -0.5 -106t39.5 -62.5t59 -26.5t70 -7h63l-22 -138h-78q-39 0 -72.5 4t-69.5 14t-62 27.5t-50.5 44.5t-35 64.5t-15 88t9.5 114.5l49 276q8 43 11 69.5t-1 56.5t-18.5 46.5t-44.5 28t-76 12.5z" />
<glyph unicode="|" horiz-adv-x="567" d="M76 -240l317 1796h150l-318 -1796h-149z" />
<glyph unicode="}" horiz-adv-x="743" d="M-72 -242l25 136h53q66 0 111.5 14.5t71.5 43.5t38.5 60.5t20.5 77.5l51 279q21 116 67.5 187.5t139.5 98.5q-58 22 -86.5 70.5t-27.5 106.5t11 124l50 277q11 63 0.5 106t-39.5 63t-59 27t-70 7h-64l23 137h78q39 0 72.5 -4t69.5 -14t62 -27.5t50 -44t34.5 -64t15 -88 t-9.5 -114.5l-49 -277q-8 -43 -11 -69.5t1 -56.5t18.5 -46.5t44.5 -28t76 -12.5l-24 -139q-47 -1 -79.5 -11.5t-52.5 -24.5t-34 -43t-20.5 -54.5t-14.5 -71.5l-55 -313q-12 -69 -34 -120t-64.5 -97t-115.5 -70.5t-175 -24.5h-99z" />
<glyph unicode="~" horiz-adv-x="1429" d="M197 522q35 129 126.5 197.5t204.5 68.5q59 0 109.5 -17t86 -41t68.5 -47.5t72 -40.5t80 -17q69 0 115 32t78 115l137 -22q-35 -130 -126.5 -198.5t-203.5 -68.5q-59 0 -110 17t-86.5 41t-68.5 48t-71.5 41t-79.5 17q-69 0 -115.5 -32.5t-78.5 -114.5z" />
<glyph unicode="&#xa1;" horiz-adv-x="690" d="M84 -297l244 1090h135l-144 -1090h-235zM299 963l41 225h248l-41 -225h-248z" />
<glyph unicode="&#xa2;" horiz-adv-x="1347" d="M86 442q0 85 19 166.5t66.5 164t119 143.5t185.5 99.5t257 39.5l29 159h123l-29 -165q81 -10 149.5 -34t128.5 -65.5t99 -108t49 -151.5l-178 -24q-34 208 -275 239l-139 -792q78 4 139 23t103.5 52t71 72.5t49.5 91.5l174 -33q-133 -345 -561 -350l-29 -162h-123l29 168 q-75 9 -139.5 28t-124 55.5t-101.5 87.5t-67 126.5t-25 169.5zM272 451q0 -82 23.5 -144t65.5 -100t93.5 -59t114.5 -29l140 792q-89 -4 -160.5 -27.5t-118 -61.5t-79 -82.5t-49 -97.5t-23.5 -98.5t-7 -92.5z" />
<glyph unicode="&#xa3;" horiz-adv-x="1443" d="M-29 115q92 23 160 58.5t121.5 92t80.5 140.5t27 196q0 51 -2 76h-237l24 129h205q-2 25 -2 72q0 97 17 180t57.5 158t102.5 127.5t158.5 83t219.5 30.5q226 0 357.5 -83t154.5 -242l-194 -48q-17 107 -98.5 162.5t-219.5 55.5q-91 0 -156.5 -23.5t-103.5 -60.5 t-59.5 -97t-28 -118.5t-6.5 -139.5q0 -39 2 -57h489l-22 -129h-459v-37q0 -202 -69 -312.5t-232 -174.5q107 26 205 26q110 0 252 -20.5t217 -20.5q126 0 190.5 51.5t91.5 159.5l166 -33q-37 -163 -156 -258.5t-294 -95.5q-89 0 -248.5 30t-284.5 30q-189 0 -409 -39z" />
<glyph unicode="&#xa4;" horiz-adv-x="1245" d="M78 215l131 121q-78 100 -78 250q0 104 36.5 197.5t108.5 162.5l-92 123l101 76l94 -125q117 63 274 63q208 0 348 -98l136 121l71 -76l-129 -119q82 -105 82 -256q0 -105 -37.5 -199t-109.5 -163l86 -117l-99 -76l-90 119q-119 -61 -272 -61q-216 0 -356 104l-136 -123z M297 596q0 -79 28 -138t76 -91t103.5 -47t120.5 -15q83 0 149 21t106.5 54.5t67 79t37 91.5t10.5 96q0 79 -27.5 137t-75.5 90t-104 47t-120 15q-83 0 -149 -21t-107 -54t-67.5 -79t-37 -91.5t-10.5 -94.5z" />
<glyph unicode="&#xa5;" horiz-adv-x="1370" d="M96 291l23 125h452l21 114h-453l23 125h436l-438 768h211l241 -432q67 -111 105 -217h6q63 88 184 217l396 432h229l-713 -768h441l-23 -125h-455l-20 -114h455l-23 -125h-455l-51 -291h-190l51 291h-453z" />
<glyph unicode="&#xa6;" horiz-adv-x="565" d="M76 -240l137 775h147l-137 -775h-147zM256 782l137 774h148l-138 -774h-147z" />
<glyph unicode="&#xa7;" horiz-adv-x="1226" d="M-4 113l170 37q11 -103 94.5 -155t257.5 -52q322 0 322 192q0 61 -37 102t-119 68l-289 84q-65 20 -113 43t-90.5 56.5t-65 80t-22.5 105.5q0 170 185 254q-72 75 -72 186q0 70 27 131t82 111t150.5 79t221.5 29q94 0 177 -16t154 -49t115 -90.5t50 -134.5l-182 -46 q-17 191 -305 191q-306 0 -306 -178q0 -63 42.5 -101.5t148.5 -72.5l274 -66q277 -78 277 -293q0 -178 -172 -276q55 -73 55 -182q0 -74 -28 -136t-86.5 -112.5t-160.5 -78.5t-239 -28q-72 0 -139.5 9t-135.5 32t-119 58t-84.5 91t-37.5 128zM287 700q0 -61 53.5 -100 t202.5 -86l241 -61q30 -9 93 -39q84 66 84 161q0 69 -46.5 108t-164.5 79l-289 76q-32 8 -66 22q-108 -57 -108 -160z" />
<glyph unicode="&#xa8;" horiz-adv-x="1228" d="M102 1221l39 221h217l-39 -221h-217zM618 1221l39 221h217l-38 -221h-218z" />
<glyph unicode="&#xa9;" horiz-adv-x="1828" d="M121 655q0 83 13 164.5t43.5 165.5t76 158t115.5 139.5t156.5 113t204 74.5t253.5 27q108 0 214 -21t213.5 -73t189 -129t133 -199.5t51.5 -275.5q0 -83 -13 -164.5t-43.5 -165.5t-76 -158t-115.5 -139.5t-156.5 -113t-204 -74.5t-253.5 -27q-108 0 -214 21t-213.5 73 t-189 129t-133 199.5t-51.5 275.5zM227 657q0 -126 43 -230.5t112.5 -172t160.5 -114.5t184.5 -67t187.5 -20q120 0 223 24.5t179.5 67t138.5 101t102.5 124.5t67.5 140t39 145t12 142q0 126 -43 230.5t-112.5 172t-160.5 114.5t-184.5 67t-187.5 20q-120 0 -223 -24.5 t-179.5 -67t-138.5 -101t-102.5 -124.5t-67.5 -140t-39 -145t-12 -142zM508 674q0 69 14.5 135t50.5 131.5t89.5 114.5t139 79.5t191.5 30.5q75 1 140 -14.5t122 -49t94 -93t46 -140.5l-146 -18q-7 56 -33 96t-64 59.5t-75.5 28t-79.5 8.5q-79 0 -140 -24t-97 -60.5 t-59.5 -86.5t-31.5 -97t-7 -96q3 -141 77 -201.5t191 -60.5q210 0 280 190l138 -24q-43 -135 -146 -213t-274 -78q-64 0 -121.5 11t-113 38.5t-96 70t-65 110t-24.5 153.5z" />
<glyph unicode="&#xaa;" horiz-adv-x="1062" d="M178 829q0 115 95.5 175t293.5 69l305 17l5 24q15 93 -36 134.5t-163 41.5q-214 0 -240 -141h-180q24 122 128.5 189t291.5 67q206 0 300 -82.5t64 -255.5l-32 -188q-25 -156 -25 -244h-172q0 74 14 151q-98 -174 -350 -174q-135 0 -217 54t-82 163zM362 846 q0 -64 49 -93.5t128 -29.5q128 0 212 62.5t99 162.5l8 53l-260 -12q-236 -13 -236 -143z" />
<glyph unicode="&#xab;" horiz-adv-x="1171" d="M74 563l487 426h215l-493 -436l321 -416h-196zM512 563l487 426h215l-493 -436l321 -416h-196z" />
<glyph unicode="&#xac;" horiz-adv-x="1515" d="M258 600l29 166h1032l-88 -498h-168l59 332h-864z" />
<glyph unicode="&#xad;" horiz-adv-x="1009" d="M106 487l29 166h789l-29 -166h-789z" />
<glyph unicode="&#xae;" horiz-adv-x="1828" d="M121 655q0 83 13 164.5t43.5 165.5t76 158t115.5 139.5t156.5 113t204 74.5t253.5 27q108 0 214 -21t213.5 -73t189 -129t133 -199.5t51.5 -275.5q0 -83 -13 -164.5t-43.5 -165.5t-76 -158t-115.5 -139.5t-156.5 -113t-204 -74.5t-253.5 -27q-108 0 -214 21t-213.5 73 t-189 129t-133 199.5t-51.5 275.5zM227 657q0 -126 43 -230.5t112.5 -172t160.5 -114.5t184.5 -67t187.5 -20q120 0 223 24.5t179.5 67t138.5 101t102.5 124.5t67.5 140t39 145t12 142q0 126 -43 230.5t-112.5 172t-160.5 114.5t-184.5 67t-187.5 20q-120 0 -223 -24.5 t-179.5 -67t-138.5 -101t-102.5 -124.5t-67.5 -140t-39 -145t-12 -142zM563 319l148 832h354q301 0 301 -227q0 -89 -57.5 -159.5t-186.5 -96.5l162 -349h-156l-145 343h-217l-61 -343h-142zM786 776h244q108 0 151.5 40.5t43.5 101.5q0 70 -43 93t-125 23h-226z" />
<glyph unicode="&#xaf;" horiz-adv-x="1228" d="M102 1253l25 136h754l-23 -136h-756z" />
<glyph unicode="&#xb0;" horiz-adv-x="925" d="M162 1036q0 60 15 119.5t48 116.5t81 100t120.5 69.5t159.5 26.5q164 0 270.5 -92t106.5 -254q0 -59 -13.5 -117.5t-46 -116t-79.5 -101t-121 -70.5t-164 -27q-169 0 -273 95t-104 251zM328 1044q0 -57 18.5 -99t50.5 -63.5t67 -31.5t75 -10q120 0 189 80t69 194 q0 57 -18.5 99t-50 64t-67 32t-75.5 10q-119 0 -188.5 -80t-69.5 -195z" />
<glyph unicode="&#xb1;" horiz-adv-x="1558" d="M168 0l29 166h1042l-29 -166h-1042zM272 598l27 152h430l59 329h179l-60 -329h434l-26 -152h-434l-58 -328h-178l57 328h-430z" />
<glyph unicode="&#xb4;" horiz-adv-x="1228" d="M100 1188l303 299h226l-350 -299h-179z" />
<glyph unicode="&#xb5;" horiz-adv-x="1447" d="M39 -399l250 1423h182l-88 -496q-21 -144 -21 -176q0 -119 76 -173t195 -54q366 0 440 424l84 475h182l-180 -1024h-174l39 223q-52 -112 -165 -183t-284 -71q-189 0 -294 90l-80 -458h-162z" />
<glyph unicode="&#xb6;" horiz-adv-x="1603" d="M227 1063q0 412 621 412h774l-23 -121h-235l-277 -1559h-143l277 1559h-248l-275 -1559h-143l166 942q-63 0 -125 8t-130.5 30.5t-120 57.5t-85 94.5t-33.5 135.5z" />
<glyph unicode="&#xb7;" horiz-adv-x="589" d="M176 578l43 241h260l-43 -241h-260z" />
<glyph unicode="&#xb8;" horiz-adv-x="1228" d="M102 -283l127 25q18 -57 105 -57q50 0 82.5 23.5t32.5 70.5q0 71 -97 71q-50 0 -88 -32l-82 24l129 172h113l-98 -114q30 24 100 24q74 0 118 -37.5t44 -101.5q0 -87 -73 -141t-179 -54q-97 0 -158 34t-76 93z" />
<glyph unicode="&#xba;" horiz-adv-x="1091" d="M178 961q0 66 16.5 128t53.5 120t92 101t138 69t184 26q82 0 153.5 -17t135.5 -54.5t101.5 -108.5t37.5 -168q0 -66 -16.5 -127.5t-53.5 -120t-92 -102t-138 -69.5t-184 -26q-65 0 -123 10t-115 35t-98 63.5t-66.5 100t-25.5 140.5zM356 963q0 -62 21.5 -108t58.5 -71 t81 -37t95 -12q64 0 115.5 20.5t84.5 53t55.5 75t32 85.5t9.5 86q0 62 -21 107.5t-58 71t-80.5 37t-94.5 11.5q-64 0 -116.5 -20t-85.5 -52.5t-55.5 -75t-32 -85.5t-9.5 -86z" />
<glyph unicode="&#xbb;" horiz-adv-x="1173" d="M-25 137l494 436l-322 416h197l334 -426l-488 -426h-215zM414 137l493 436l-321 416h196l334 -426l-487 -426h-215z" />
<glyph unicode="&#xbc;" horiz-adv-x="1777" d="M113 -35l1288 1524h170l-1286 -1524h-172zM170 1169l20 138h41q174 0 236 145h133l-139 -786h-160l105 579q-24 -35 -76.5 -55.5t-108.5 -20.5h-51zM848 182l18 107l576 497h162l-88 -493h172l-17 -111h-172l-35 -182h-157l32 182h-491zM1010 293h352l78 377z" />
<glyph unicode="&#xbd;" horiz-adv-x="1880" d="M113 -35l1288 1524h170l-1286 -1524h-172zM170 1169l20 138h41q174 0 236 145h133l-139 -786h-160l105 579q-24 -35 -76.5 -55.5t-108.5 -20.5h-51zM993 0l17 104q278 131 369 183q204 117 239 221q8 24 8 49q0 135 -176 135q-108 0 -158 -49.5t-37 -142.5l-157 14 q-9 139 82.5 217t281.5 78q48 0 91.5 -6t88.5 -22t77.5 -41.5t53.5 -67.5t21 -97q0 -57 -32.5 -112.5t-81 -100t-125 -92t-144 -81.5t-158.5 -74h478l-19 -115h-719z" />
<glyph unicode="&#xbe;" horiz-adv-x="2068" d="M139 909l166 11q5 -162 213 -162q93 0 143 38t50 103q0 54 -46 87.5t-135 33.5h-67l16 92h70q95 0 150 33.5t55 99.5q0 60 -53 89.5t-126 29.5q-102 0 -154.5 -45t-62.5 -117l-157 10q13 121 108 192t271 71q60 0 114 -8.5t108.5 -29.5t87 -64t32.5 -103 q0 -93 -68.5 -146t-175.5 -61q91 -8 145 -53.5t54 -120.5q0 -107 -91 -175.5t-260 -68.5q-382 0 -387 264zM403 -35l1289 1524h170l-1287 -1524h-172zM1139 182l18 107l576 497h161l-88 -493h172l-16 -111h-172l-35 -182h-158l33 182h-491zM1300 293h353l78 377z" />
<glyph unicode="&#xbf;" horiz-adv-x="1210" d="M-23 68q0 279 322 424l143 63q65 31 97 79.5t43 121.5l8 61h186l-12 -86q-18 -107 -66.5 -177.5t-148.5 -115.5l-160 -67q-112 -50 -160.5 -118t-48.5 -159q0 -71 29.5 -122.5t81 -78.5t107.5 -39t120 -12q95 0 167 22t113.5 55.5t67.5 80.5t34.5 90.5t8.5 91.5 q0 49 -6 90l195 -24q6 -25 6 -92q0 -61 -15.5 -122t-57.5 -126t-105.5 -114t-169.5 -81t-240 -32q-104 0 -194.5 19.5t-170.5 62t-127 120.5t-47 185zM588 963l39 225h239l-39 -225h-239z" />
<glyph unicode="&#xc0;" horiz-adv-x="1611" d="M-49 0l919 1454h203l408 -1454h-201l-94 377h-785l-227 -377h-223zM502 545h641l-127 508q-48 134 -62 227h-4q-8 -16 -16 -31.5t-18.5 -32t-17.5 -28t-20 -32t-20 -30.5t-24 -35.5l-25 -37.5zM598 1769h215l279 -221h-185z" />
<glyph unicode="&#xc1;" horiz-adv-x="1611" d="M-49 0l919 1454h203l408 -1454h-201l-94 377h-785l-227 -377h-223zM502 545h641l-127 508q-48 134 -62 227h-4q-8 -16 -16 -31.5t-18.5 -32t-17.5 -28t-20 -32t-20 -30.5t-24 -35.5l-25 -37.5zM895 1548l279 221h215l-310 -221h-184z" />
<glyph unicode="&#xc2;" horiz-adv-x="1611" d="M-49 0l919 1454h203l408 -1454h-201l-94 377h-785l-227 -377h-223zM502 545h641l-127 508q-48 134 -62 227h-4q-8 -16 -16 -31.5t-18.5 -32t-17.5 -28t-20 -32t-20 -30.5t-24 -35.5l-25 -37.5zM629 1548l286 221h224l209 -221h-187l-139 148l-191 -148h-202z" />
<glyph unicode="&#xc3;" horiz-adv-x="1611" d="M-49 0l919 1454h203l408 -1454h-201l-94 377h-785l-227 -377h-223zM502 545h641l-127 508q-48 134 -62 227h-4q-8 -16 -16 -31.5t-18.5 -32t-17.5 -28t-20 -32t-20 -30.5t-24 -35.5l-25 -37.5zM590 1571q70 209 256 209q58 0 104 -17t71.5 -37.5t63 -37.5t80.5 -17 q53 0 84 21.5t51 76.5l121 -22q-67 -209 -256 -209q-58 0 -104 17t-71 37.5t-62 37.5t-80 17q-52 0 -83.5 -22t-51.5 -77z" />
<glyph unicode="&#xc4;" horiz-adv-x="1611" d="M-49 0l919 1454h203l408 -1454h-201l-94 377h-785l-227 -377h-223zM502 545h641l-127 508q-48 134 -62 227h-4q-8 -16 -16 -31.5t-18.5 -32t-17.5 -28t-20 -32t-20 -30.5t-24 -35.5l-25 -37.5zM612 1548l37 209h217l-37 -209h-217zM1147 1548l37 209h217l-37 -209h-217z " />
<glyph unicode="&#xc5;" horiz-adv-x="1611" d="M-49 0l919 1454h203l408 -1454h-201l-94 377h-785l-227 -377h-223zM502 545h641l-127 508q-48 134 -62 227h-4q-8 -16 -16 -31.5t-18.5 -32t-17.5 -28t-20 -32t-20 -30.5t-24 -35.5l-25 -37.5zM788 1702q0 99 70 164t174 65q101 0 158 -51t57 -137q0 -101 -70.5 -166.5 t-175.5 -65.5q-100 0 -156.5 52t-56.5 139zM909 1702q0 -41 24.5 -65.5t67.5 -24.5q61 0 93 34t32 97q0 41 -24.5 65.5t-69.5 24.5q-59 0 -91 -34.5t-32 -96.5z" />
<glyph unicode="&#xc6;" horiz-adv-x="2502" d="M-20 0l1353 1454h1174l-31 -168h-913l-82 -457h880l-30 -167h-879l-86 -494h928l-29 -168h-1130l59 340h-680l-309 -340h-225zM664 506h559l135 764z" />
<glyph unicode="&#xc7;" horiz-adv-x="1662" d="M117 621q0 130 29.5 252.5t96 236.5t164.5 198.5t245.5 135.5t328.5 51q104 0 196 -16.5t176.5 -55.5t147.5 -98.5t104.5 -150t51.5 -205.5l-207 -21q-10 100 -50.5 174t-106 117.5t-145.5 64.5t-177 21q-139 0 -250.5 -42t-182.5 -110t-119 -159t-67.5 -184.5 t-19.5 -192.5q0 -120 29.5 -211.5t76.5 -146t114.5 -89t135 -47t146.5 -12.5q403 0 534 358l197 -34q-38 -111 -98.5 -198.5t-149 -155.5t-212 -105t-274.5 -37h-4l-51 -59q30 24 101 24q74 0 117.5 -37.5t43.5 -101.5q0 -87 -73 -141t-179 -54q-97 0 -157.5 34t-75.5 93 l127 25q18 -57 104 -57q50 0 82.5 23.5t32.5 70.5q0 71 -96 71q-50 0 -88 -32l-82 24l92 121q-130 12 -236 54t-191.5 118.5t-133 200t-47.5 285.5z" />
<glyph unicode="&#xc8;" horiz-adv-x="1480" d="M129 0l256 1454h1100l-29 -168h-899l-80 -457h862l-28 -167h-865l-86 -494h912l-29 -168h-1114zM584 1769h215l278 -221h-184z" />
<glyph unicode="&#xc9;" horiz-adv-x="1480" d="M129 0l256 1454h1100l-29 -168h-899l-80 -457h862l-28 -167h-865l-86 -494h912l-29 -168h-1114zM881 1548l278 221h215l-309 -221h-184z" />
<glyph unicode="&#xca;" horiz-adv-x="1480" d="M129 0l256 1454h1100l-29 -168h-899l-80 -457h862l-28 -167h-865l-86 -494h912l-29 -168h-1114zM614 1548l287 221h223l209 -221h-186l-139 148l-191 -148h-203z" />
<glyph unicode="&#xcb;" horiz-adv-x="1480" d="M129 0l256 1454h1100l-29 -168h-899l-80 -457h862l-28 -167h-865l-86 -494h912l-29 -168h-1114zM598 1548l37 209h217l-37 -209h-217zM1133 1548l36 209h217l-36 -209h-217z" />
<glyph unicode="&#xcc;" horiz-adv-x="638" d="M129 0l256 1454h201l-256 -1454h-201zM188 1769h199l195 -221h-174z" />
<glyph unicode="&#xcd;" horiz-adv-x="638" d="M129 0l256 1454h201l-256 -1454h-201zM416 1548l194 221h199l-219 -221h-174z" />
<glyph unicode="&#xce;" horiz-adv-x="638" d="M129 0l256 1454h201l-256 -1454h-201zM225 1548l207 221h219l129 -221h-170l-73 146l-125 -146h-187z" />
<glyph unicode="&#xcf;" horiz-adv-x="638" d="M129 0l256 1454h201l-256 -1454h-201zM231 1548l37 209h215l-37 -209h-215zM559 1548l37 209h217l-37 -209h-217z" />
<glyph unicode="&#xd0;" horiz-adv-x="1710" d="M31 682l26 152h219l109 620h580q117 0 219 -21.5t192.5 -70t154.5 -121.5t101 -182.5t37 -247.5q0 -128 -31 -244.5t-100 -220.5t-171 -180.5t-252.5 -121t-334.5 -44.5h-651l121 682h-219zM358 168h424q153 0 273 38t194 98.5t122 145t66.5 169t18.5 178.5 q0 111 -28 197t-74 140t-112 89t-136 49t-152 14h-397l-80 -452h449l-27 -152h-448z" />
<glyph unicode="&#xd1;" horiz-adv-x="1761" d="M129 0l256 1454h238l606 -1079q63 -128 76 -164h6q3 28 28 186l189 1057h180l-256 -1454h-223l-617 1092q-44 82 -77 163h-7q-8 -68 -26 -182l-191 -1073h-182zM666 1571q70 209 256 209q58 0 104 -17t71.5 -37.5t63 -37.5t80.5 -17q53 0 84 21.5t51 76.5l121 -22 q-67 -209 -256 -209q-58 0 -104 17t-71 37.5t-62 37.5t-80 17q-52 0 -84 -22t-52 -77z" />
<glyph unicode="&#xd2;" horiz-adv-x="1763" d="M115 627q0 127 30 248.5t98 235t166.5 198t246 135.5t325.5 51q84 0 162.5 -11t153.5 -35.5t138.5 -61.5t117 -91t91.5 -121.5t59 -156t21 -191.5q0 -90 -15.5 -178t-49 -174.5t-82.5 -162.5t-120 -141t-158 -112t-200.5 -73.5t-242.5 -26.5q-119 0 -224.5 22t-201.5 72 t-165 125.5t-109.5 190.5t-40.5 258zM328 637q0 -116 31 -206.5t82 -146.5t122.5 -92.5t144.5 -50.5t156 -14q141 0 254 42.5t185 111t120 160.5t68 185t20 191q0 116 -31 206.5t-82 146.5t-122.5 92.5t-144.5 50.5t-156 14q-141 0 -254 -42.5t-185 -111t-120 -160.5 t-68 -185t-20 -191zM639 1769h215l279 -221h-185z" />
<glyph unicode="&#xd3;" horiz-adv-x="1763" d="M115 627q0 127 30 248.5t98 235t166.5 198t246 135.5t325.5 51q84 0 162.5 -11t153.5 -35.5t138.5 -61.5t117 -91t91.5 -121.5t59 -156t21 -191.5q0 -90 -15.5 -178t-49 -174.5t-82.5 -162.5t-120 -141t-158 -112t-200.5 -73.5t-242.5 -26.5q-119 0 -224.5 22t-201.5 72 t-165 125.5t-109.5 190.5t-40.5 258zM328 637q0 -116 31 -206.5t82 -146.5t122.5 -92.5t144.5 -50.5t156 -14q141 0 254 42.5t185 111t120 160.5t68 185t20 191q0 116 -31 206.5t-82 146.5t-122.5 92.5t-144.5 50.5t-156 14q-141 0 -254 -42.5t-185 -111t-120 -160.5 t-68 -185t-20 -191zM936 1548l278 221h216l-310 -221h-184z" />
<glyph unicode="&#xd4;" horiz-adv-x="1763" d="M115 627q0 127 30 248.5t98 235t166.5 198t246 135.5t325.5 51q84 0 162.5 -11t153.5 -35.5t138.5 -61.5t117 -91t91.5 -121.5t59 -156t21 -191.5q0 -90 -15.5 -178t-49 -174.5t-82.5 -162.5t-120 -141t-158 -112t-200.5 -73.5t-242.5 -26.5q-119 0 -224.5 22t-201.5 72 t-165 125.5t-109.5 190.5t-40.5 258zM328 637q0 -116 31 -206.5t82 -146.5t122.5 -92.5t144.5 -50.5t156 -14q141 0 254 42.5t185 111t120 160.5t68 185t20 191q0 116 -31 206.5t-82 146.5t-122.5 92.5t-144.5 50.5t-156 14q-141 0 -254 -42.5t-185 -111t-120 -160.5 t-68 -185t-20 -191zM670 1548l286 221h224l209 -221h-187l-139 148l-191 -148h-202z" />
<glyph unicode="&#xd5;" horiz-adv-x="1763" d="M115 627q0 127 30 248.5t98 235t166.5 198t246 135.5t325.5 51q84 0 162.5 -11t153.5 -35.5t138.5 -61.5t117 -91t91.5 -121.5t59 -156t21 -191.5q0 -90 -15.5 -178t-49 -174.5t-82.5 -162.5t-120 -141t-158 -112t-200.5 -73.5t-242.5 -26.5q-119 0 -224.5 22t-201.5 72 t-165 125.5t-109.5 190.5t-40.5 258zM328 637q0 -116 31 -206.5t82 -146.5t122.5 -92.5t144.5 -50.5t156 -14q141 0 254 42.5t185 111t120 160.5t68 185t20 191q0 116 -31 206.5t-82 146.5t-122.5 92.5t-144.5 50.5t-156 14q-141 0 -254 -42.5t-185 -111t-120 -160.5 t-68 -185t-20 -191zM631 1571q70 209 256 209q58 0 104 -17t71.5 -37.5t63 -37.5t80.5 -17q53 0 84 21.5t51 76.5l121 -22q-67 -209 -256 -209q-58 0 -104 17t-71 37.5t-62 37.5t-80 17q-52 0 -83.5 -22t-51.5 -77z" />
<glyph unicode="&#xd6;" horiz-adv-x="1763" d="M115 627q0 127 30 248.5t98 235t166.5 198t246 135.5t325.5 51q84 0 162.5 -11t153.5 -35.5t138.5 -61.5t117 -91t91.5 -121.5t59 -156t21 -191.5q0 -90 -15.5 -178t-49 -174.5t-82.5 -162.5t-120 -141t-158 -112t-200.5 -73.5t-242.5 -26.5q-119 0 -224.5 22t-201.5 72 t-165 125.5t-109.5 190.5t-40.5 258zM328 637q0 -116 31 -206.5t82 -146.5t122.5 -92.5t144.5 -50.5t156 -14q141 0 254 42.5t185 111t120 160.5t68 185t20 191q0 116 -31 206.5t-82 146.5t-122.5 92.5t-144.5 50.5t-156 14q-141 0 -254 -42.5t-185 -111t-120 -160.5 t-68 -185t-20 -191zM653 1548l37 209h217l-37 -209h-217zM1188 1548l37 209h217l-37 -209h-217z" />
<glyph unicode="&#xd7;" horiz-adv-x="1560" d="M211 289l475 381l-342 381l139 116l344 -385l480 385l98 -116l-475 -381l340 -381l-137 -117l-345 385l-481 -385z" />
<glyph unicode="&#xd8;" horiz-adv-x="1763" d="M61 59l177 154q-123 161 -123 414q0 127 30 248.5t98 235t166.5 198t246 135.5t325.5 51q336 0 532 -162l173 150l92 -90l-174 -154q120 -158 120 -412q0 -90 -15.5 -178t-49 -174.5t-82.5 -162.5t-120 -141t-158 -112t-200.5 -73.5t-242.5 -26.5q-334 0 -530 162 l-174 -154zM328 637q0 -170 65 -287l973 852q-141 125 -391 125q-141 0 -254 -42.5t-185 -111t-120 -160.5t-68 -185t-20 -191zM475 250q139 -123 389 -123q141 0 254 42.5t185 111t120 160.5t68 185t20 191q0 171 -65 285z" />
<glyph unicode="&#xd9;" horiz-adv-x="1689" d="M199 639l145 815h203l-150 -836q-44 -247 67 -366t349 -119q104 0 185 23.5t135 62.5t93 99.5t61 125t36 148.5l156 862h200l-161 -905q-18 -105 -51.5 -191t-90.5 -161.5t-135.5 -127t-190.5 -81t-251 -29.5q-343 0 -501 173t-99 507zM639 1769h215l279 -221h-185z" />
<glyph unicode="&#xda;" horiz-adv-x="1689" d="M199 639l145 815h203l-150 -836q-44 -247 67 -366t349 -119q104 0 185 23.5t135 62.5t93 99.5t61 125t36 148.5l156 862h200l-161 -905q-18 -105 -51.5 -191t-90.5 -161.5t-135.5 -127t-190.5 -81t-251 -29.5q-343 0 -501 173t-99 507zM936 1548l278 221h216l-310 -221 h-184z" />
<glyph unicode="&#xdb;" horiz-adv-x="1689" d="M199 639l145 815h203l-150 -836q-44 -247 67 -366t349 -119q104 0 185 23.5t135 62.5t93 99.5t61 125t36 148.5l156 862h200l-161 -905q-18 -105 -51.5 -191t-90.5 -161.5t-135.5 -127t-190.5 -81t-251 -29.5q-343 0 -501 173t-99 507zM670 1548l286 221h224l209 -221 h-187l-139 148l-191 -148h-202z" />
<glyph unicode="&#xdc;" horiz-adv-x="1689" d="M199 639l145 815h203l-150 -836q-44 -247 67 -366t349 -119q104 0 185 23.5t135 62.5t93 99.5t61 125t36 148.5l156 862h200l-161 -905q-18 -105 -51.5 -191t-90.5 -161.5t-135.5 -127t-190.5 -81t-251 -29.5q-343 0 -501 173t-99 507zM653 1548l37 209h217l-37 -209 h-217zM1188 1548l37 209h217l-37 -209h-217z" />
<glyph unicode="&#xdd;" horiz-adv-x="1421" d="M166 1454h227l318 -653q19 -51 24 -78h4q8 20 52 78l552 653h244l-770 -899l-98 -555h-203l98 555zM801 1548l278 221h215l-309 -221h-184z" />
<glyph unicode="&#xde;" horiz-adv-x="1378" d="M129 0l256 1454h201l-47 -268h354q97 0 179.5 -20t151.5 -62.5t108.5 -118.5t39.5 -180q0 -229 -158.5 -349t-439.5 -120h-385l-59 -336h-201zM418 504h330q216 0 314.5 69t98.5 226q0 113 -79 166t-216 53h-356z" />
<glyph unicode="&#xdf;" horiz-adv-x="1435" d="M106 0l181 1024q42 241 182.5 363t402.5 122q234 0 360 -87t126 -267q0 -139 -104.5 -242t-288.5 -112q171 -18 267.5 -108t96.5 -255q0 -214 -153 -335t-437 -121q-189 0 -286 32l26 148q88 -33 260 -33q398 0 398 309q0 144 -103 214.5t-284 70.5h-177l27 145h168 q393 0 393 287q0 211 -291 211q-183 0 -276 -79.5t-127 -268.5l-180 -1018h-181z" />
<glyph unicode="&#xe0;" d="M66 270q0 138 102 219q123 102 373 113l481 25l4 35q20 126 -54.5 186.5t-240.5 60.5q-318 0 -362 -215h-191q30 176 175 268.5t380 92.5q266 0 386.5 -110t80.5 -345l-45 -248q-37 -207 -31 -352h-188q4 117 16 199q-154 -230 -475 -230q-193 0 -302 77.5t-109 223.5z M260 283q0 -170 252 -170q204 0 328 96t151 240l8 53l-411 -23q-178 -10 -253 -59.5t-75 -136.5zM360 1487h226l303 -299h-178z" />
<glyph unicode="&#xe1;" d="M66 270q0 138 102 219q123 102 373 113l481 25l4 35q20 126 -54.5 186.5t-240.5 60.5q-318 0 -362 -215h-191q30 176 175 268.5t380 92.5q266 0 386.5 -110t80.5 -345l-45 -248q-37 -207 -31 -352h-188q4 117 16 199q-154 -230 -475 -230q-193 0 -302 77.5t-109 223.5z M260 283q0 -170 252 -170q204 0 328 96t151 240l8 53l-411 -23q-178 -10 -253 -59.5t-75 -136.5zM688 1188l303 299h226l-351 -299h-178z" />
<glyph unicode="&#xe2;" d="M66 270q0 138 102 219q123 102 373 113l481 25l4 35q20 126 -54.5 186.5t-240.5 60.5q-318 0 -362 -215h-191q30 176 175 268.5t380 92.5q266 0 386.5 -110t80.5 -345l-45 -248q-37 -207 -31 -352h-188q4 117 16 199q-154 -230 -475 -230q-193 0 -302 77.5t-109 223.5z M260 283q0 -170 252 -170q204 0 328 96t151 240l8 53l-411 -23q-178 -10 -253 -59.5t-75 -136.5zM408 1188l321 299h201l215 -299h-168l-156 213l-231 -213h-182z" />
<glyph unicode="&#xe3;" d="M66 270q0 138 102 219q123 102 373 113l481 25l4 35q20 126 -54.5 186.5t-240.5 60.5q-318 0 -362 -215h-191q30 176 175 268.5t380 92.5q266 0 386.5 -110t80.5 -345l-45 -248q-37 -207 -31 -352h-188q4 117 16 199q-154 -230 -475 -230q-193 0 -302 77.5t-109 223.5z M260 283q0 -170 252 -170q204 0 328 96t151 240l8 53l-411 -23q-178 -10 -253 -59.5t-75 -136.5zM344 1241q36 112 106 174t164 62q53 0 96.5 -14.5t73 -35t57 -41t60 -35t68.5 -14.5q111 0 151 121l121 -22q-36 -111 -106.5 -173.5t-163.5 -62.5q-53 0 -97.5 14.5t-74 35 t-57 40.5t-60 34.5t-68.5 14.5q-110 0 -149 -120z" />
<glyph unicode="&#xe4;" d="M66 270q0 138 102 219q123 102 373 113l481 25l4 35q20 126 -54.5 186.5t-240.5 60.5q-318 0 -362 -215h-191q30 176 175 268.5t380 92.5q266 0 386.5 -110t80.5 -345l-45 -248q-37 -207 -31 -352h-188q4 117 16 199q-154 -230 -475 -230q-193 0 -302 77.5t-109 223.5z M260 283q0 -170 252 -170q204 0 328 96t151 240l8 53l-411 -23q-178 -10 -253 -59.5t-75 -136.5zM416 1221l39 221h217l-39 -221h-217zM932 1221l39 221h217l-39 -221h-217z" />
<glyph unicode="&#xe5;" d="M66 270q0 138 102 219q123 102 373 113l481 25l4 35q20 126 -54.5 186.5t-240.5 60.5q-318 0 -362 -215h-191q30 176 175 268.5t380 92.5q266 0 386.5 -110t80.5 -345l-45 -248q-37 -207 -31 -352h-188q4 117 16 199q-154 -230 -475 -230q-193 0 -302 77.5t-109 223.5z M260 283q0 -170 252 -170q204 0 328 96t151 240l8 53l-411 -23q-178 -10 -253 -59.5t-75 -136.5zM510 1331q0 100 79.5 164t205.5 64q116 0 185 -52t69 -139q0 -101 -79.5 -164t-205.5 -63q-117 0 -185.5 51.5t-68.5 138.5zM631 1331q0 -43 35.5 -69.5t97.5 -26.5 q78 0 121 36.5t43 96.5q0 43 -35.5 68.5t-97.5 25.5q-78 0 -121 -35.5t-43 -95.5z" />
<glyph unicode="&#xe6;" horiz-adv-x="2148" d="M59 244q0 148 111 233q116 88 385 103l438 18l6 57q20 130 -47.5 191t-236.5 61q-322 0 -357 -221h-188q32 178 176.5 273.5t378.5 95.5q335 0 416 -187q172 187 446 187q218 0 346.5 -106t128.5 -306q0 -76 -28 -182h-881q-12 -169 75 -252.5t255 -83.5q125 0 212.5 50 t147.5 155l146 -74q-158 -287 -521 -287q-104 0 -192.5 26t-160.5 85.5t-109 148.5q-81 -128 -223.5 -194t-327.5 -66q-183 0 -289.5 74.5t-106.5 200.5zM256 258q0 -71 64 -107t180 -36q182 0 311 84t152 225l8 51l-406 -18q-163 -9 -236 -57t-73 -142zM1176 602h698 q8 24 8 66q0 123 -86 186.5t-219 63.5q-152 0 -257.5 -86.5t-143.5 -229.5z" />
<glyph unicode="&#xe7;" horiz-adv-x="1300" d="M86 446q0 85 19 167t66 163.5t117.5 142t181.5 98.5t249 38q76 0 144.5 -11.5t134 -39.5t114.5 -70.5t83 -108.5t44 -149l-186 -23q-8 59 -33 103.5t-58 71t-76 43t-83 22.5t-84 6q-103 0 -182.5 -29.5t-126.5 -75t-77.5 -107.5t-41 -119t-10.5 -117q0 -90 29 -155.5 t80.5 -101.5t112 -52.5t132.5 -16.5q81 0 143.5 19t105.5 54.5t70.5 76t49.5 94.5l178 -29q-122 -363 -535 -371l-59 -69q30 24 100 24q74 0 118 -37.5t44 -101.5q0 -87 -73 -141t-179 -54q-97 0 -157.5 34t-75.5 93l127 25q18 -57 104 -57q50 0 82.5 23.5t32.5 70.5 q0 71 -97 71q-50 0 -88 -32l-82 24l99 131q-92 9 -169.5 38t-144.5 82.5t-105 143.5t-38 209z" />
<glyph unicode="&#xe8;" horiz-adv-x="1333" d="M86 446q0 90 22 174.5t71 164.5t121 139t180 95t239 36q109 0 202 -24.5t166.5 -74t115.5 -133t42 -192.5q0 -93 -26 -172h-951q1 -77 23 -136t57.5 -96t85.5 -60.5t102.5 -32.5t112.5 -9q145 0 233 48.5t146 154.5l146 -72q-148 -287 -525 -287q-76 0 -148.5 12 t-150 45.5t-134 85t-93.5 137.5t-37 197zM283 600h778q6 27 6 62q0 71 -31.5 123.5t-84.5 80t-111 40t-123 12.5q-183 0 -292 -86.5t-142 -231.5zM373 1487h225l303 -299h-178z" />
<glyph unicode="&#xe9;" horiz-adv-x="1333" d="M86 446q0 90 22 174.5t71 164.5t121 139t180 95t239 36q109 0 202 -24.5t166.5 -74t115.5 -133t42 -192.5q0 -93 -26 -172h-951q1 -77 23 -136t57.5 -96t85.5 -60.5t102.5 -32.5t112.5 -9q145 0 233 48.5t146 154.5l146 -72q-148 -287 -525 -287q-76 0 -148.5 12 t-150 45.5t-134 85t-93.5 137.5t-37 197zM283 600h778q6 27 6 62q0 71 -31.5 123.5t-84.5 80t-111 40t-123 12.5q-183 0 -292 -86.5t-142 -231.5zM700 1188l304 299h225l-350 -299h-179z" />
<glyph unicode="&#xea;" horiz-adv-x="1333" d="M86 446q0 90 22 174.5t71 164.5t121 139t180 95t239 36q109 0 202 -24.5t166.5 -74t115.5 -133t42 -192.5q0 -93 -26 -172h-951q1 -77 23 -136t57.5 -96t85.5 -60.5t102.5 -32.5t112.5 -9q145 0 233 48.5t146 154.5l146 -72q-148 -287 -525 -287q-76 0 -148.5 12 t-150 45.5t-134 85t-93.5 137.5t-37 197zM283 600h778q6 27 6 62q0 71 -31.5 123.5t-84.5 80t-111 40t-123 12.5q-183 0 -292 -86.5t-142 -231.5zM420 1188l321 299h201l215 -299h-168l-155 213l-232 -213h-182z" />
<glyph unicode="&#xeb;" horiz-adv-x="1333" d="M86 446q0 90 22 174.5t71 164.5t121 139t180 95t239 36q109 0 202 -24.5t166.5 -74t115.5 -133t42 -192.5q0 -93 -26 -172h-951q1 -77 23 -136t57.5 -96t85.5 -60.5t102.5 -32.5t112.5 -9q145 0 233 48.5t146 154.5l146 -72q-148 -287 -525 -287q-76 0 -148.5 12 t-150 45.5t-134 85t-93.5 137.5t-37 197zM283 600h778q6 27 6 62q0 71 -31.5 123.5t-84.5 80t-111 40t-123 12.5q-183 0 -292 -86.5t-142 -231.5zM428 1221l39 221h217l-39 -221h-217zM944 1221l39 221h217l-39 -221h-217z" />
<glyph unicode="&#xec;" horiz-adv-x="577" d="M86 1487h197l204 -299h-168zM109 0l180 1024h180l-180 -1024h-180z" />
<glyph unicode="&#xed;" horiz-adv-x="577" d="M109 0l180 1024h180l-180 -1024h-180zM328 1188l204 299h197l-233 -299h-168z" />
<glyph unicode="&#xee;" horiz-adv-x="577" d="M109 0l180 1024h180l-180 -1024h-180zM158 1188l211 301h186l107 -301h-148l-61 213l-136 -213h-159z" />
<glyph unicode="&#xef;" horiz-adv-x="577" d="M109 0l180 1024h180l-180 -1024h-180zM150 1221l38 221h218l-39 -221h-217zM467 1221l39 221h215l-39 -221h-215z" />
<glyph unicode="&#xf0;" horiz-adv-x="1372" d="M88 444q0 87 19.5 168.5t65.5 160.5t114 138t173.5 95t235.5 36q298 0 400 -190h4q-9 196 -162 352l-367 -96l-20 94l299 80q-106 76 -217 115l133 114q160 -68 272 -180l232 62l20 -97l-178 -47q174 -222 174 -542q0 -111 -22 -214.5t-73 -199.5t-126 -167.5 t-188.5 -114t-253.5 -42.5q-84 0 -158 14t-144.5 48.5t-121 87.5t-81 136t-30.5 189zM281 461q0 -94 30 -162t83 -104t114 -52t135 -16q97 0 175 29t127.5 75.5t83 106.5t47.5 119.5t14 117.5q0 156 -98 238t-275 82q-101 0 -179.5 -28t-125.5 -71.5t-77.5 -102.5 t-42 -115.5t-11.5 -116.5z" />
<glyph unicode="&#xf1;" horiz-adv-x="1429" d="M109 0l180 1024h174l-39 -223q55 112 165.5 183t276.5 71q58 0 110.5 -9.5t110 -36.5t98.5 -70t68 -116.5t27 -169.5q0 -70 -16 -164l-86 -489h-181l88 496q13 76 13 125q0 79 -24.5 135t-68.5 85.5t-93.5 42.5t-110.5 13q-83 0 -151 -25t-113.5 -64.5t-79.5 -96.5 t-53 -113.5t-31 -122.5l-84 -475h-180zM467 1241q36 112 106 174t164 62q53 0 96.5 -14.5t73 -35t57 -41t60 -35t68.5 -14.5q111 0 151 121l121 -22q-36 -111 -106.5 -173.5t-163.5 -62.5q-53 0 -97.5 14.5t-74 35t-57 40.5t-60 34.5t-68.5 14.5q-110 0 -149 -120z" />
<glyph unicode="&#xf2;" horiz-adv-x="1363" d="M86 442q0 90 21.5 175t70.5 165.5t120.5 140.5t180 96t240.5 36q86 0 163.5 -14t151 -49t127 -87.5t85.5 -135.5t32 -187q0 -90 -21.5 -175t-70.5 -165.5t-120.5 -140.5t-180 -96t-240.5 -36q-86 0 -163.5 14t-151 49t-127 87.5t-85.5 135.5t-32 187zM281 453 q0 -91 31.5 -157t86.5 -102t117.5 -52.5t136.5 -16.5q96 0 172 28.5t123 74t78.5 105.5t44 119t12.5 119q0 91 -31.5 157t-86.5 102t-117.5 52.5t-136.5 16.5q-96 0 -172 -28.5t-123 -74t-78.5 -105.5t-44 -119t-12.5 -119zM362 1487h226l303 -299h-178z" />
<glyph unicode="&#xf3;" horiz-adv-x="1363" d="M86 442q0 90 21.5 175t70.5 165.5t120.5 140.5t180 96t240.5 36q86 0 163.5 -14t151 -49t127 -87.5t85.5 -135.5t32 -187q0 -90 -21.5 -175t-70.5 -165.5t-120.5 -140.5t-180 -96t-240.5 -36q-86 0 -163.5 14t-151 49t-127 87.5t-85.5 135.5t-32 187zM281 453 q0 -91 31.5 -157t86.5 -102t117.5 -52.5t136.5 -16.5q96 0 172 28.5t123 74t78.5 105.5t44 119t12.5 119q0 91 -31.5 157t-86.5 102t-117.5 52.5t-136.5 16.5q-96 0 -172 -28.5t-123 -74t-78.5 -105.5t-44 -119t-12.5 -119zM690 1188l303 299h226l-351 -299h-178z" />
<glyph unicode="&#xf4;" horiz-adv-x="1363" d="M86 442q0 90 21.5 175t70.5 165.5t120.5 140.5t180 96t240.5 36q86 0 163.5 -14t151 -49t127 -87.5t85.5 -135.5t32 -187q0 -90 -21.5 -175t-70.5 -165.5t-120.5 -140.5t-180 -96t-240.5 -36q-86 0 -163.5 14t-151 49t-127 87.5t-85.5 135.5t-32 187zM281 453 q0 -91 31.5 -157t86.5 -102t117.5 -52.5t136.5 -16.5q96 0 172 28.5t123 74t78.5 105.5t44 119t12.5 119q0 91 -31.5 157t-86.5 102t-117.5 52.5t-136.5 16.5q-96 0 -172 -28.5t-123 -74t-78.5 -105.5t-44 -119t-12.5 -119zM410 1188l321 299h201l215 -299h-168l-156 213 l-231 -213h-182z" />
<glyph unicode="&#xf5;" horiz-adv-x="1363" d="M86 442q0 90 21.5 175t70.5 165.5t120.5 140.5t180 96t240.5 36q86 0 163.5 -14t151 -49t127 -87.5t85.5 -135.5t32 -187q0 -90 -21.5 -175t-70.5 -165.5t-120.5 -140.5t-180 -96t-240.5 -36q-86 0 -163.5 14t-151 49t-127 87.5t-85.5 135.5t-32 187zM281 453 q0 -91 31.5 -157t86.5 -102t117.5 -52.5t136.5 -16.5q96 0 172 28.5t123 74t78.5 105.5t44 119t12.5 119q0 91 -31.5 157t-86.5 102t-117.5 52.5t-136.5 16.5q-96 0 -172 -28.5t-123 -74t-78.5 -105.5t-44 -119t-12.5 -119zM346 1241q36 112 106 174t164 62q53 0 96.5 -14.5 t73 -35t57 -41t60 -35t68.5 -14.5q111 0 151 121l121 -22q-36 -111 -106.5 -173.5t-163.5 -62.5q-53 0 -97.5 14.5t-74 35t-57 40.5t-60 34.5t-68.5 14.5q-110 0 -149 -120z" />
<glyph unicode="&#xf6;" horiz-adv-x="1363" d="M86 442q0 90 21.5 175t70.5 165.5t120.5 140.5t180 96t240.5 36q86 0 163.5 -14t151 -49t127 -87.5t85.5 -135.5t32 -187q0 -90 -21.5 -175t-70.5 -165.5t-120.5 -140.5t-180 -96t-240.5 -36q-86 0 -163.5 14t-151 49t-127 87.5t-85.5 135.5t-32 187zM281 453 q0 -91 31.5 -157t86.5 -102t117.5 -52.5t136.5 -16.5q96 0 172 28.5t123 74t78.5 105.5t44 119t12.5 119q0 91 -31.5 157t-86.5 102t-117.5 52.5t-136.5 16.5q-96 0 -172 -28.5t-123 -74t-78.5 -105.5t-44 -119t-12.5 -119zM418 1221l39 221h217l-39 -221h-217zM934 1221 l39 221h217l-39 -221h-217z" />
<glyph unicode="&#xf7;" horiz-adv-x="1261" d="M123 588l29 160h1042l-27 -160h-1044zM483 291q0 47 30.5 76.5t78.5 29.5q46 0 77 -29.5t31 -76.5t-31 -78t-77 -31q-47 0 -78 31t-31 78zM604 1047q0 47 30.5 76.5t78.5 29.5q46 0 76 -29.5t30 -76.5t-30 -78t-76 -31q-47 0 -78 31t-31 78z" />
<glyph unicode="&#xf8;" horiz-adv-x="1363" d="M33 35l141 119q-88 115 -88 288q0 90 21.5 175t70.5 165.5t120.5 140.5t180 96t240.5 36q251 0 397 -113l141 119l74 -74l-141 -119q88 -112 88 -286q0 -90 -21.5 -175t-70.5 -165.5t-120.5 -140.5t-180 -96t-240.5 -36q-251 0 -397 113l-144 -121zM281 453 q0 -100 41 -177l653 547q-99 76 -264 76q-96 0 -172 -28.5t-123 -74t-78.5 -105.5t-44 -119t-12.5 -119zM389 201q99 -76 264 -76q96 0 172 28.5t123 74t78.5 105.5t44 119t12.5 119q0 106 -41 174z" />
<glyph unicode="&#xf9;" horiz-adv-x="1409" d="M139 311q0 66 27 224l84 489h182l-88 -496q-20 -137 -20 -176q0 -119 75.5 -173t194.5 -54q366 0 440 424l84 475h182l-180 -1024h-174l39 223q-52 -112 -164.5 -183t-283.5 -71q-56 0 -107.5 8.5t-106 32t-94 60.5t-65 99t-25.5 142zM387 1487h225l303 -299h-178z" />
<glyph unicode="&#xfa;" horiz-adv-x="1409" d="M139 311q0 66 27 224l84 489h182l-88 -496q-20 -137 -20 -176q0 -119 75.5 -173t194.5 -54q366 0 440 424l84 475h182l-180 -1024h-174l39 223q-52 -112 -164.5 -183t-283.5 -71q-56 0 -107.5 8.5t-106 32t-94 60.5t-65 99t-25.5 142zM715 1188l303 299h225l-350 -299 h-178z" />
<glyph unicode="&#xfb;" horiz-adv-x="1409" d="M139 311q0 66 27 224l84 489h182l-88 -496q-20 -137 -20 -176q0 -119 75.5 -173t194.5 -54q366 0 440 424l84 475h182l-180 -1024h-174l39 223q-52 -112 -164.5 -183t-283.5 -71q-56 0 -107.5 8.5t-106 32t-94 60.5t-65 99t-25.5 142zM434 1188l322 299h200l215 -299 h-167l-156 213l-232 -213h-182z" />
<glyph unicode="&#xfc;" horiz-adv-x="1409" d="M139 311q0 66 27 224l84 489h182l-88 -496q-20 -137 -20 -176q0 -119 75.5 -173t194.5 -54q366 0 440 424l84 475h182l-180 -1024h-174l39 223q-52 -112 -164.5 -183t-283.5 -71q-56 0 -107.5 8.5t-106 32t-94 60.5t-65 99t-25.5 142zM442 1221l39 221h217l-39 -221h-217 zM958 1221l39 221h217l-38 -221h-218z" />
<glyph unicode="&#xfd;" horiz-adv-x="1185" d="M-70 -393l29 160q55 -21 137 -21q180 0 287 188l39 74l-320 1016h201l221 -752q12 -58 15 -96h4q21 52 49 96l463 752h209l-721 -1145q-60 -96 -116 -156.5t-113 -90t-107 -39t-119 -9.5q-79 0 -158 23zM627 1188l303 299h225l-350 -299h-178z" />
<glyph unicode="&#xfe;" horiz-adv-x="1449" d="M49 -399l70 399l262 1485h180l-110 -637q69 90 176 148.5t250 58.5q70 0 136 -14.5t131 -49t113.5 -85.5t78.5 -131.5t30 -180.5q0 -87 -20.5 -173t-67.5 -168.5t-114.5 -145t-169 -100.5t-224.5 -38q-143 0 -259.5 49.5t-178.5 159.5l-103 -577h-180zM385 518 q-37 -175 55.5 -283t288.5 -108q101 0 181 31.5t128 80t79 113t42.5 122.5t11.5 116q0 74 -22 130.5t-55.5 89t-80 53t-89 27.5t-88.5 7q-170 0 -289.5 -86t-147.5 -221z" />
<glyph unicode="&#xff;" horiz-adv-x="1185" d="M-70 -393l29 160q55 -21 137 -21q180 0 287 188l39 74l-320 1016h201l221 -752q12 -58 15 -96h4q21 52 49 96l463 752h209l-721 -1145q-60 -96 -116 -156.5t-113 -90t-107 -39t-119 -9.5q-79 0 -158 23zM354 1221l39 221h217l-39 -221h-217zM870 1221l39 221h217 l-39 -221h-217z" />
<glyph unicode="&#x152;" horiz-adv-x="2390" d="M115 629q0 101 22 197t66.5 190t120.5 172.5t177 138.5t242.5 93.5t309.5 33.5h1341l-29 -168h-899l-80 -457h863l-29 -167h-864l-86 -494h911l-29 -168h-1271q-124 0 -231 18t-207.5 63t-171.5 115t-113.5 180.5t-42.5 252.5zM328 635q0 -467 557 -467h182l199 1118 h-215q-165 0 -295 -42t-208.5 -107.5t-130 -154t-70.5 -173.5t-19 -174z" />
<glyph unicode="&#x153;" horiz-adv-x="2324" d="M86 442q0 90 21.5 175t70 165.5t120 140.5t179.5 96t240 36q161 0 290 -59t191 -187q161 246 512 246q109 0 201 -24.5t165.5 -74t115.5 -133t42 -192.5q0 -93 -26 -172h-951q1 -95 33.5 -163t88.5 -104t119.5 -51.5t141.5 -15.5q144 0 232.5 48.5t144.5 154.5l146 -72 q-148 -287 -523 -287q-56 0 -109.5 6.5t-113 23.5t-108.5 44t-93.5 72t-72.5 104q-159 -250 -500 -250q-85 0 -162 14t-150.5 49t-126.5 87.5t-85.5 135.5t-32.5 187zM281 453q0 -91 31.5 -157t86.5 -102t117.5 -52.5t136.5 -16.5q96 0 172 28.5t123 74t78.5 105.5t44 119 t12.5 119q0 91 -31.5 157t-86.5 102t-117.5 52.5t-136.5 16.5q-96 0 -172 -28.5t-123 -74t-78.5 -105.5t-44 -119t-12.5 -119zM1272 600h778q6 27 6 62q0 71 -31.5 123.5t-84.5 80t-111 40t-123 12.5q-183 0 -292 -86.5t-142 -231.5z" />
<glyph unicode="&#x178;" horiz-adv-x="1421" d="M166 1454h227l318 -653q19 -51 24 -78h4q8 20 52 78l552 653h244l-770 -899l-98 -555h-203l98 555zM518 1548l37 209h217l-37 -209h-217zM1053 1548l37 209h217l-37 -209h-217z" />
<glyph unicode="&#x2c6;" horiz-adv-x="1228" d="M76 1188l321 299h201l215 -299h-168l-156 213l-231 -213h-182z" />
<glyph unicode="&#x2dc;" horiz-adv-x="1228" d="M106 1241q36 111 106.5 173.5t164.5 62.5q64 0 116.5 -22t82 -48t70.5 -48t85 -22q112 0 152 121l121 -22q-35 -111 -106.5 -173.5t-164.5 -62.5q-53 0 -97.5 14.5t-74 35t-56.5 40.5t-59.5 34.5t-68.5 14.5q-111 0 -150 -120z" />
<glyph unicode="&#x2000;" horiz-adv-x="965" />
<glyph unicode="&#x2001;" horiz-adv-x="1931" />
<glyph unicode="&#x2002;" horiz-adv-x="965" />
<glyph unicode="&#x2003;" horiz-adv-x="1931" />
<glyph unicode="&#x2004;" horiz-adv-x="643" />
<glyph unicode="&#x2005;" horiz-adv-x="482" />
<glyph unicode="&#x2006;" horiz-adv-x="321" />
<glyph unicode="&#x2007;" horiz-adv-x="321" />
<glyph unicode="&#x2008;" horiz-adv-x="241" />
<glyph unicode="&#x2009;" horiz-adv-x="386" />
<glyph unicode="&#x200a;" horiz-adv-x="107" />
<glyph unicode="&#x2010;" horiz-adv-x="1009" d="M106 487l29 166h789l-29 -166h-789z" />
<glyph unicode="&#x2011;" horiz-adv-x="1009" d="M106 487l29 166h789l-29 -166h-789z" />
<glyph unicode="&#x2012;" horiz-adv-x="1009" d="M106 487l29 166h789l-29 -166h-789z" />
<glyph unicode="&#x2013;" horiz-adv-x="1304" d="M109 498l24 143h1084l-25 -143h-1083z" />
<glyph unicode="&#x2014;" horiz-adv-x="1882" d="M109 498l24 143h1661l-25 -143h-1660z" />
<glyph unicode="&#x2018;" horiz-adv-x="591" d="M242 944l45 244q11 62 31.5 111t44.5 79.5t56.5 53t60.5 34t63 19.5l30 -96q-134 -28 -163 -177l-2 -16h139l-43 -252h-262z" />
<glyph unicode="&#x2019;" horiz-adv-x="591" d="M260 1010q135 28 164 176l2 16h-139l43 252h262l-45 -244q-11 -62 -31.5 -111t-44.5 -79.5t-56.5 -53t-60.5 -34t-63 -19.5z" />
<glyph unicode="&#x201a;" horiz-adv-x="591" d="M49 -193q135 28 164 177l2 16h-139l43 252h262l-45 -244q-11 -62 -31.5 -111t-44.5 -79.5t-56.5 -53t-60.5 -34t-63 -19.5z" />
<glyph unicode="&#x201c;" horiz-adv-x="958" d="M242 946l45 244q11 62 31.5 111t44.5 79.5t56.5 53t60.5 34t63 19.5l30 -96q-134 -28 -163 -177l-2 -16h139l-43 -252h-262zM608 946l45 244q11 62 31.5 111t44.5 79.5t56.5 53t60.5 34t63 19.5l31 -96q-135 -28 -164 -177l-2 -16h139l-43 -252h-262z" />
<glyph unicode="&#x201d;" horiz-adv-x="958" d="M260 1010q135 28 164 176l2 16h-139l43 252h262l-45 -244q-11 -62 -31.5 -111t-44.5 -79.5t-56.5 -53t-60.5 -34t-63 -19.5zM627 1010q135 28 164 176l2 16h-140l43 252h262l-45 -244q-11 -62 -31.5 -111t-44.5 -79.5t-56.5 -53t-60.5 -34t-63 -19.5z" />
<glyph unicode="&#x201e;" horiz-adv-x="958" d="M49 -193q135 28 164 177l2 16h-139l43 252h262l-45 -244q-11 -62 -31.5 -111t-44.5 -79.5t-56.5 -53t-60.5 -34t-63 -19.5zM416 -193q135 28 164 177l2 16h-140l43 252h263l-46 -244q-11 -62 -31.5 -111t-44.5 -79.5t-56.5 -53t-60.5 -34t-63 -19.5z" />
<glyph unicode="&#x2022;" horiz-adv-x="731" d="M205 707q0 88 54 142t140 54q87 0 142 -53t55 -143q0 -86 -55 -139.5t-142 -53.5q-85 0 -139.5 53.5t-54.5 139.5z" />
<glyph unicode="&#x2026;" horiz-adv-x="1845" d="M76 0l43 236h260l-43 -236h-260zM702 0l43 236h261l-43 -236h-261zM1329 0l43 236h260l-43 -236h-260z" />
<glyph unicode="&#x202f;" horiz-adv-x="386" />
<glyph unicode="&#x2039;" horiz-adv-x="733" d="M74 563l487 426h215l-493 -436l321 -416h-196z" />
<glyph unicode="&#x203a;" horiz-adv-x="735" d="M-25 137l494 436l-322 416h197l334 -426l-488 -426h-215z" />
<glyph unicode="&#x205f;" horiz-adv-x="482" />
<glyph unicode="&#x20ac;" horiz-adv-x="1603" d="M45 637l10 59l23 123h123q19 104 60.5 196t111 174.5t161.5 142t219 94t277 34.5q456 0 615 -293v-4l-181 -92q-119 223 -442 223q-141 0 -252.5 -40t-183.5 -109.5t-115.5 -150t-64.5 -175.5h831l-10 -59h2l-23 -123h-821q1 -121 31.5 -213.5t78 -147t114.5 -89 t131.5 -46.5t138.5 -12q180 0 292 63.5t191 176.5l143 -95q-38 -52 -74 -92t-92 -83t-118.5 -71.5t-150 -46.5t-189.5 -18q-112 0 -210 20t-189.5 69.5t-156.5 124.5t-104 192t-39 266v2h-137z" />
<glyph unicode="&#x2122;" horiz-adv-x="1986" d="M158 1346l20 116h783l-21 -116h-332l-125 -715h-139l125 715h-311zM901 631l148 831h198l133 -583q22 -88 25 -138h4q26 64 72 138l338 583h204l-147 -831h-129l102 579q15 90 31 144h-4q-27 -54 -72 -133l-346 -590h-135l-135 590q-23 90 -29 133h-2q-8 -77 -22 -144 l-101 -579h-133z" />
<glyph unicode="&#x25fc;" horiz-adv-x="1024" d="M0 0v1024h1024v-1024h-1024z" />
</font>
</defs>
</svg>
