<?xml version="1.0" standalone="no"?>
<!DOCTYPE svg PUBLIC "-//W3C//DTD SVG 1.1//EN" "http://www.w3.org/Graphics/SVG/1.1/DTD/svg11.dtd" >
<svg xmlns="http://www.w3.org/2000/svg" xmlns:xlink="http://www.w3.org/1999/xlink" version="1.1">
<metadata></metadata>
<defs>
<font id="gt_americaextended_regular" horiz-adv-x="589" >
<font-face units-per-em="2048" ascent="1638" descent="-410" />
<missing-glyph horiz-adv-x="671" />
<glyph unicode="&#xfb01;" horiz-adv-x="1441" d="M45 877v147h244v123q0 170 93 262t269 92q85 0 170 -18v-156q-69 14 -155 14q-104 0 -150.5 -48.5t-46.5 -155.5v-113h352v-147h-352v-877h-180v877h-244zM1047 1212v228h210v-228h-210zM1063 0v1024h180v-1024h-180z" />
<glyph unicode="&#xfb02;" horiz-adv-x="1462" d="M45 877v147h244v123q0 170 93 262t269 92q85 0 170 -18v-156q-69 14 -155 14q-104 0 -150.5 -48.5t-46.5 -155.5v-113h352v-147h-352v-877h-180v877h-244zM1073 0v1485h180v-1485h-180z" />
<glyph horiz-adv-x="0" />
<glyph horiz-adv-x="0" />
<glyph horiz-adv-x="682" />
<glyph unicode="&#xd;" horiz-adv-x="0" />
<glyph unicode=" "  horiz-adv-x="671" />
<glyph unicode="&#x09;" horiz-adv-x="671" />
<glyph unicode="&#xa0;" horiz-adv-x="671" />
<glyph unicode="!" horiz-adv-x="690" d="M221 0v225h248v-225h-248zM227 1485h236l-51 -1090h-136z" />
<glyph unicode="&#x22;" horiz-adv-x="880" d="M166 1454h201l-39 -532h-125zM516 1454h201l-39 -532h-125z" />
<glyph unicode="#" horiz-adv-x="1386" d="M29 416v139h284l62 313h-264v140h290l80 415h164l-80 -415h363l80 415h166l-80 -415h264v-140h-291l-61 -313h282v-139h-309l-80 -416h-164l80 416h-362l-80 -416h-166l80 416h-258zM479 555h363l59 313h-362z" />
<glyph unicode="$" horiz-adv-x="1478" d="M66 395l198 39q86 -274 412 -309v532l-94 11q-230 37 -339.5 135.5t-109.5 271.5q0 167 145.5 271t397.5 114v174h123v-176q460 -24 557 -381l-195 -55q-39 129 -125 197t-237 81v-481l100 -12q251 -40 367 -142t116 -290t-153.5 -299t-429.5 -117v-172h-123v174 q-251 17 -406 126t-204 308zM336 1079q0 -101 77 -157.5t257 -85.5h6v469q-340 -12 -340 -226zM799 121q383 6 383 254q0 114 -81 173.5t-274 90.5l-28 4v-522z" />
<glyph unicode="%" horiz-adv-x="1820" d="M49 1104q-1 164 106.5 265t282.5 101q173 0 282 -103t109 -269t-108.5 -267.5t-280.5 -101.5q-178 0 -285 102t-106 273zM201 1104q0 -113 64.5 -176.5t174.5 -63.5q105 0 168.5 63t63.5 171q0 110 -64 174.5t-170 64.5q-108 0 -172.5 -63t-64.5 -170zM295 -37l1042 1497 h181l-1043 -1497h-180zM993 340q-1 164 106.5 265.5t282.5 101.5q173 0 282.5 -103.5t109.5 -269.5t-109 -267.5t-281 -101.5q-178 0 -285 102t-106 273zM1145 340q0 -113 64.5 -176.5t174.5 -63.5q105 0 168.5 63t63.5 171q0 110 -64 174.5t-170 64.5q-108 0 -172.5 -63 t-64.5 -170z" />
<glyph unicode="&#x26;" horiz-adv-x="1519" d="M47 362q0 132 75.5 225.5t235.5 178.5l27 14q-106 111 -154.5 198.5t-48.5 178.5q0 158 109.5 255t286.5 97q182 0 288.5 -90t106.5 -243q0 -114 -67.5 -211.5t-176.5 -157.5l-86 -49l412 -410q135 180 159 463l168 -25q-18 -322 -208 -550q109 -89 221 -89q57 0 94 11 v-162q-52 -14 -117 -14q-173 0 -325 131q-207 -154 -465 -154q-248 0 -391.5 113.5t-143.5 289.5zM238 377q0 -115 102.5 -186.5t253.5 -71.5q196 0 338 106l-440 447l-27 -15q-127 -71 -177 -130.5t-50 -149.5zM371 1165q0 -73 34.5 -137.5t133.5 -165.5l73 39 q84 43 131.5 111.5t47.5 158.5q0 93 -55 144t-161 51q-98 0 -150 -51.5t-54 -149.5z" />
<glyph unicode="'" horiz-adv-x="530" d="M166 1454h201l-39 -532h-125z" />
<glyph unicode="(" horiz-adv-x="688" d="M123 668q0 260 108 505.5t306 423.5l131 -79q-187 -199 -273 -406t-86 -448t86.5 -452.5t272.5 -412.5l-133 -82q-197 188 -304.5 439t-107.5 512z" />
<glyph unicode=")" horiz-adv-x="688" d="M20 -201q186 201 272.5 412.5t86.5 452.5t-86 448t-273 406l132 79q198 -178 305.5 -423t107.5 -506t-107 -512t-304 -439z" />
<glyph unicode="*" horiz-adv-x="720" d="M47 1202l51 150l215 -105l-32 238h159l-32 -240l215 107l51 -150l-234 -47l166 -174l-127 -94l-119 217l-118 -217l-127 94l168 176z" />
<glyph unicode="+" horiz-adv-x="1261" d="M109 598v154h434v387h176v-387h434v-154h-434v-412h-176v412h-434z" />
<glyph unicode="," d="M166 0v252h258v-227q0 -131 -45 -202t-158 -112l-47 96q76 28 103.5 71t27.5 116v6h-139z" />
<glyph unicode="-" horiz-adv-x="1009" d="M109 487v166h790v-166h-790z" />
<glyph unicode="." d="M166 0v242h260v-242h-260z" />
<glyph unicode="/" horiz-adv-x="1097" d="M92 -240l735 1796h179l-734 -1796h-180z" />
<glyph unicode="0" horiz-adv-x="1509" d="M109 711q0 344 170.5 547.5t474.5 203.5t474.5 -203.5t170.5 -547.5q0 -342 -171 -546t-474 -204t-474 204t-171 546zM301 711q0 -273 118.5 -432.5t334.5 -159.5q218 0 336 159.5t118 432.5q0 276 -118 435t-336 159q-217 0 -335 -159t-118 -435z" />
<glyph unicode="1" horiz-adv-x="882" d="M63 1001v170h43q133 0 227.5 67t129.5 185h162v-1423h-189v1114q-37 -50 -120 -81.5t-181 -31.5h-72z" />
<glyph unicode="2" horiz-adv-x="1339" d="M76 0v162q409 183 682 409q137 114 191.5 210.5t54.5 217.5q0 136 -89.5 218.5t-263.5 82.5q-166 0 -262 -82.5t-96 -222.5q0 -42 14 -114l-194 20q-13 57 -13 109q0 200 151 326t406 126q267 0 407 -126.5t140 -334.5q0 -153 -86 -284t-250 -260q-232 -174 -501 -285 h866v-172h-1157z" />
<glyph unicode="3" horiz-adv-x="1388" d="M86 412l188 22q19 -150 125.5 -232.5t296.5 -82.5t288.5 72t98.5 204q0 262 -387 262h-123v156h117q165 0 253.5 62.5t88.5 183.5q0 118 -89.5 182t-266.5 64q-183 0 -280 -89.5t-105 -246.5l-180 37q9 207 157.5 331.5t415.5 124.5q264 0 402.5 -105t138.5 -284 q0 -131 -83.5 -216t-219.5 -109q167 -23 260.5 -109t93.5 -242q0 -196 -150 -316t-434 -120q-268 0 -427.5 122t-178.5 329z" />
<glyph unicode="4" horiz-adv-x="1331" d="M25 362v130l788 931h223v-913h269v-148h-269v-362h-182v362h-829zM238 510h618v532q0 154 4 215h-4q-36 -77 -117 -172l-354 -409q-90 -111 -147 -166z" />
<glyph unicode="5" horiz-adv-x="1359" d="M104 360l197 29q30 -124 130 -196t257 -72q182 0 283.5 92t101.5 258q0 167 -96 259.5t-272 92.5q-146 0 -238 -62t-143 -186l-185 17l92 831h959v-163h-813l-60 -488q59 100 173 154.5t268 54.5q239 0 373.5 -133t134.5 -371q0 -234 -159 -375t-425 -141 q-231 0 -384.5 106.5t-193.5 292.5z" />
<glyph unicode="6" horiz-adv-x="1388" d="M102 694q0 366 164.5 567t464.5 201q222 0 365.5 -100.5t177.5 -280.5l-191 -43q-67 267 -354 267q-215 0 -327.5 -150.5t-112.5 -439.5q59 115 182.5 179t288.5 64q249 0 390.5 -131t141.5 -360q0 -224 -156 -365t-405 -141q-303 0 -466 189.5t-163 543.5zM305 473 q36 -169 146 -261.5t280 -92.5q167 0 268 95t101 253q0 159 -96.5 245.5t-274.5 86.5q-166 0 -277.5 -85.5t-146.5 -240.5z" />
<glyph unicode="7" horiz-adv-x="1193" d="M47 1253v170h1116v-147q-292 -262 -451 -577t-159 -658v-41h-217v25q0 324 155.5 634.5t442.5 593.5h-887z" />
<glyph unicode="8" horiz-adv-x="1404" d="M92 369q0 144 86.5 238t253.5 134q-150 52 -219.5 135t-69.5 209q0 170 153.5 273.5t408.5 103.5q254 0 404.5 -101.5t150.5 -273.5q0 -122 -76 -205.5t-217 -119.5q181 -55 263.5 -146t82.5 -233q0 -194 -162 -308t-440 -114q-288 0 -453.5 109.5t-165.5 298.5zM287 389 q0 -128 113 -201t311 -73q193 0 301 71t108 197q0 104 -78.5 167t-255.5 103l-165 39q-178 -46 -256 -117t-78 -186zM336 1087q0 -95 70.5 -153.5t226.5 -93.5l145 -31q159 51 224 112t65 160q0 114 -96 177t-269 63q-172 0 -269 -62.5t-97 -171.5z" />
<glyph unicode="9" horiz-adv-x="1390" d="M96 983q0 212 157 345.5t415 133.5q303 0 461.5 -187t158.5 -540q0 -173 -37.5 -313.5t-112 -244t-192.5 -160t-272 -56.5q-229 0 -376.5 104t-184.5 291l192 43q32 -142 123 -211t248 -69q213 0 318.5 160t105.5 450v16q-60 -105 -179.5 -165t-283.5 -60 q-248 0 -394.5 119.5t-146.5 343.5zM287 985q0 -148 99.5 -227.5t272.5 -79.5q165 0 280.5 83.5t143.5 215.5q-35 150 -136.5 239t-278.5 89q-175 0 -278 -86t-103 -234z" />
<glyph unicode=":" d="M166 0v242h260v-242h-260zM166 782v242h260v-242h-260z" />
<glyph unicode=";" d="M166 0v252h258v-227q0 -131 -45 -202t-158 -112l-47 96q76 28 103.5 71t27.5 116v6h-139zM166 782v242h260v-242h-260z" />
<glyph unicode="&#x3c;" horiz-adv-x="1427" d="M158 592v151l1032 420v-168l-834 -325l834 -326v-172z" />
<glyph unicode="=" horiz-adv-x="1261" d="M109 395v166h1044v-166h-1044zM109 786v166h1044v-166h-1044z" />
<glyph unicode="&#x3e;" horiz-adv-x="1427" d="M238 172v172l833 326l-833 325v168l1032 -420v-151z" />
<glyph unicode="?" horiz-adv-x="1191" d="M37 1051q0 206 148.5 331t418.5 125q256 0 397.5 -114.5t141.5 -305.5q0 -68 -19.5 -126t-56.5 -103.5t-76.5 -78.5t-91.5 -66l-129 -84q-58 -37 -82 -79.5t-24 -113.5v-65h-189v90q0 79 37 144t125 124l131 84q82 51 127 111.5t45 158.5q0 112 -91.5 187.5t-244.5 75.5 q-171 0 -272 -83.5t-101 -232.5q0 -48 15 -112l-197 22q-12 47 -12 111zM453 0v225h237v-225h-237z" />
<glyph unicode="@" horiz-adv-x="1890" d="M80 565q0 173 62.5 320t175.5 252t278.5 164t364.5 59q260 0 453 -95t294.5 -265t101.5 -394q0 -211 -92 -336t-248 -125q-196 0 -247 168q-54 -87 -154.5 -135.5t-226.5 -48.5q-146 0 -240 69.5t-94 178.5q0 120 85.5 182t276.5 84l336 33v12q0 115 -58 165t-192 50 q-110 0 -172.5 -43t-70.5 -121h-170q6 130 124 212.5t298 82.5q202 0 299.5 -86.5t97.5 -269.5v-234q0 -91 30 -132.5t97 -41.5q83 0 130.5 89t47.5 243q0 293 -183 463t-517 170q-346 0 -543 -182.5t-197 -487.5q0 -303 192.5 -478t528.5 -175q111 0 233.5 23.5t211.5 60.5 l57 -113q-202 -100 -518 -100q-396 0 -624 209.5t-228 572.5zM680 385q0 -57 54 -93t143 -36q140 0 234.5 73.5t94.5 182.5v51l-313 -31q-117 -14 -165 -47t-48 -100z" />
<glyph unicode="A" horiz-adv-x="1611" d="M41 0l664 1454h202l664 -1454h-213l-160 377h-784l-162 -377h-211zM485 545h641l-217 508q-75 141 -102 225h-4q-28 -89 -101 -225z" />
<glyph unicode="B" horiz-adv-x="1581" d="M219 0v1454h715q107 0 192 -23t138.5 -60.5t89 -88.5t49.5 -103t14 -108q0 -113 -65 -200.5t-187 -118.5q143 -24 218 -116.5t75 -234.5q0 -81 -27 -150.5t-83 -127t-155 -90.5t-232 -33h-742zM420 168h526q162 0 236.5 67.5t74.5 180.5q0 111 -72 176t-227 65h-538v-489 zM420 825h502q73 0 128 14.5t86 37t50 55t25 62t6 65.5q0 44 -13.5 81t-44 71.5t-91.5 54.5t-146 20h-502v-461z" />
<glyph unicode="C" horiz-adv-x="1646" d="M80 729q0 170 54 311.5t153.5 242t246.5 156.5t328 56q294 0 472 -139t225 -387l-209 -21q-36 177 -165 277t-333 100q-262 0 -411.5 -161t-149.5 -433q0 -266 152.5 -433t414.5 -167q195 0 324.5 93.5t177.5 264.5l199 -34q-67 -232 -243.5 -364t-461.5 -132 q-185 0 -333 58t-244 161.5t-146.5 243.5t-50.5 307z" />
<glyph unicode="D" horiz-adv-x="1695" d="M219 0v1454h625q229 0 403 -85t271.5 -247.5t97.5 -382.5q0 -219 -97.5 -387.5t-272.5 -260t-402 -91.5h-625zM420 168h422q262 0 411.5 156t149.5 415q0 255 -154 401t-418 146h-411v-1118z" />
<glyph unicode="E" horiz-adv-x="1480" d="M219 0v1454h1100v-168h-899v-457h864v-167h-864v-494h913v-168h-1114z" />
<glyph unicode="F" horiz-adv-x="1411" d="M219 0v1454h1100v-168h-899v-459h864v-168h-864v-659h-201z" />
<glyph unicode="G" horiz-adv-x="1710" d="M80 727q0 170 54 312t154 243t248 157t330 56q122 0 227 -26.5t180.5 -71t133.5 -104t92 -122.5t51 -131l-202 -32q-16 62 -53.5 117t-96.5 101.5t-147.5 73.5t-194.5 27q-264 0 -417.5 -164.5t-153.5 -437.5q0 -129 38.5 -238.5t110 -189.5t180.5 -125t244 -45 q110 0 201 28.5t150 74.5t100 105.5t59 120t18 119.5v19h-532v168h713v-762h-150l-22 246q-72 -133 -221 -210t-345 -77q-227 0 -397.5 98t-261 271.5t-90.5 398.5z" />
<glyph unicode="H" horiz-adv-x="1769" d="M219 0v1454h201v-627h930v627h200v-1454h-200v659h-930v-659h-201z" />
<glyph unicode="I" horiz-adv-x="638" d="M219 0v1454h201v-1454h-201z" />
<glyph unicode="J" horiz-adv-x="911" d="M41 -16v186q106 -16 211 -16q66 0 115 14.5t88 48.5t59.5 96t20.5 152v989h200v-1003q0 -484 -481 -484q-141 0 -213 17z" />
<glyph unicode="K" horiz-adv-x="1601" d="M219 0v1454h201v-766l813 766h266l-598 -555l653 -899h-247l-551 756l-336 -305v-451h-201z" />
<glyph unicode="L" horiz-adv-x="1329" d="M219 0v1454h201v-1282h856v-172h-1057z" />
<glyph unicode="M" horiz-adv-x="2062" d="M219 0v1454h297l469 -1126q33 -82 41 -127h4q6 28 41 127l475 1126h299v-1454h-184v1137q0 110 6 147h-8q-1 -4 -8 -26t-12.5 -39t-14 -41t-16.5 -41l-484 -1137h-194l-481 1139q-28 66 -43 145h-11q8 -74 8 -147v-1137h-184z" />
<glyph unicode="N" horiz-adv-x="1761" d="M219 0v1454h244l803 -1073q69 -99 94 -166h4q-4 110 -4 186v1053h182v-1454h-231l-817 1085q-73 108 -93 162h-4q4 -102 4 -178v-1069h-182z" />
<glyph unicode="O" horiz-adv-x="1732" d="M80 727q0 351 215.5 559.5t570.5 208.5q357 0 573 -208.5t216 -559.5q0 -350 -216.5 -559t-572.5 -209q-234 0 -412 94.5t-276 269t-98 404.5zM291 727q0 -272 156 -436t419 -164q264 0 420 163t156 437q0 275 -156 437.5t-420 162.5t-419.5 -162.5t-155.5 -437.5z" />
<glyph unicode="P" horiz-adv-x="1470" d="M219 0v1454h692q235 0 373.5 -119.5t138.5 -320.5q0 -204 -144.5 -325.5t-387.5 -121.5h-471v-567h-201zM420 735h463q152 0 240.5 75t88.5 204q0 126 -88 199t-239 73h-465v-551z" />
<glyph unicode="Q" horiz-adv-x="1732" d="M80 727q0 351 215.5 559.5t570.5 208.5q357 0 573 -208.5t216 -559.5q0 -261 -124 -448t-343 -267q102 -118 274 -118q62 0 133 12v-176q-83 -13 -147 -13q-143 0 -257.5 65t-178.5 187q-78 -10 -146 -10q-234 0 -412 94.5t-276 269t-98 404.5zM291 727q0 -272 156 -436 t419 -164q264 0 420 163t156 437q0 275 -156 437.5t-420 162.5t-419.5 -162.5t-155.5 -437.5z" />
<glyph unicode="R" horiz-adv-x="1570" d="M219 0v1454h709q113 0 201 -25t142.5 -65.5t90 -97.5t49.5 -115.5t14 -124.5q0 -64 -18.5 -124t-57 -116.5t-108 -99t-162.5 -61.5l398 -625h-236l-383 598h-438v-598h-201zM420 764h479q87 0 150 21.5t98 59.5t51 83.5t16 99.5q0 115 -73.5 186.5t-239.5 71.5h-481v-522 z" />
<glyph unicode="S" horiz-adv-x="1495" d="M66 440l206 35q39 -164 165.5 -257t348.5 -93q190 0 297 61.5t107 192.5q0 118 -76 175t-242 81l-319 43q-204 31 -310 126t-106 273q0 194 158 306t438 112q273 0 442.5 -106.5t215.5 -319.5l-201 -49q-39 157 -151 235t-312 78q-180 0 -281.5 -62t-101.5 -177 q0 -107 67 -163t222 -79l311 -45q227 -34 341 -129t114 -281q0 -199 -157.5 -318.5t-459.5 -119.5q-313 0 -492 125.5t-224 355.5z" />
<glyph unicode="T" horiz-adv-x="1351" d="M20 1284v170h1311v-170h-555v-1284h-201v1284h-555z" />
<glyph unicode="U" horiz-adv-x="1687" d="M176 575v879h201v-868q0 -201 124.5 -327t342.5 -126t341.5 125.5t123.5 327.5v868h202v-879q0 -276 -176.5 -446t-490.5 -170q-210 0 -362.5 79.5t-229 217.5t-76.5 319z" />
<glyph unicode="V" horiz-adv-x="1464" d="M6 1454h217l453 -1096q40 -106 53 -168h6q16 77 53 168l451 1096h219l-614 -1454h-223z" />
<glyph unicode="W" horiz-adv-x="2181" d="M51 1454h209l311 -1169q3 -14 11 -44.5t10 -45.5h6q1 11 4 24t9.5 33.5t9.5 32.5l368 1169h203l369 -1169q19 -58 24 -90h4q2 11 23 90l311 1169h209l-418 -1454h-248l-350 1135q-20 52 -20 84h-11q0 -28 -18 -84l-352 -1135h-248z" />
<glyph unicode="X" horiz-adv-x="1536" d="M27 0l614 762l-569 692h250l391 -489q40 -53 55 -82h4q11 25 55 80l387 491h242l-561 -700l614 -754h-254l-426 539q-50 65 -63 96h-4q-16 -33 -66 -96l-428 -539h-241z" />
<glyph unicode="Y" horiz-adv-x="1421" d="M0 1454h236l432 -651q32 -53 39 -80h4q7 27 39 80l436 651h235l-612 -899v-555h-203v555z" />
<glyph unicode="Z" horiz-adv-x="1411" d="M90 0v174l987 1112h-950v168h1194v-172l-989 -1114h1026v-168h-1268z" />
<glyph unicode="[" horiz-adv-x="739" d="M219 -240v1796h463v-147h-297v-1501h297v-148h-463z" />
<glyph unicode="\" horiz-adv-x="1097" d="M92 1556h178l736 -1796h-181z" />
<glyph unicode="]" horiz-adv-x="739" d="M57 -92h297v1501h-297v147h463v-1796h-463v148z" />
<glyph unicode="^" horiz-adv-x="978" d="M41 901l375 551h147l375 -551h-178l-271 408l-272 -408h-176z" />
<glyph unicode="_" horiz-adv-x="1064" d="M0 -193h1065v-131h-1065v131z" />
<glyph unicode="`" horiz-adv-x="1228" d="M43 1487h227l250 -299h-178z" />
<glyph unicode="a" horiz-adv-x="1341" d="M102 272q0 74 33 135t94 99q61 36 147.5 58.5t233.5 35.5l381 29v18q0 262 -317 262q-150 0 -238.5 -55.5t-101.5 -159.5h-197q17 163 162 262t375 99q253 0 376.5 -105t123.5 -323v-271q0 -236 30 -356h-188q-14 78 -17 199q-122 -230 -481 -230q-190 0 -303 82 t-113 221zM295 276q0 -78 71 -120.5t201 -42.5q190 0 308 91.5t118 244.5v51l-415 -39q-156 -17 -219.5 -59.5t-63.5 -125.5z" />
<glyph unicode="b" horiz-adv-x="1441" d="M209 0v1485h180v-654q58 102 175.5 163t266.5 61q237 0 380 -150t143 -393q0 -240 -148.5 -391.5t-384.5 -151.5q-157 0 -268.5 58.5t-169.5 158.5l-27 -186h-147zM385 485q0 -162 105.5 -260t279.5 -98q181 0 287 104t106 281q0 178 -101.5 281.5t-283.5 103.5 q-178 0 -285.5 -98t-107.5 -262v-52z" />
<glyph unicode="c" horiz-adv-x="1288" d="M86 512q0 250 157 396.5t423 146.5q226 0 361.5 -96.5t172.5 -282.5l-190 -23q-56 246 -348 246q-182 0 -282.5 -101t-100.5 -284q0 -184 102.5 -286.5t284.5 -102.5q280 0 354 244l178 -29q-38 -175 -179.5 -273t-356.5 -98q-261 0 -418.5 148t-157.5 395z" />
<glyph unicode="d" horiz-adv-x="1441" d="M88 512q0 240 151 391.5t392 151.5q283 0 422 -203v633h180v-1485h-174v199q-132 -230 -445 -230q-232 0 -379 151t-147 392zM279 512q0 -180 103 -282.5t282 -102.5q175 0 284 98.5t109 259.5v47q0 165 -111 266t-291 101q-175 0 -275.5 -103t-100.5 -284z" />
<glyph unicode="e" horiz-adv-x="1316" d="M86 500q0 262 154 408.5t417 146.5t411.5 -129t148.5 -365v-102h-947q5 -155 112 -244.5t292 -89.5q275 0 379 203l151 -70q-149 -289 -538 -289q-271 0 -425.5 139.5t-154.5 391.5zM270 600h760v14q-1 144 -104.5 224t-270.5 80q-170 0 -273.5 -86t-111.5 -232z" />
<glyph unicode="f" horiz-adv-x="864" d="M45 877v147h244v123q0 170 93 262t269 92q85 0 170 -18v-156q-69 14 -155 14q-104 0 -150.5 -48.5t-46.5 -155.5v-113h352v-147h-352v-877h-180v877h-244z" />
<glyph unicode="g" horiz-adv-x="1304" d="M80 -147q0 75 43.5 129.5t128.5 80.5q-123 51 -123 175q0 74 45.5 126.5t126.5 79.5q-127 94 -127 256q0 160 127 257.5t346 97.5q153 0 264 -51q22 87 91 137.5t176 50.5q34 0 73 -8v-156q-31 8 -82 8q-126 0 -165 -88q114 -94 114 -248q0 -159 -127 -257.5t-344 -98.5 q-151 0 -258 49q-94 -33 -94 -104q0 -103 174 -103h403q180 0 272.5 -72.5t92.5 -211.5q0 -332 -598 -332q-559 0 -559 283zM252 -117q0 -89 100 -128.5t297 -39.5q219 0 314.5 45t95.5 129q0 71 -54 105.5t-167 34.5h-375q-53 0 -96 6q-115 -49 -115 -152zM352 700 q0 -99 80 -161t215 -62t215 61t80 162q0 100 -79.5 160t-215.5 60t-215.5 -59.5t-79.5 -160.5z" />
<glyph unicode="h" horiz-adv-x="1437" d="M209 0v1485h180v-678q62 122 173 186t263 64q223 0 338 -128t115 -376v-553h-180v535q0 180 -83.5 272t-246.5 92q-174 0 -276.5 -106.5t-102.5 -288.5v-504h-180z" />
<glyph unicode="i" horiz-adv-x="577" d="M182 1212v228h211v-228h-211zM199 0v1024h180v-1024h-180z" />
<glyph unicode="j" d="M-61 -248q55 -6 133 -6q73 0 106 44.5t33 162.5v1071h180v-1096q0 -344 -311 -344q-87 0 -141 13v155zM193 1212v228h210v-228h-210z" />
<glyph unicode="k" horiz-adv-x="1312" d="M209 0v1485h180v-975l598 514h250l-430 -379l459 -645h-226l-372 530l-279 -219v-311h-180z" />
<glyph unicode="l" horiz-adv-x="598" d="M209 0v1485h180v-1485h-180z" />
<glyph unicode="m" horiz-adv-x="2068" d="M199 0v1024h174v-205q99 238 372 238q139 0 234.5 -62t136.5 -180q59 119 159.5 180.5t235.5 61.5q192 0 295 -115.5t103 -331.5v-610h-180v596q0 149 -68.5 226t-200.5 77q-146 0 -230.5 -89.5t-84.5 -246.5v-563h-182v596q0 148 -68.5 225.5t-198.5 77.5 q-145 0 -231 -95t-86 -255v-549h-180z" />
<glyph unicode="n" horiz-adv-x="1427" d="M199 0v1024h174v-223q126 256 446 256q220 0 334.5 -121t114.5 -354v-582h-181v555q0 344 -325 344q-175 0 -279 -106.5t-104 -288.5v-504h-180z" />
<glyph unicode="o" horiz-adv-x="1343" d="M86 512q0 248 161 395.5t425 147.5t423.5 -147.5t159.5 -395.5t-159.5 -395.5t-423.5 -147.5t-425 147.5t-161 395.5zM279 512q0 -184 105 -285.5t288 -101.5t288 101.5t105 285.5t-105 285.5t-288 101.5t-288 -101.5t-105 -285.5z" />
<glyph unicode="p" horiz-adv-x="1431" d="M199 -399v1423h174v-201q63 110 181 171t267 61q235 0 378.5 -149t143.5 -396q0 -242 -148.5 -391.5t-383.5 -149.5q-144 0 -261.5 58t-170.5 147v-573h-180zM375 487q0 -164 106 -262t281 -98q182 0 286.5 102t104.5 281q0 181 -101 284t-278 103q-178 0 -288.5 -99.5 t-110.5 -262.5v-48z" />
<glyph unicode="q" horiz-adv-x="1431" d="M88 512q0 248 149 397.5t388 149.5q152 0 262.5 -56.5t171.5 -162.5l33 184h141v-1423h-180v585q-55 -98 -170.5 -159.5t-264.5 -61.5q-237 0 -383.5 152.5t-146.5 394.5zM279 512q0 -182 104.5 -285.5t284.5 -103.5q183 0 286 100.5t103 261.5v54q0 158 -107 260 t-291 102q-169 0 -274.5 -100.5t-105.5 -286.5v-2z" />
<glyph unicode="r" horiz-adv-x="856" d="M199 0v1024h168v-260q41 129 139 209t231 80q41 0 78 -6v-177q-40 4 -63 4q-175 0 -267 -98q-63 -64 -84.5 -152.5t-21.5 -207.5v-416h-180z" />
<glyph unicode="s" horiz-adv-x="1232" d="M88 301l170 55q42 -117 145.5 -178t264.5 -61q282 0 282 164q0 72 -42.5 107t-143.5 42l-301 23q-164 15 -247 90.5t-83 201.5q0 145 124.5 227.5t342.5 82.5q209 0 346.5 -79t179.5 -216l-170 -58q-85 209 -366 209q-133 0 -207 -41.5t-74 -117.5q0 -128 197 -146 l305 -22q166 -15 241.5 -87.5t75.5 -201.5q0 -153 -119.5 -239.5t-355.5 -86.5q-224 0 -365.5 85t-199.5 247z" />
<glyph unicode="t" horiz-adv-x="905" d="M33 877v147h246v268l182 76v-344h364v-147h-364v-529q0 -105 49.5 -153t153.5 -48q74 0 163 21v-162q-80 -26 -198 -26q-104 0 -175.5 27.5t-108.5 79.5t-51.5 111.5t-14.5 139.5v539h-246z" />
<glyph unicode="u" horiz-adv-x="1406" d="M160 426v598h182v-580q0 -87 24.5 -151.5t67 -100.5t94 -52.5t113.5 -16.5q96 0 171.5 32.5t121.5 88t70 124.5t24 146v510h182v-1024h-176v229q-49 -121 -163.5 -190.5t-264.5 -69.5q-446 0 -446 457z" />
<glyph unicode="v" horiz-adv-x="1183" d="M12 1024h201l340 -741q26 -66 37 -115h4q22 75 37 115l340 741h200l-479 -1024h-200z" />
<glyph unicode="w" horiz-adv-x="1826" d="M43 1024h190l254 -756q18 -73 23 -104h4q2 16 6.5 34t11 39t9.5 31l272 756h199l274 -756q3 -10 9 -31t10.5 -39t7.5 -34h4q3 25 22 104l254 756h191l-361 -1024h-209l-274 756q-21 55 -25 100h-4q-8 -51 -24 -100l-275 -756h-209z" />
<glyph unicode="x" horiz-adv-x="1210" d="M27 0l460 526l-434 498h226l260 -305q44 -59 63 -96h2q15 25 64 94l258 307h229l-432 -506l461 -518h-232l-280 322q-40 46 -70 96h-2q-12 -25 -72 -99l-278 -319h-223z" />
<glyph unicode="y" horiz-adv-x="1185" d="M12 1024h209l354 -752q24 -58 33 -96h2q12 38 33 96l332 752h201l-500 -1090q-86 -189 -199 -269.5t-276 -80.5q-58 0 -107 8v160q50 -6 88 -6q232 0 314 205l22 55z" />
<glyph unicode="z" horiz-adv-x="1175" d="M90 0v143l741 729h-710v152h948v-139l-741 -733h776v-152h-1014z" />
<glyph unicode="{" horiz-adv-x="741" d="M82 604v139q47 1 78 11t48.5 24.5t26.5 43.5t11 54.5t2 71.5v322q0 149 92.5 226t263.5 77h76v-135h-51q-108 0 -158.5 -47.5t-50.5 -149.5v-278q0 -53 -7 -95.5t-23.5 -82t-49.5 -67.5t-80 -42q47 -17 79.5 -48t49 -73t23 -85t6.5 -95v-291q0 -101 51 -144.5t154 -43.5 h61v-138h-96q-160 0 -249 73.5t-89 217.5v342q0 43 -2 69t-11.5 56t-27 46.5t-49.5 28.5t-78 13z" />
<glyph unicode="|" horiz-adv-x="567" d="M209 -240v1796h149v-1796h-149z" />
<glyph unicode="}" horiz-adv-x="741" d="M57 -104h62q103 0 154 43.5t51 144.5v291q0 52 6.5 94.5t22.5 85t48.5 73.5t79.5 48q-47 14 -79.5 42t-49.5 68t-23.5 82t-6.5 95v278q0 102 -50.5 149.5t-158.5 47.5h-52v135h76q171 0 264 -77t93 -226v-322q0 -46 2 -71.5t10.5 -54.5t26 -43t48.5 -24.5t78 -11.5v-139 q-46 -1 -78 -13t-49 -28.5t-26.5 -46.5t-11.5 -56t-2 -69v-342q0 -144 -89 -217.5t-249 -73.5h-97v138z" />
<glyph unicode="~" horiz-adv-x="1427" d="M195 524q26 127 110 195.5t201 68.5q68 0 131.5 -26t103.5 -56.5t90.5 -56.5t94.5 -26q123 0 166 151l139 -24q-30 -130 -112.5 -198.5t-194.5 -68.5q-68 0 -131 25.5t-103 55.5t-90 55.5t-94 25.5q-128 0 -168 -141z" />
<glyph unicode="&#xa1;" horiz-adv-x="690" d="M221 963v225h248v-225h-248zM227 -297l49 1090h136l51 -1090h-236z" />
<glyph unicode="&#xa2;" horiz-adv-x="1331" d="M86 514q0 237 144.5 379.5t398.5 159.5v161h123v-161q206 -12 332.5 -105.5t160.5 -257.5l-182 -24q-53 215 -311 239v-788q256 24 317 235l172 -30q-38 -155 -165 -246t-324 -105v-164h-123v164q-251 15 -397 161t-146 382zM272 514q0 -173 94 -277.5t263 -119.5v788 q-170 -15 -263.5 -117t-93.5 -274z" />
<glyph unicode="&#xa3;" horiz-adv-x="1441" d="M41 115q309 99 309 377q0 98 -20 186h-238v129h207q-29 111 -29 205q0 208 139 328t384 120q206 0 337 -83t175 -244l-187 -48q-66 218 -325 218q-322 0 -322 -285q0 -97 29 -211h487v-129h-457q15 -84 15 -150q0 -133 -53.5 -221t-169.5 -145q86 18 188 18 q96 0 246.5 -20.5t240.5 -20.5q102 0 166.5 55t77.5 156l174 -33q-26 -166 -136.5 -260t-277.5 -94q-95 0 -264.5 30t-298.5 30q-166 0 -358 -39z" />
<glyph unicode="&#xa4;" horiz-adv-x="1263" d="M86 199l129 127q-100 124 -100 295q0 173 102 297l-131 126l90 80l131 -125q139 93 334 93q188 0 322 -86l127 120l88 -79l-123 -121q108 -123 108 -305q0 -177 -106 -302l119 -118l-89 -80l-120 119q-136 -90 -326 -90q-200 0 -338 96l-127 -127zM279 621 q0 -146 98 -234t264 -88q165 0 261.5 88t96.5 234t-96.5 233.5t-261.5 87.5q-166 0 -264 -87.5t-98 -233.5z" />
<glyph unicode="&#xa5;" horiz-adv-x="1370" d="M0 1423h221l318 -432q91 -121 143 -217h6q50 89 143 217l318 432h223l-575 -768h438v-125h-455v-114h455v-125h-455v-291h-190v291h-453v125h453v114h-453v125h438z" />
<glyph unicode="&#xa6;" horiz-adv-x="565" d="M209 -240v775h147v-775h-147zM209 782v774h147v-774h-147z" />
<glyph unicode="&#xa7;" horiz-adv-x="1220" d="M66 113l165 37q56 -207 367 -207q307 0 307 184q0 70 -41 110.5t-143 69.5l-313 82q-180 48 -256 118t-76 191q0 147 133 224q-96 72 -96 213q0 153 127.5 241t349.5 88q198 0 324.5 -75.5t160.5 -214.5l-172 -46q-55 191 -323 191q-140 0 -213.5 -44t-73.5 -126 q0 -71 44 -108t173 -74l311 -74q156 -40 230.5 -117.5t74.5 -200.5q0 -148 -116 -235q75 -75 75 -199q0 -166 -130 -256t-369 -90q-219 0 -351 80t-169 238zM252 721q0 -75 54.5 -114.5t225.5 -92.5l263 -59q50 -14 102 -37q53 53 53 129q0 81 -51.5 126.5t-191.5 88.5 l-301 74q-30 7 -74 22q-80 -52 -80 -137z" />
<glyph unicode="&#xa8;" horiz-adv-x="1228" d="M102 1221v221h217v-221h-217zM618 1221v221h218v-221h-218z" />
<glyph unicode="&#xa9;" horiz-adv-x="1808" d="M80 727q0 234 108.5 410t294.5 267t422 91t422.5 -91t295 -267t108.5 -410t-108.5 -410t-295 -267t-422.5 -91t-422 91t-294.5 267t-108.5 410zM188 727q0 -203 94.5 -357.5t256.5 -234.5t366 -80q203 0 364.5 80t256 234.5t94.5 357.5q0 154 -54.5 281t-150.5 212.5 t-227 132t-283 46.5q-153 0 -284.5 -46.5t-227.5 -132t-150.5 -212.5t-54.5 -281zM473 725q0 200 120 319t325 119q163 0 269.5 -76.5t117.5 -197.5l-148 -19q-12 77 -77 123.5t-167 46.5q-133 0 -210.5 -86t-77.5 -229q0 -142 79.5 -226.5t213.5 -84.5q95 0 160 46t83 120 l150 -17q-26 -122 -133.5 -197t-259.5 -75q-204 0 -324.5 117.5t-120.5 316.5z" />
<glyph unicode="&#xaa;" horiz-adv-x="1056" d="M98 834q0 60 25.5 103t75.5 68.5t108 39.5t139 22l297 25v16q0 96 -52.5 141t-162.5 45q-213 0 -231 -153h-174q12 124 121 194t284 70q198 0 290.5 -76.5t92.5 -238.5v-209q0 -153 19 -246h-168q-7 76 -10 147q-37 -80 -127 -125t-217 -45q-141 0 -225.5 60.5 t-84.5 161.5zM268 844q0 -58 52.5 -90.5t142.5 -32.5q126 0 205.5 62.5t79.5 160.5v62l-271 -27q-111 -10 -160 -43t-49 -92z" />
<glyph unicode="&#xab;" horiz-adv-x="1157" d="M63 563l416 426h201l-401 -426l399 -426h-203zM502 563l416 426h200l-401 -426l399 -426h-203z" />
<glyph unicode="&#xac;" horiz-adv-x="1427" d="M184 600v166h1033v-498h-168v332h-865z" />
<glyph unicode="&#xad;" horiz-adv-x="1009" d="M109 487v166h790v-166h-790z" />
<glyph unicode="&#xae;" horiz-adv-x="1808" d="M80 727q0 234 108.5 410t294.5 267t422 91t422.5 -91t295 -267t108.5 -410t-108.5 -410t-295 -267t-422.5 -91t-422 91t-294.5 267t-108.5 410zM188 727q0 -203 94.5 -357.5t256.5 -234.5t366 -80q203 0 364.5 80t256 234.5t94.5 357.5q0 154 -54.5 281t-150.5 212.5 t-227 132t-283 46.5q-153 0 -284.5 -46.5t-227.5 -132t-150.5 -212.5t-54.5 -281zM588 319v832h395q149 0 227 -63t78 -181q0 -87 -50.5 -148.5t-141.5 -86.5l223 -353h-166l-205 343h-219v-343h-141zM729 776h246q170 0 170 131q0 65 -41.5 96t-128.5 31h-246v-258z" />
<glyph unicode="&#xaf;" horiz-adv-x="1228" d="M102 1253v136h756v-136h-756z" />
<glyph unicode="&#xb0;" horiz-adv-x="911" d="M63 1079q0 175 112.5 282t281.5 107q168 0 279.5 -107t111.5 -282t-111.5 -282t-279.5 -107q-169 0 -281.5 107t-112.5 282zM227 1079q0 -105 65 -172t165 -67q99 0 163 67t64 172q0 106 -64 173t-163 67q-100 0 -165 -66.5t-65 -173.5z" />
<glyph unicode="&#xb1;" horiz-adv-x="1427" d="M193 0v166h1042v-166h-1042zM193 598v152h430v329h176v-329h436v-152h-436v-328h-176v328h-430z" />
<glyph unicode="&#xb4;" horiz-adv-x="1228" d="M100 1188l250 299h228l-299 -299h-179z" />
<glyph unicode="&#xb5;" horiz-adv-x="1445" d="M199 -399v1423h182v-580q0 -87 24.5 -151.5t67 -100.5t94 -52.5t113.5 -16.5q96 0 171.5 32.5t121.5 88t70 124.5t24 146v510h182v-1024h-176v229q-49 -121 -163.5 -190.5t-264.5 -69.5q-181 0 -287 74v-442h-159z" />
<glyph unicode="&#xb6;" horiz-adv-x="1595" d="M123 1104q0 96 40.5 168t115.5 116t176 65.5t229 21.5h760v-121h-238v-1559h-143v1559h-246v-1559h-143v942q-100 0 -182 11.5t-151.5 38.5t-117 68.5t-74 104.5t-26.5 144z" />
<glyph unicode="&#xb7;" d="M166 578v241h260v-241h-260z" />
<glyph unicode="&#xb8;" horiz-adv-x="1228" d="M102 -283l123 25q25 -57 109 -57q47 0 75.5 22.5t28.5 59.5q0 38 -26 60.5t-72 22.5q-52 0 -92 -32l-88 24l96 172h115l-78 -114q39 24 104 24q84 0 132.5 -42t48.5 -115q0 -78 -67.5 -127.5t-174.5 -49.5q-87 0 -148 33.5t-86 93.5z" />
<glyph unicode="&#xba;" horiz-adv-x="1054" d="M84 1010q0 184 121 289.5t323 105.5q201 0 322 -105.5t121 -289.5t-121.5 -291t-321.5 -107q-201 0 -322.5 107t-121.5 291zM254 1010q0 -132 73.5 -205.5t200.5 -73.5q126 0 200.5 73.5t74.5 205.5q0 130 -74.5 203t-200.5 73q-127 0 -200.5 -72.5t-73.5 -203.5z" />
<glyph unicode="&#xbb;" horiz-adv-x="1157" d="M39 989h201l415 -426l-411 -426h-203l399 426zM477 989h201l416 -426l-412 -426h-203l400 426z" />
<glyph unicode="&#xbc;" horiz-adv-x="1804" d="M55 1176v137h21q86 0 145 36.5t82 106.5h129v-786h-156v587q-31 -39 -82 -60t-106 -21h-33zM209 -35l1020 1524h170l-1018 -1524h-172zM938 182v107l481 497h164v-495h168v-109h-168v-182h-151v182h-494zM1073 291h359v366z" />
<glyph unicode="&#xbd;" horiz-adv-x="1878" d="M55 1176v137h21q86 0 145 36.5t82 106.5h129v-786h-156v587q-31 -39 -82 -60t-106 -21h-33zM209 -35l1020 1524h170l-1018 -1524h-172zM1081 0v106q66 34 99.5 51.5t89.5 48t85.5 48.5t73 46t66 48t50.5 47t41 50.5t22.5 50.5t9.5 55q0 67 -47.5 105t-134.5 38 q-84 0 -138.5 -36.5t-54.5 -110.5q0 -22 6 -49l-159 12q-5 40 -5 53q0 119 97.5 182.5t255.5 63.5t250 -61.5t92 -180.5q0 -236 -473 -452h491v-115h-717z" />
<glyph unicode="&#xbe;" horiz-adv-x="2088" d="M70 911l157 13q1 -76 57 -119t152 -43q95 0 151 33.5t56 101.5q0 59 -49.5 88t-161.5 29h-82v110h80q93 0 144 30t51 85q0 63 -51.5 95t-139.5 32q-96 0 -150 -41.5t-55 -118.5l-155 11q2 122 99 192t265 70q159 0 252.5 -58t93.5 -166q0 -76 -56 -122t-144 -56 q107 -9 166 -58t59 -130q0 -114 -102 -177t-271 -63t-266.5 70t-99.5 192zM494 -35l1019 1524h170l-1017 -1524h-172zM1223 182v107l481 497h164v-495h168v-109h-168v-182h-152v182h-493zM1358 291h358v366z" />
<glyph unicode="&#xbf;" horiz-adv-x="1191" d="M49 100q0 68 19.5 126t56.5 103.5t76.5 79.5t91.5 66l129 84q58 37 82 79.5t24 113.5v65h189v-90q0 -79 -37 -144t-125 -124l-131 -84q-82 -51 -127 -112t-45 -159q0 -112 91.5 -187t244.5 -75q171 0 272 83.5t101 232.5q0 48 -15 112l197 -22q12 -47 12 -111 q0 -206 -148.5 -331t-418.5 -125q-256 0 -397.5 114t-141.5 305zM502 963v225h237v-225h-237z" />
<glyph unicode="&#xc0;" horiz-adv-x="1611" d="M41 0l664 1454h202l664 -1454h-213l-160 377h-784l-162 -377h-211zM434 1769h215l240 -221h-184zM485 545h641l-217 508q-75 141 -102 225h-4q-28 -89 -101 -225z" />
<glyph unicode="&#xc1;" horiz-adv-x="1611" d="M41 0l664 1454h202l664 -1454h-213l-160 377h-784l-162 -377h-211zM485 545h641l-217 508q-75 141 -102 225h-4q-28 -89 -101 -225zM713 1548l239 221h215l-270 -221h-184z" />
<glyph unicode="&#xc2;" horiz-adv-x="1611" d="M41 0l664 1454h202l664 -1454h-213l-160 377h-784l-162 -377h-211zM446 1548l248 221h224l247 -221h-194l-166 148l-164 -148h-195zM485 545h641l-217 508q-75 141 -102 225h-4q-28 -89 -101 -225z" />
<glyph unicode="&#xc3;" horiz-adv-x="1611" d="M41 0l664 1454h202l664 -1454h-213l-160 377h-784l-162 -377h-211zM403 1571q19 101 83 155t165 54q53 0 100 -17t74.5 -37.5t64.5 -37.5t73 -17q90 0 114 98l127 -22q-19 -101 -83 -155t-165 -54q-53 0 -99.5 17t-74 37.5t-64 37.5t-71.5 17q-93 0 -117 -99zM485 545 h641l-217 508q-75 141 -102 225h-4q-28 -89 -101 -225z" />
<glyph unicode="&#xc4;" horiz-adv-x="1611" d="M41 0l664 1454h202l664 -1454h-213l-160 377h-784l-162 -377h-211zM430 1548v209h217v-209h-217zM485 545h641l-217 508q-75 141 -102 225h-4q-28 -89 -101 -225zM965 1548v209h217v-209h-217z" />
<glyph unicode="&#xc5;" horiz-adv-x="1611" d="M41 0l664 1454h202l664 -1454h-213l-160 377h-784l-162 -377h-211zM485 545h641l-217 508q-75 141 -102 225h-4q-28 -89 -101 -225zM580 1722q0 93 62 151t163 58t163 -58t62 -151q0 -94 -62 -152.5t-163 -58.5t-163 58.5t-62 152.5zM698 1722q0 -49 30 -79.5t77 -30.5 t76.5 30.5t29.5 79.5t-29.5 80t-76.5 31t-77 -31t-30 -80z" />
<glyph unicode="&#xc6;" horiz-adv-x="2412" d="M-20 0l1097 1454h1174v-168h-916v-457h881v-167h-881v-494h930v-168h-1130v340h-682l-248 -340h-225zM573 506h562v768z" />
<glyph unicode="&#xc7;" horiz-adv-x="1646" d="M80 729q0 170 54 311.5t153.5 242t246.5 156.5t328 56q294 0 472 -139t225 -387l-209 -21q-36 177 -165 277t-333 100q-262 0 -411.5 -161t-149.5 -433q0 -266 152.5 -433t414.5 -167q195 0 324.5 93.5t177.5 264.5l199 -34q-64 -221 -227 -351.5t-423 -142.5l-41 -61 q39 24 105 24q83 0 131.5 -42t48.5 -115q0 -78 -67.5 -127.5t-174.5 -49.5q-87 0 -147.5 33.5t-85.5 93.5l123 25q25 -57 108 -57q47 0 76 22.5t29 59.5q0 38 -26.5 60.5t-72.5 22.5q-52 0 -92 -32l-88 24l66 119q-138 6 -254.5 46.5t-202 109.5t-145.5 163t-89.5 207.5 t-29.5 241.5z" />
<glyph unicode="&#xc8;" horiz-adv-x="1480" d="M219 0v1454h1100v-168h-899v-457h864v-167h-864v-494h913v-168h-1114zM397 1769h215l240 -221h-184z" />
<glyph unicode="&#xc9;" horiz-adv-x="1480" d="M219 0v1454h1100v-168h-899v-457h864v-167h-864v-494h913v-168h-1114zM676 1548l239 221h215l-270 -221h-184z" />
<glyph unicode="&#xca;" horiz-adv-x="1480" d="M219 0v1454h1100v-168h-899v-457h864v-167h-864v-494h913v-168h-1114zM410 1548l247 221h224l247 -221h-194l-166 148l-164 -148h-194z" />
<glyph unicode="&#xcb;" horiz-adv-x="1480" d="M219 0v1454h1100v-168h-899v-457h864v-167h-864v-494h913v-168h-1114zM393 1548v209h217v-209h-217zM928 1548v209h217v-209h-217z" />
<glyph unicode="&#xcc;" horiz-adv-x="638" d="M51 1769h199l156 -221h-175zM219 0v1454h201v-1454h-201z" />
<glyph unicode="&#xcd;" horiz-adv-x="638" d="M219 0v1454h201v-1454h-201zM233 1548l156 221h199l-180 -221h-175z" />
<glyph unicode="&#xce;" horiz-adv-x="638" d="M43 1548l168 221h219l168 -221h-178l-101 146l-98 -146h-178zM219 0v1454h201v-1454h-201z" />
<glyph unicode="&#xcf;" horiz-adv-x="638" d="M47 1548v209h215v-209h-215zM219 0v1454h201v-1454h-201zM375 1548v209h217v-209h-217z" />
<glyph unicode="&#xd0;" horiz-adv-x="1695" d="M33 682v152h186v620h625q229 0 403 -85t271.5 -247.5t97.5 -382.5q0 -219 -97.5 -387.5t-272.5 -260t-402 -91.5h-625v682h-186zM420 168h422q262 0 411.5 156t149.5 415q0 255 -154 401t-418 146h-411v-452h481v-152h-481v-514z" />
<glyph unicode="&#xd1;" horiz-adv-x="1761" d="M219 0v1454h244l803 -1073q69 -99 94 -166h4q-4 110 -4 186v1053h182v-1454h-231l-817 1085q-73 108 -93 162h-4q4 -102 4 -178v-1069h-182zM479 1571q19 101 83 155t165 54q53 0 99.5 -17t74.5 -37.5t64.5 -37.5t72.5 -17q91 0 115 98l127 -22q-19 -101 -83 -155 t-165 -54q-53 0 -99.5 17t-74 37.5t-64 37.5t-71.5 17q-93 0 -117 -99z" />
<glyph unicode="&#xd2;" horiz-adv-x="1732" d="M80 727q0 351 215.5 559.5t570.5 208.5q357 0 573 -208.5t216 -559.5q0 -350 -216.5 -559t-572.5 -209q-234 0 -412 94.5t-276 269t-98 404.5zM291 727q0 -272 156 -436t419 -164q264 0 420 163t156 437q0 275 -156 437.5t-420 162.5t-419.5 -162.5t-155.5 -437.5z M496 1769h215l239 -221h-184z" />
<glyph unicode="&#xd3;" horiz-adv-x="1732" d="M80 727q0 351 215.5 559.5t570.5 208.5q357 0 573 -208.5t216 -559.5q0 -350 -216.5 -559t-572.5 -209q-234 0 -412 94.5t-276 269t-98 404.5zM291 727q0 -272 156 -436t419 -164q264 0 420 163t156 437q0 275 -156 437.5t-420 162.5t-419.5 -162.5t-155.5 -437.5z M774 1548l240 221h215l-271 -221h-184z" />
<glyph unicode="&#xd4;" horiz-adv-x="1732" d="M80 727q0 351 215.5 559.5t570.5 208.5q357 0 573 -208.5t216 -559.5q0 -350 -216.5 -559t-572.5 -209q-234 0 -412 94.5t-276 269t-98 404.5zM291 727q0 -272 156 -436t419 -164q264 0 420 163t156 437q0 275 -156 437.5t-420 162.5t-419.5 -162.5t-155.5 -437.5z M508 1548l248 221h223l248 -221h-195l-166 148l-164 -148h-194z" />
<glyph unicode="&#xd5;" horiz-adv-x="1732" d="M80 727q0 351 215.5 559.5t570.5 208.5q357 0 573 -208.5t216 -559.5q0 -350 -216.5 -559t-572.5 -209q-234 0 -412 94.5t-276 269t-98 404.5zM291 727q0 -272 156 -436t419 -164q264 0 420 163t156 437q0 275 -156 437.5t-420 162.5t-419.5 -162.5t-155.5 -437.5z M465 1571q19 101 83 155t165 54q53 0 99.5 -17t74.5 -37.5t64.5 -37.5t72.5 -17q91 0 115 98l127 -22q-19 -101 -83 -155t-165 -54q-53 0 -99.5 17t-74 37.5t-64 37.5t-71.5 17q-93 0 -117 -99z" />
<glyph unicode="&#xd6;" horiz-adv-x="1732" d="M80 727q0 351 215.5 559.5t570.5 208.5q357 0 573 -208.5t216 -559.5q0 -350 -216.5 -559t-572.5 -209q-234 0 -412 94.5t-276 269t-98 404.5zM291 727q0 -272 156 -436t419 -164q264 0 420 163t156 437q0 275 -156 437.5t-420 162.5t-419.5 -162.5t-155.5 -437.5z M492 1548v209h217v-209h-217zM1026 1548v209h217v-209h-217z" />
<glyph unicode="&#xd7;" horiz-adv-x="1427" d="M184 289l408 381l-408 381l117 116l412 -385l411 385l119 -116l-407 -381l407 -381l-117 -117l-411 385l-414 -385z" />
<glyph unicode="&#xd8;" horiz-adv-x="1732" d="M80 727q0 351 215.5 559.5t570.5 208.5q297 0 502 -147l131 135l109 -90l-135 -142q182 -201 182 -524q0 -350 -216.5 -559t-572.5 -209q-292 0 -497 150l-138 -142l-106 92l139 144q-184 203 -184 524zM291 727q0 -231 110 -381l834 864q-145 117 -369 117 q-264 0 -419.5 -162.5t-155.5 -437.5zM498 244q148 -117 368 -117q264 0 420 163t156 437q0 228 -109 381z" />
<glyph unicode="&#xd9;" horiz-adv-x="1687" d="M176 575v879h201v-868q0 -201 124.5 -327t342.5 -126t341.5 125.5t123.5 327.5v868h202v-879q0 -276 -176.5 -446t-490.5 -170q-210 0 -362.5 79.5t-229 217.5t-76.5 319zM473 1769h215l240 -221h-185z" />
<glyph unicode="&#xda;" horiz-adv-x="1687" d="M176 575v879h201v-868q0 -201 124.5 -327t342.5 -126t341.5 125.5t123.5 327.5v868h202v-879q0 -276 -176.5 -446t-490.5 -170q-210 0 -362.5 79.5t-229 217.5t-76.5 319zM752 1548l239 221h215l-270 -221h-184z" />
<glyph unicode="&#xdb;" horiz-adv-x="1687" d="M176 575v879h201v-868q0 -201 124.5 -327t342.5 -126t341.5 125.5t123.5 327.5v868h202v-879q0 -276 -176.5 -446t-490.5 -170q-210 0 -362.5 79.5t-229 217.5t-76.5 319zM485 1548l248 221h223l248 -221h-194l-166 148l-164 -148h-195z" />
<glyph unicode="&#xdc;" horiz-adv-x="1687" d="M176 575v879h201v-868q0 -201 124.5 -327t342.5 -126t341.5 125.5t123.5 327.5v868h202v-879q0 -276 -176.5 -446t-490.5 -170q-210 0 -362.5 79.5t-229 217.5t-76.5 319zM469 1548v209h217v-209h-217zM1004 1548v209h217v-209h-217z" />
<glyph unicode="&#xdd;" horiz-adv-x="1421" d="M0 1454h236l432 -651q32 -53 39 -80h4q7 27 39 80l436 651h235l-612 -899v-555h-203v555zM618 1548l240 221h215l-270 -221h-185z" />
<glyph unicode="&#xde;" horiz-adv-x="1374" d="M219 0v1454h201v-268h426q224 0 352.5 -114t128.5 -310q0 -193 -131 -309.5t-350 -116.5h-426v-336h-201zM420 504h405q134 0 210.5 69.5t76.5 188.5t-75.5 187.5t-211.5 68.5h-405v-514z" />
<glyph unicode="&#xdf;" horiz-adv-x="1423" d="M197 0v1032q0 226 140.5 351.5t397.5 125.5q235 0 370.5 -95.5t135.5 -270.5q0 -137 -81 -225.5t-226 -108.5q195 -20 298 -119t103 -266q0 -216 -148 -329t-427 -113q-108 0 -217 20v145q99 -18 202 -18q402 0 402 291q0 294 -434 303h-176v145h157q353 9 353 262 q0 114 -83 175t-237 61q-177 0 -263.5 -83.5t-86.5 -256.5v-1026h-180z" />
<glyph unicode="&#xe0;" horiz-adv-x="1341" d="M102 272q0 74 33 135t94 99q61 36 147.5 58.5t233.5 35.5l381 29v18q0 262 -317 262q-150 0 -238.5 -55.5t-101.5 -159.5h-197q17 163 162 262t375 99q253 0 376.5 -105t123.5 -323v-271q0 -236 30 -356h-188q-14 78 -17 199q-122 -230 -481 -230q-190 0 -303 82 t-113 221zM287 1487h227l250 -299h-178zM295 276q0 -78 71 -120.5t201 -42.5q190 0 308 91.5t118 244.5v51l-415 -39q-156 -17 -219.5 -59.5t-63.5 -125.5z" />
<glyph unicode="&#xe1;" horiz-adv-x="1341" d="M102 272q0 74 33 135t94 99q61 36 147.5 58.5t233.5 35.5l381 29v18q0 262 -317 262q-150 0 -238.5 -55.5t-101.5 -159.5h-197q17 163 162 262t375 99q253 0 376.5 -105t123.5 -323v-271q0 -236 30 -356h-188q-14 78 -17 199q-122 -230 -481 -230q-190 0 -303 82 t-113 221zM295 276q0 -78 71 -120.5t201 -42.5q190 0 308 91.5t118 244.5v51l-415 -39q-156 -17 -219.5 -59.5t-63.5 -125.5zM590 1188l250 299h227l-299 -299h-178z" />
<glyph unicode="&#xe2;" horiz-adv-x="1341" d="M102 272q0 74 33 135t94 99q61 36 147.5 58.5t233.5 35.5l381 29v18q0 262 -317 262q-150 0 -238.5 -55.5t-101.5 -159.5h-197q17 163 162 262t375 99q253 0 376.5 -105t123.5 -323v-271q0 -236 30 -356h-188q-14 78 -17 199q-122 -230 -481 -230q-190 0 -303 82 t-113 221zM295 276q0 -78 71 -120.5t201 -42.5q190 0 308 91.5t118 244.5v51l-415 -39q-156 -17 -219.5 -59.5t-63.5 -125.5zM307 1188l268 299h201l268 -299h-176l-192 213l-193 -213h-176z" />
<glyph unicode="&#xe3;" horiz-adv-x="1341" d="M102 272q0 74 33 135t94 99q61 36 147.5 58.5t233.5 35.5l381 29v18q0 262 -317 262q-150 0 -238.5 -55.5t-101.5 -159.5h-197q17 163 162 262t375 99q253 0 376.5 -105t123.5 -323v-271q0 -236 30 -356h-188q-14 78 -17 199q-122 -230 -481 -230q-190 0 -303 82 t-113 221zM244 1241q21 112 87.5 174t170.5 62q59 0 111.5 -22t83.5 -48t73 -48t82 -22q99 0 129 121l125 -22q-19 -111 -86 -173.5t-172 -62.5q-49 0 -91.5 14.5t-73.5 35t-59.5 40.5t-60.5 34.5t-65 14.5q-99 0 -129 -120zM295 276q0 -78 71 -120.5t201 -42.5 q190 0 308 91.5t118 244.5v51l-415 -39q-156 -17 -219.5 -59.5t-63.5 -125.5z" />
<glyph unicode="&#xe4;" horiz-adv-x="1341" d="M102 272q0 74 33 135t94 99q61 36 147.5 58.5t233.5 35.5l381 29v18q0 262 -317 262q-150 0 -238.5 -55.5t-101.5 -159.5h-197q17 163 162 262t375 99q253 0 376.5 -105t123.5 -323v-271q0 -236 30 -356h-188q-14 78 -17 199q-122 -230 -481 -230q-190 0 -303 82 t-113 221zM295 276q0 -78 71 -120.5t201 -42.5q190 0 308 91.5t118 244.5v51l-415 -39q-156 -17 -219.5 -59.5t-63.5 -125.5zM309 1221v221h217v-221h-217zM825 1221v221h217v-221h-217z" />
<glyph unicode="&#xe5;" horiz-adv-x="1341" d="M102 272q0 74 33 135t94 99q61 36 147.5 58.5t233.5 35.5l381 29v18q0 262 -317 262q-150 0 -238.5 -55.5t-101.5 -159.5h-197q17 163 162 262t375 99q253 0 376.5 -105t123.5 -323v-271q0 -236 30 -356h-188q-14 78 -17 199q-122 -230 -481 -230q-190 0 -303 82 t-113 221zM295 276q0 -78 71 -120.5t201 -42.5q190 0 308 91.5t118 244.5v51l-415 -39q-156 -17 -219.5 -59.5t-63.5 -125.5zM410 1350q0 94 72.5 151.5t193.5 57.5q120 0 192 -57.5t72 -151.5t-72 -151.5t-192 -57.5q-121 0 -193.5 57.5t-72.5 151.5zM528 1350 q0 -52 40 -83.5t108 -31.5q67 0 107 31t40 84q0 51 -40 81.5t-107 30.5t-107.5 -30.5t-40.5 -81.5z" />
<glyph unicode="&#xe6;" horiz-adv-x="2142" d="M102 268q0 137 107 216t321 94l439 24v39q0 135 -77 200.5t-235 65.5q-152 0 -237 -57.5t-94 -163.5h-189q19 174 156 271.5t366 97.5q308 0 422 -189q138 189 432 189q248 0 388.5 -135.5t140.5 -374.5v-84h-889q5 -155 104.5 -245.5t270.5 -90.5q255 0 352 205l152 -70 q-144 -291 -510 -291q-176 0 -300 67.5t-186 194.5q-67 -130 -199 -196t-317 -66q-196 0 -307 79t-111 220zM295 270q0 -72 67.5 -113.5t188.5 -41.5q84 0 158.5 20t133.5 58.5t93.5 102t34.5 144.5v33l-404 -24q-145 -10 -208.5 -53t-63.5 -126zM1153 604h700 q1 144 -93.5 229t-246.5 85q-155 0 -254 -84.5t-106 -229.5z" />
<glyph unicode="&#xe7;" horiz-adv-x="1288" d="M86 512q0 250 157 396.5t423 146.5q226 0 361.5 -96.5t172.5 -282.5l-190 -23q-56 246 -348 246q-182 0 -282.5 -101t-100.5 -284q0 -184 102.5 -286.5t284.5 -102.5q280 0 354 244l178 -29q-35 -163 -161 -260t-318 -109l-49 -71q39 24 104 24q83 0 131.5 -42t48.5 -115 q0 -78 -67 -127.5t-174 -49.5q-87 0 -148 33.5t-86 93.5l123 25q25 -57 109 -57q47 0 75.5 22.5t28.5 59.5q0 38 -26 60.5t-72 22.5q-52 0 -92 -32l-88 24l71 129q-239 15 -380.5 161t-141.5 380z" />
<glyph unicode="&#xe8;" horiz-adv-x="1316" d="M86 500q0 262 154 408.5t417 146.5t411.5 -129t148.5 -365v-102h-947q5 -155 112 -244.5t292 -89.5q275 0 379 203l151 -70q-149 -289 -538 -289q-271 0 -425.5 139.5t-154.5 391.5zM266 1487h228l249 -299h-178zM270 600h760v14q-1 144 -104.5 224t-270.5 80 q-170 0 -273.5 -86t-111.5 -232z" />
<glyph unicode="&#xe9;" horiz-adv-x="1316" d="M86 500q0 262 154 408.5t417 146.5t411.5 -129t148.5 -365v-102h-947q5 -155 112 -244.5t292 -89.5q275 0 379 203l151 -70q-149 -289 -538 -289q-271 0 -425.5 139.5t-154.5 391.5zM270 600h760v14q-1 144 -104.5 224t-270.5 80q-170 0 -273.5 -86t-111.5 -232z M569 1188l250 299h228l-299 -299h-179z" />
<glyph unicode="&#xea;" horiz-adv-x="1316" d="M86 500q0 262 154 408.5t417 146.5t411.5 -129t148.5 -365v-102h-947q5 -155 112 -244.5t292 -89.5q275 0 379 203l151 -70q-149 -289 -538 -289q-271 0 -425.5 139.5t-154.5 391.5zM270 600h760v14q-1 144 -104.5 224t-270.5 80q-170 0 -273.5 -86t-111.5 -232z M287 1188l268 299h201l268 -299h-176l-193 213l-192 -213h-176z" />
<glyph unicode="&#xeb;" horiz-adv-x="1316" d="M86 500q0 262 154 408.5t417 146.5t411.5 -129t148.5 -365v-102h-947q5 -155 112 -244.5t292 -89.5q275 0 379 203l151 -70q-149 -289 -538 -289q-271 0 -425.5 139.5t-154.5 391.5zM270 600h760v14q-1 144 -104.5 224t-270.5 80q-170 0 -273.5 -86t-111.5 -232z M289 1221v221h217v-221h-217zM805 1221v221h217v-221h-217z" />
<glyph unicode="&#xec;" horiz-adv-x="577" d="M23 1487h196l152 -299h-168zM199 0v1024h180v-1024h-180z" />
<glyph unicode="&#xed;" horiz-adv-x="577" d="M199 0v1024h180v-1024h-180zM207 1188l151 299h197l-180 -299h-168z" />
<glyph unicode="&#xee;" horiz-adv-x="577" d="M37 1188l160 301h184l160 -301h-154l-98 213l-99 -213h-153zM199 0v1024h180v-1024h-180z" />
<glyph unicode="&#xef;" horiz-adv-x="577" d="M23 1221v221h217v-221h-217zM199 0v1024h180v-1024h-180zM340 1221v221h215v-221h-215z" />
<glyph unicode="&#xf0;" horiz-adv-x="1353" d="M88 508q0 245 150 389.5t409 144.5q255 0 377 -190h4q-44 194 -225 352l-348 -96l-37 94l284 78q-118 77 -237 117l113 114q175 -69 311 -178l215 60l37 -97l-164 -45q274 -286 274 -714q0 -257 -161.5 -412.5t-430.5 -155.5q-268 0 -419.5 145t-151.5 394zM279 508 q0 -178 101.5 -279.5t285.5 -101.5q190 0 296.5 100.5t106.5 280.5q0 182 -108 284.5t-295 102.5q-183 0 -285 -103t-102 -284z" />
<glyph unicode="&#xf1;" horiz-adv-x="1427" d="M199 0v1024h174v-223q126 256 446 256q220 0 334.5 -121t114.5 -354v-582h-181v555q0 344 -325 344q-175 0 -279 -106.5t-104 -288.5v-504h-180zM373 1241q21 112 87.5 174t170.5 62q59 0 111.5 -22t83.5 -48t73 -48t82 -22q99 0 129 121l125 -22q-19 -111 -86 -173.5 t-172 -62.5q-49 0 -91.5 14.5t-73.5 35t-59.5 40.5t-60.5 34.5t-65 14.5q-99 0 -129 -120z" />
<glyph unicode="&#xf2;" horiz-adv-x="1343" d="M86 512q0 248 161 395.5t425 147.5t423.5 -147.5t159.5 -395.5t-159.5 -395.5t-423.5 -147.5t-425 147.5t-161 395.5zM279 512q0 -184 105 -285.5t288 -101.5t288 101.5t105 285.5t-105 285.5t-288 101.5t-288 -101.5t-105 -285.5zM283 1487h227l250 -299h-178z" />
<glyph unicode="&#xf3;" horiz-adv-x="1343" d="M86 512q0 248 161 395.5t425 147.5t423.5 -147.5t159.5 -395.5t-159.5 -395.5t-423.5 -147.5t-425 147.5t-161 395.5zM279 512q0 -184 105 -285.5t288 -101.5t288 101.5t105 285.5t-105 285.5t-288 101.5t-288 -101.5t-105 -285.5zM586 1188l250 299h227l-299 -299h-178z " />
<glyph unicode="&#xf4;" horiz-adv-x="1343" d="M86 512q0 248 161 395.5t425 147.5t423.5 -147.5t159.5 -395.5t-159.5 -395.5t-423.5 -147.5t-425 147.5t-161 395.5zM279 512q0 -184 105 -285.5t288 -101.5t288 101.5t105 285.5t-105 285.5t-288 101.5t-288 -101.5t-105 -285.5zM303 1188l268 299h201l268 -299h-176 l-192 213l-193 -213h-176z" />
<glyph unicode="&#xf5;" horiz-adv-x="1343" d="M86 512q0 248 161 395.5t425 147.5t423.5 -147.5t159.5 -395.5t-159.5 -395.5t-423.5 -147.5t-425 147.5t-161 395.5zM240 1241q21 112 87.5 174t170.5 62q59 0 111.5 -22t83.5 -48t73 -48t82 -22q99 0 129 121l125 -22q-19 -111 -86 -173.5t-172 -62.5q-49 0 -91.5 14.5 t-73.5 35t-59.5 40.5t-60.5 34.5t-65 14.5q-99 0 -129 -120zM279 512q0 -184 105 -285.5t288 -101.5t288 101.5t105 285.5t-105 285.5t-288 101.5t-288 -101.5t-105 -285.5z" />
<glyph unicode="&#xf6;" horiz-adv-x="1343" d="M86 512q0 248 161 395.5t425 147.5t423.5 -147.5t159.5 -395.5t-159.5 -395.5t-423.5 -147.5t-425 147.5t-161 395.5zM279 512q0 -184 105 -285.5t288 -101.5t288 101.5t105 285.5t-105 285.5t-288 101.5t-288 -101.5t-105 -285.5zM305 1221v221h217v-221h-217zM821 1221 v221h217v-221h-217z" />
<glyph unicode="&#xf7;" horiz-adv-x="1261" d="M109 588v160h1044v-160h-1044zM518 291q0 47 31.5 76.5t77.5 29.5q47 0 77.5 -29.5t30.5 -76.5t-30.5 -78t-77.5 -31q-46 0 -77.5 31t-31.5 78zM518 1044q0 47 31.5 78t77.5 31q48 0 78 -30t30 -79q0 -47 -30.5 -76.5t-77.5 -29.5q-46 0 -77.5 29.5t-31.5 76.5z" />
<glyph unicode="&#xf8;" horiz-adv-x="1343" d="M86 512q0 248 161 395.5t425 147.5q216 0 366 -103l111 109l88 -74l-113 -110q131 -143 131 -365q0 -248 -159.5 -395.5t-423.5 -147.5q-216 0 -369 103l-113 -111l-84 74l113 110q-133 142 -133 367zM279 512q0 -147 67 -242l572 564q-100 65 -246 65 q-183 0 -288 -101.5t-105 -285.5zM426 193q95 -68 246 -68q183 0 288 101.5t105 285.5q0 142 -68 242z" />
<glyph unicode="&#xf9;" horiz-adv-x="1406" d="M160 426v598h182v-580q0 -87 24.5 -151.5t67 -100.5t94 -52.5t113.5 -16.5q96 0 171.5 32.5t121.5 88t70 124.5t24 146v510h182v-1024h-176v229q-49 -121 -163.5 -190.5t-264.5 -69.5q-446 0 -446 457zM295 1487h227l250 -299h-178z" />
<glyph unicode="&#xfa;" horiz-adv-x="1406" d="M160 426v598h182v-580q0 -87 24.5 -151.5t67 -100.5t94 -52.5t113.5 -16.5q96 0 171.5 32.5t121.5 88t70 124.5t24 146v510h182v-1024h-176v229q-49 -121 -163.5 -190.5t-264.5 -69.5q-446 0 -446 457zM598 1188l250 299h227l-299 -299h-178z" />
<glyph unicode="&#xfb;" horiz-adv-x="1406" d="M160 426v598h182v-580q0 -87 24.5 -151.5t67 -100.5t94 -52.5t113.5 -16.5q96 0 171.5 32.5t121.5 88t70 124.5t24 146v510h182v-1024h-176v229q-49 -121 -163.5 -190.5t-264.5 -69.5q-446 0 -446 457zM315 1188l269 299h200l269 -299h-176l-193 213l-192 -213h-177z" />
<glyph unicode="&#xfc;" horiz-adv-x="1406" d="M160 426v598h182v-580q0 -87 24.5 -151.5t67 -100.5t94 -52.5t113.5 -16.5q96 0 171.5 32.5t121.5 88t70 124.5t24 146v510h182v-1024h-176v229q-49 -121 -163.5 -190.5t-264.5 -69.5q-446 0 -446 457zM317 1221v221h218v-221h-218zM834 1221v221h217v-221h-217z" />
<glyph unicode="&#xfd;" horiz-adv-x="1185" d="M12 1024h209l354 -752q24 -58 33 -96h2q12 38 33 96l332 752h201l-500 -1090q-86 -189 -199 -269.5t-276 -80.5q-58 0 -107 8v160q50 -6 88 -6q232 0 314 205l22 55zM508 1188l250 299h227l-299 -299h-178z" />
<glyph unicode="&#xfe;" horiz-adv-x="1441" d="M209 -399v1884h180v-649q64 106 179 162.5t263 56.5q158 0 277.5 -71t182.5 -194t63 -278q0 -152 -65 -275.5t-186 -195.5t-276 -72q-142 0 -259.5 53t-178.5 146v-567h-180zM385 487q0 -164 105.5 -262t283.5 -98q179 0 284 107.5t105 277.5t-103 277.5t-278 107.5 q-180 0 -288.5 -98t-108.5 -258v-54z" />
<glyph unicode="&#xff;" horiz-adv-x="1185" d="M12 1024h209l354 -752q24 -58 33 -96h2q12 38 33 96l332 752h201l-500 -1090q-86 -189 -199 -269.5t-276 -80.5q-58 0 -107 8v160q50 -6 88 -6q232 0 314 205l22 55zM227 1221v221h217v-221h-217zM743 1221v221h218v-221h-218z" />
<glyph unicode="&#x152;" horiz-adv-x="2469" d="M80 739q0 223 97.5 385.5t272.5 246t410 83.5h1448v-168h-899v-457h864v-167h-864v-494h913v-168h-1472q-352 0 -561 200.5t-209 538.5zM289 739q0 -264 151.5 -417.5t413.5 -153.5h354v1118h-344q-269 0 -422 -145t-153 -402z" />
<glyph unicode="&#x153;" horiz-adv-x="2295" d="M86 512q0 116 40 215t113.5 172t185 114.5t247.5 41.5q167 0 289 -60t192 -166q72 109 196.5 167.5t286.5 58.5q263 0 411 -129t148 -365v-102h-946q5 -155 112 -244.5t292 -89.5q275 0 379 203l151 -70q-149 -289 -538 -289q-170 0 -297 56.5t-199 162.5 q-69 -104 -190.5 -161.5t-286.5 -57.5q-135 0 -246.5 41.5t-185.5 114.5t-114 172.5t-40 214.5zM279 512q0 -177 103 -282t290 -105t290 105t103 282t-103 282t-290 105t-290 -105t-103 -282zM1249 600h760v14q-1 144 -104.5 224t-270.5 80q-170 0 -273.5 -86t-111.5 -232z " />
<glyph unicode="&#x178;" horiz-adv-x="1421" d="M0 1454h236l432 -651q32 -53 39 -80h4q7 27 39 80l436 651h235l-612 -899v-555h-203v555zM336 1548v209h217v-209h-217zM870 1548v209h217v-209h-217z" />
<glyph unicode="&#x2c6;" horiz-adv-x="1228" d="M76 1188l268 299h201l268 -299h-176l-193 213l-192 -213h-176z" />
<glyph unicode="&#x2dc;" horiz-adv-x="1228" d="M106 1241q20 112 87 174t172 62q59 0 111.5 -22t83.5 -48t73 -48t82 -22q99 0 129 121l125 -22q-19 -111 -86 -173.5t-172 -62.5q-49 0 -92 14.5t-74 35t-59.5 40.5t-60.5 34.5t-65 14.5q-99 0 -129 -120z" />
<glyph unicode="&#x2000;" horiz-adv-x="965" />
<glyph unicode="&#x2001;" horiz-adv-x="1931" />
<glyph unicode="&#x2002;" horiz-adv-x="965" />
<glyph unicode="&#x2003;" horiz-adv-x="1931" />
<glyph unicode="&#x2004;" horiz-adv-x="643" />
<glyph unicode="&#x2005;" horiz-adv-x="482" />
<glyph unicode="&#x2006;" horiz-adv-x="321" />
<glyph unicode="&#x2007;" horiz-adv-x="321" />
<glyph unicode="&#x2008;" horiz-adv-x="241" />
<glyph unicode="&#x2009;" horiz-adv-x="386" />
<glyph unicode="&#x200a;" horiz-adv-x="107" />
<glyph unicode="&#x2010;" horiz-adv-x="1009" d="M109 487v166h790v-166h-790z" />
<glyph unicode="&#x2011;" horiz-adv-x="1009" d="M109 487v166h790v-166h-790z" />
<glyph unicode="&#x2012;" horiz-adv-x="1009" d="M109 487v166h790v-166h-790z" />
<glyph unicode="&#x2013;" horiz-adv-x="1302" d="M109 498v143h1085v-143h-1085z" />
<glyph unicode="&#x2014;" horiz-adv-x="1880" d="M109 498v143h1663v-143h-1663z" />
<glyph unicode="&#x2018;" d="M166 944v227q0 131 45 202t158 112l47 -96q-76 -28 -103.5 -71t-27.5 -116v-6h139v-252h-258z" />
<glyph unicode="&#x2019;" d="M166 1202v252h258v-227q0 -131 -45 -202t-158 -112l-47 97q76 28 103.5 70.5t27.5 115.5v6h-139z" />
<glyph unicode="&#x201a;" d="M166 0v252h258v-227q0 -131 -45 -202t-158 -112l-47 96q76 28 103.5 71t27.5 116v6h-139z" />
<glyph unicode="&#x201c;" horiz-adv-x="956" d="M166 946v228q0 130 45 201t158 112l47 -96q-76 -28 -103.5 -71t-27.5 -116v-6h139v-252h-258zM532 946v228q0 130 45 201t158 112l47 -96q-76 -28 -103.5 -71t-27.5 -116v-6h140v-252h-259z" />
<glyph unicode="&#x201d;" horiz-adv-x="956" d="M166 1202v252h258v-227q0 -131 -45 -202t-158 -112l-47 97q76 28 103.5 70.5t27.5 115.5v6h-139zM532 1202v252h259v-227q0 -131 -45 -202t-158 -112l-47 97q76 28 103.5 70.5t27.5 115.5v6h-140z" />
<glyph unicode="&#x201e;" horiz-adv-x="956" d="M166 0v252h258v-227q0 -131 -45 -202t-158 -112l-47 96q76 28 103.5 71t27.5 116v6h-139zM532 0v252h259v-227q0 -131 -45 -202t-158 -112l-47 96q76 28 103.5 71t27.5 116v6h-140z" />
<glyph unicode="&#x2022;" horiz-adv-x="722" d="M166 707q0 88 54 142t140 54q87 0 142 -53t55 -143q0 -86 -55 -139.5t-142 -53.5q-85 0 -139.5 53.5t-54.5 139.5z" />
<glyph unicode="&#x2026;" horiz-adv-x="1843" d="M166 0v236h260v-236h-260zM793 0v236h260v-236h-260zM1419 0v236h260v-236h-260z" />
<glyph unicode="&#x202f;" horiz-adv-x="386" />
<glyph unicode="&#x2039;" horiz-adv-x="720" d="M63 563l416 426h201l-401 -426l399 -426h-203z" />
<glyph unicode="&#x203a;" horiz-adv-x="720" d="M41 989h201l415 -426l-411 -426h-203l399 426z" />
<glyph unicode="&#x205f;" horiz-adv-x="482" />
<glyph unicode="&#x20ac;" horiz-adv-x="1587" d="M23 526v123h143q-4 58 -4 84q0 49 2 74h-141v125h159q53 245 238 386.5t491 141.5q415 0 613 -291l-166 -100q-76 110 -187 167.5t-274 57.5q-211 0 -340.5 -95t-175.5 -267h803v-125h-824q-2 -23 -2 -72q0 -28 4 -86h822v-123h-801q49 -185 183.5 -291t340.5 -106 q143 0 263 60t204 182l154 -90q-94 -149 -253.5 -233.5t-373.5 -84.5q-125 0 -231.5 28.5t-186.5 78.5t-141.5 121t-100.5 154.5t-59 180.5h-159z" />
<glyph unicode="&#x2122;" horiz-adv-x="1986" d="M10 1346v116h785v-116h-332v-715h-139v715h-314zM883 631v831h200l238 -583q29 -67 47 -138h4q18 71 47 138l236 583h203v-831h-132v579q0 80 7 144h-4q-11 -35 -52 -133l-241 -590h-133l-242 590q-5 14 -22 57t-27 76h-4q6 -55 6 -144v-579h-131z" />
<glyph unicode="&#x25fc;" horiz-adv-x="1024" d="M0 0v1024h1024v-1024h-1024z" />
</font>
</defs>
</svg>
