<?xml version="1.0" standalone="no"?>
<!DOCTYPE svg PUBLIC "-//W3C//DTD SVG 1.1//EN" "http://www.w3.org/Graphics/SVG/1.1/DTD/svg11.dtd" >
<svg xmlns="http://www.w3.org/2000/svg" xmlns:xlink="http://www.w3.org/1999/xlink" version="1.1">
<metadata></metadata>
<defs>
<font id="gt_americaExThIt" horiz-adv-x="1548" >
<font-face units-per-em="2048" ascent="1638" descent="-410" />
<missing-glyph horiz-adv-x="702" />
<glyph unicode="&#xfb01;" horiz-adv-x="1368" d="M133 936l17 88h247l29 168q29 152 110 230.5t228 78.5q94 0 180 -33l-16 -92q-76 31 -164 31q-109 0 -161.5 -56.5t-74.5 -172.5l-26 -154h362l-16 -88h-361l-165 -936h-105l164 936h-248zM952 0l181 1024h104l-180 -1024h-105zM1151 1200l41 238h121l-43 -238h-119z" />
<glyph unicode="&#xfb02;" horiz-adv-x="1388" d="M133 936l17 88h247l29 168q29 152 110 230.5t228 78.5q94 0 180 -33l-16 -92q-76 31 -164 31q-109 0 -161.5 -56.5t-74.5 -172.5l-26 -154h362l-16 -88h-361l-165 -936h-105l164 936h-248zM963 0l262 1485h104l-262 -1485h-104z" />
<glyph horiz-adv-x="0" />
<glyph horiz-adv-x="0" />
<glyph horiz-adv-x="682" />
<glyph unicode="&#xd;" horiz-adv-x="0" />
<glyph unicode=" "  horiz-adv-x="702" />
<glyph unicode="&#x09;" horiz-adv-x="702" />
<glyph unicode="&#xa0;" horiz-adv-x="702" />
<glyph unicode="!" horiz-adv-x="626" d="M152 0l36 205h142l-37 -205h-141zM252 387l166 1098h135l-221 -1098h-80z" />
<glyph unicode="&#x22;" horiz-adv-x="724" d="M274 973l64 481h115l-107 -481h-72zM541 973l63 481h115l-107 -481h-71z" />
<glyph unicode="#" horiz-adv-x="1329" d="M39 442v82h299l72 375h-289v82h303l84 438h98l-84 -438h443l84 438h98l-84 -438h289v-82h-303l-72 -375h305v-82h-321l-84 -442h-99l84 442h-442l-84 -442h-98l84 442h-283zM436 524h443l71 375h-442z" />
<glyph unicode="$" horiz-adv-x="1474" d="M82 428l119 14q-3 -92 26 -161.5t86 -113t130 -68t167 -33.5l111 630l-78 15q-193 38 -291 125t-98 235q0 82 32.5 150.5t99.5 123t182 85t268 30.5h20l31 174h80l-31 -178q109 -8 195.5 -34.5t153 -75t102 -125t34.5 -177.5l-116 -20q1 164 -98.5 245t-286.5 95 l-103 -578l127 -22q195 -41 289 -129.5t94 -249.5q0 -90 -32.5 -163.5t-101 -132.5t-187 -91.5t-277.5 -32.5h-55l-33 -180h-80l33 186q-117 11 -209 42.5t-162.5 85t-107 137.5t-33.5 192zM373 1079q0 -108 77 -171t246 -99l43 -8l101 565h-9q-103 0 -184 -16t-131.5 -42.5 t-83.5 -64t-46 -78t-13 -86.5zM690 59h41q243 0 361 85t118 233q0 128 -77.5 192t-243.5 97l-90 16z" />
<glyph unicode="%" horiz-adv-x="1820" d="M168 1051q0 58 13.5 115t44.5 111.5t76 95.5t113 66t150 25q52 0 100 -10t94 -33.5t79.5 -58.5t54 -90t20.5 -123q0 -73 -23.5 -143.5t-69.5 -132.5t-126 -100t-182 -38q-50 0 -97 9.5t-93 33t-79.5 59t-54 90.5t-20.5 124zM242 -33l1302 1512h109l-1301 -1512h-110z M262 1057q0 -68 23 -117t61.5 -74.5t79.5 -37t86 -11.5q78 0 139.5 30.5t96.5 80t53 105.5t18 112q0 54 -16 96.5t-40.5 68.5t-59 42.5t-67.5 23t-69 6.5q-63 0 -115.5 -20t-87 -53t-58 -76t-34 -87t-10.5 -89zM977 281q0 58 13.5 115t44.5 111.5t76 95.5t113 66t150 25 q52 0 100 -10t94 -33.5t79.5 -58.5t54 -90t20.5 -123q0 -73 -23.5 -143.5t-69.5 -132.5t-126 -100t-182 -38q-50 0 -97 9.5t-93 33t-79.5 59t-54 90.5t-20.5 124zM1071 287q0 -68 23 -117t61.5 -74.5t79.5 -37t86 -11.5q78 0 139.5 30.5t96.5 80t53 105.5t18 112 q0 54 -16 96.5t-40.5 68.5t-59 42.5t-67.5 23t-69 6.5q-63 0 -115.5 -20t-87 -53t-58 -76t-34 -87t-10.5 -89z" />
<glyph unicode="&#x26;" horiz-adv-x="1525" d="M51 326q0 138 90.5 249t300.5 199l31 12q-72 101 -111.5 186t-39.5 181q0 50 11 98t38 95.5t68 83t106.5 57.5t148.5 22q53 0 100 -8t94 -28.5t80.5 -53t54.5 -86.5t21 -123q0 -57 -16.5 -111.5t-53.5 -111t-107 -108.5t-167 -93l-69 -28l411 -504q185 194 261 541 l102 -13q-81 -384 -299 -600q54 -55 102.5 -78.5t110.5 -23.5q51 0 104 16l-16 -98q-53 -18 -121 -18q-141 0 -264 129q-203 -152 -483 -152q-55 0 -106.5 6t-109 20.5t-104.5 42.5t-86 67t-60.5 99t-21.5 134zM166 336q0 -71 28.5 -125t69 -83t96.5 -47t100.5 -23t90.5 -5 q239 0 410 129l-433 533l-41 -17q-321 -136 -321 -362zM434 1161q0 -81 34 -159t105 -175l74 31q287 115 287 342q0 65 -21.5 111t-58.5 68.5t-75.5 32t-84.5 9.5q-76 0 -130.5 -25t-81 -66.5t-37.5 -82.5t-11 -86z" />
<glyph unicode="'" horiz-adv-x="458" d="M274 973l64 481h115l-107 -481h-72z" />
<glyph unicode="(" horiz-adv-x="665" d="M160 514q0 156 33.5 298.5t86 250t130.5 207t152 169t165 138.5l84 -45q-99 -81 -171.5 -150.5t-147 -165.5t-120.5 -195t-75 -229.5t-29 -279.5q0 -371 234 -735l-88 -41q-126 179 -190 382t-64 396z" />
<glyph unicode=")" horiz-adv-x="665" d="M-94 -219q99 81 171.5 150.5t147 165.5t120.5 195t75 229.5t29 279.5q0 371 -234 735l88 41q126 -179 190 -382t64 -396q0 -156 -33.5 -298.5t-86 -250t-130.5 -207t-152 -169t-165 -138.5z" />
<glyph unicode="*" horiz-adv-x="716" d="M188 1239l43 86l228 -98l22 252h94l-61 -250l256 96l14 -90l-264 -61l144 -203l-84 -58l-107 234l-190 -234l-66 62l209 201z" />
<glyph unicode="+" horiz-adv-x="1288" d="M143 629l17 90h467l73 420h105l-74 -420h469l-14 -90h-471l-78 -443h-105l78 443h-467z" />
<glyph unicode="," horiz-adv-x="495" d="M29 -195q50 15 83.5 55.5t49.5 123.5l2 16h-78l37 217h149l-36 -211q-24 -125 -71 -179t-116 -77z" />
<glyph unicode="-" horiz-adv-x="1005" d="M125 522l16 99h762l-18 -99h-760z" />
<glyph unicode="." horiz-adv-x="489" d="M82 0l37 211h145l-37 -211h-145z" />
<glyph unicode="/" horiz-adv-x="1040" d="M-33 -240l1053 1796h104l-1052 -1796h-105z" />
<glyph unicode="0" horiz-adv-x="1495" d="M150 569q0 83 11 167t36.5 173t63 168.5t94.5 150.5t127 122.5t164.5 81.5t203.5 30q89 0 167.5 -18t153 -62t127.5 -111.5t85 -174t32 -242.5q0 -83 -11 -167t-36.5 -173t-63 -168.5t-94.5 -150.5t-127 -122.5t-164.5 -81.5t-203.5 -30q-89 0 -167.5 18t-153 62 t-127.5 111.5t-85 174t-32 242.5zM260 565q0 -118 27.5 -209.5t72 -147.5t106 -92t122.5 -49.5t129 -13.5q108 0 198 36.5t152.5 100t109.5 143t73.5 172t39.5 180t13 173.5q0 118 -27.5 209.5t-72 147.5t-105.5 92t-122 49.5t-128 13.5q-128 0 -231.5 -53t-168.5 -136 t-109 -192t-61.5 -214.5t-17.5 -209.5z" />
<glyph unicode="1" horiz-adv-x="845" d="M166 1053l16 98h47q147 0 252.5 71.5t149.5 200.5h92l-252 -1423h-109l213 1206q-103 -153 -348 -153h-61z" />
<glyph unicode="2" horiz-adv-x="1316" d="M2 0l16 100q531 257 809 469q161 121 240.5 237.5t79.5 250.5q0 73 -23.5 129t-60.5 89.5t-90 55t-105.5 29.5t-113.5 8q-95 0 -170 -20.5t-123 -55t-79.5 -83t-45.5 -100.5t-17 -112q-3 -47 0 -82l-110 11q-4 47 -2 84q2 69 20.5 131.5t60.5 122t103.5 103t155.5 69.5 t211 26q79 0 149 -11.5t137.5 -39.5t115.5 -72t77 -113.5t29 -158.5q0 -87 -27 -165t-81 -148t-115.5 -127t-149.5 -123q-277 -208 -676 -404h916l-17 -100h-1114z" />
<glyph unicode="3" horiz-adv-x="1382" d="M90 406l111 12q6 -91 38 -158.5t76.5 -106t108 -62t121 -31t125.5 -7.5q96 0 172 18.5t127 50.5t84.5 76.5t48 94.5t14.5 106q0 151 -97.5 222t-268.5 71h-142l17 92h145q197 0 307.5 83.5t110.5 230.5q0 78 -36 134t-97.5 84.5t-127 41t-139.5 12.5q-221 0 -334 -100 t-135 -273l-102 17q13 99 51.5 178.5t106.5 141t174 95t244 33.5q78 0 148 -10.5t137.5 -36t116 -65t78.5 -101.5t30 -141q0 -155 -104.5 -252.5t-283.5 -118.5q140 -15 227 -97t87 -237q0 -68 -18 -130t-60 -120t-105 -100t-159.5 -67t-216.5 -25q-87 0 -162.5 11t-153 41 t-133 78t-92 129t-39.5 186z" />
<glyph unicode="4" horiz-adv-x="1329" d="M12 389l15 78l1003 956h117l-168 -946h291l-17 -88h-288l-70 -389h-104l67 389h-846zM154 477h720l130 692q15 88 30 160h-2q-45 -63 -121 -133l-622 -598q-81 -75 -135 -121z" />
<glyph unicode="5" horiz-adv-x="1341" d="M90 352l115 17q11 -73 41 -129t70.5 -90.5t94.5 -56.5t107.5 -30t114.5 -8q110 0 196.5 28.5t139.5 73.5t87 107t47 123t13 127q0 84 -24 148.5t-62 103t-90.5 63t-104 33t-108.5 8.5q-173 0 -280 -70.5t-177 -209.5l-106 10l227 823h926l-19 -96h-843l-168 -604 q61 115 181.5 178.5t276.5 63.5q71 0 136 -12t129.5 -43.5t112 -80t77 -126.5t29.5 -177q0 -87 -20.5 -167t-67 -153t-114.5 -127t-171 -86t-229 -32q-99 0 -184.5 20t-162 63t-127 121.5t-63.5 186.5z" />
<glyph unicode="6" horiz-adv-x="1411" d="M145 578q0 84 10.5 168t34.5 172t61 166.5t94 148.5t127.5 120t167.5 79.5t210 29.5q68 0 131.5 -10t130.5 -37t117.5 -69t86.5 -110.5t44 -156.5l-111 -22q-10 72 -39 128t-68 90.5t-89.5 56t-99.5 30t-103 8.5q-126 0 -227.5 -44t-166.5 -115t-109.5 -168.5t-65 -196 t-25.5 -205.5q64 150 200 230.5t320 80.5q78 0 149 -14.5t138 -48.5t115.5 -85t78 -130t29.5 -178q0 -104 -33.5 -197t-99.5 -170t-178.5 -122.5t-257.5 -45.5q-91 0 -170.5 17.5t-154.5 62t-128.5 113t-86 177t-32.5 247.5zM256 506q7 -102 37.5 -182t74.5 -130 t103.5 -82.5t120.5 -45.5t129 -13q98 0 176.5 25.5t129.5 67.5t84.5 99.5t48 118.5t14.5 128q0 85 -25 151t-65 105.5t-95.5 65t-109 35t-113.5 9.5q-187 0 -319 -92.5t-191 -259.5z" />
<glyph unicode="7" horiz-adv-x="1196" d="M205 1325l18 98h1086l-17 -90q-362 -245 -584 -577.5t-268 -700.5l-8 -55h-123l6 41q50 363 264.5 694t581.5 590h-956z" />
<glyph unicode="8" horiz-adv-x="1400" d="M86 340q0 73 24.5 135.5t76 118t142 95.5t214.5 59q-283 86 -283 327q0 59 15.5 112t55.5 104.5t100.5 88.5t157.5 59.5t220 22.5q75 0 144.5 -9t141.5 -33t124.5 -61.5t86 -100t33.5 -142.5q0 -138 -102.5 -233t-323.5 -129q56 -15 100 -32.5t92.5 -48t80.5 -68.5 t53 -95t21 -127q0 -67 -18 -126t-61.5 -114.5t-110 -95t-170 -63t-234.5 -23.5q-91 0 -171.5 11t-157 38.5t-131 69.5t-87.5 108.5t-33 151.5zM203 352q0 -59 19.5 -106t54.5 -79t79 -55t98.5 -35.5t107 -18t110.5 -5.5q111 0 196 19.5t137 50.5t85 74.5t45 87t12 92.5 q0 231 -313 305l-164 35q-467 -65 -467 -365zM373 1085q0 -211 284 -274l144 -33q124 22 209.5 56t131.5 77.5t65.5 90t19.5 102.5t-19 101t-52.5 74t-73.5 49.5t-88.5 30.5t-90.5 14.5t-86 4.5q-106 0 -187 -18.5t-128.5 -47t-77.5 -68.5t-40.5 -78t-10.5 -81z" />
<glyph unicode="9" horiz-adv-x="1419" d="M125 354l111 23q5 -76 34 -135.5t70.5 -94t96 -56.5t104.5 -30t102 -8q103 0 188.5 26.5t145 70t105 106.5t73 128.5t45 144t24.5 145t9 139.5q-67 -131 -198.5 -210t-332.5 -79q-72 0 -140.5 14t-135 46.5t-116.5 81.5t-80.5 125.5t-30.5 171.5q0 72 16 139t57.5 134 t104 116t164 79.5t229.5 30.5q86 0 161 -15t152.5 -56.5t132 -107.5t89 -176.5t34.5 -254.5q0 -58 -3 -113t-13 -125t-25.5 -132.5t-43 -129.5t-63.5 -122.5t-89 -106.5t-118 -86t-151.5 -55.5t-187.5 -20.5q-57 0 -110.5 7t-113 22.5t-109 45t-91 71.5t-67 105t-29.5 142z M311 967q0 -81 26.5 -144.5t67 -101t96.5 -61.5t108 -33t108 -9q194 0 323.5 88.5t188.5 237.5q-9 102 -42.5 180.5t-78.5 124t-105 74t-114.5 38t-114.5 9.5q-109 0 -193 -25.5t-134 -65t-81.5 -95t-43 -107.5t-11.5 -110z" />
<glyph unicode=":" horiz-adv-x="489" d="M82 0l37 211h145l-37 -211h-145zM225 813l37 211h146l-37 -211h-146z" />
<glyph unicode=";" horiz-adv-x="524" d="M57 -195q50 15 83.5 55.5t49.5 123.5l3 16h-78l37 217h149l-37 -211q-13 -66 -33 -113.5t-46.5 -75t-50.5 -42t-56 -25.5zM238 813l36 211h146l-37 -211h-145z" />
<glyph unicode="&#x3c;" horiz-adv-x="1521" d="M342 625l16 86l1108 450l-16 -108l-975 -394l838 -389l-21 -96z" />
<glyph unicode="=" horiz-adv-x="1286" d="M111 442l16 99h1042l-18 -99h-1040zM174 807l19 98h1040l-16 -98h-1043z" />
<glyph unicode="&#x3e;" horiz-adv-x="1521" d="M111 174l16 109l975 393l-838 389l21 96l950 -450l-16 -86z" />
<glyph unicode="?" horiz-adv-x="1185" d="M162 1065q0 61 15.5 119t54.5 118t99 104.5t158 72.5t222 28q102 0 189.5 -19.5t161.5 -60.5t116.5 -115t42.5 -173q0 -133 -77 -240t-220 -176l-158 -74q-83 -43 -116 -93.5t-48 -133.5l-10 -64h-111l13 76q19 105 63 171t150 116l170 80q227 109 227 325 q0 81 -34.5 139.5t-94 88.5t-124.5 43.5t-140 13.5q-102 0 -180.5 -22.5t-125.5 -57.5t-77 -83.5t-41 -95.5t-11 -99q0 -40 7 -80l-115 12q-6 25 -6 80zM406 0l36 209h140l-37 -209h-139z" />
<glyph unicode="@" horiz-adv-x="1929" d="M111 508q0 85 13.5 166.5t45 167t79.5 159.5t122.5 140t168 113t221 74.5t277.5 27.5q133 0 248.5 -21t220 -71t179 -125.5t118 -191.5t43.5 -263q0 -108 -23.5 -203t-69 -169.5t-119 -118t-167.5 -43.5q-103 0 -157.5 52t-50.5 150q-57 -102 -171.5 -161.5t-254.5 -59.5 q-47 0 -89.5 6t-85.5 23t-74.5 43t-51 69t-19.5 99q0 249 385 268l393 18l4 35q10 73 -7 125t-56.5 80.5t-89 41.5t-113.5 13q-70 0 -122.5 -12.5t-84.5 -31t-54.5 -48.5t-32.5 -56.5t-19 -64.5h-101q12 63 37 112.5t71.5 92.5t124 66.5t181.5 23.5q47 0 88 -5t82.5 -17 t73 -32t59 -49t41 -68t19 -90t-6.5 -114l-38 -221q-39 -209 127 -209q74 0 130 40t87.5 106.5t47 143.5t15.5 161q0 135 -41 240.5t-108 171.5t-162 108.5t-193.5 59t-210.5 16.5q-137 0 -253.5 -25t-200.5 -68t-150.5 -103.5t-108.5 -127.5t-69.5 -144t-39 -149t-11.5 -147 q0 -144 45 -258.5t115.5 -184.5t165 -117t186 -65t186.5 -18q217 0 430 70l17 -76q-205 -76 -441 -76q-113 0 -221 21.5t-215 75t-186 133t-128.5 206.5t-49.5 285zM618 373q0 -162 222 -162q163 0 282 82.5t144 216.5l14 76l-379 -19q-283 -15 -283 -194z" />
<glyph unicode="A" d="M-35 0l918 1454h114l408 -1454h-117l-108 410h-832l-254 -410h-129zM410 510h743l-166 620q-46 161 -55 224h-4q-31 -61 -135 -224z" />
<glyph unicode="B" horiz-adv-x="1583" d="M150 0l253 1454h680q203 0 310.5 -87.5t107.5 -246.5q0 -145 -85.5 -245.5t-262.5 -126.5q126 -19 195 -99.5t69 -216.5q0 -92 -29.5 -168t-91 -136.5t-167.5 -94t-248 -33.5h-731zM283 100h596q116 0 200 25.5t131 72.5t68.5 105t21.5 131q0 131 -78 197.5t-243 66.5 h-590zM406 797h583q75 0 136 12.5t103.5 34.5t73 51t47.5 64.5t25 71.5t8 75q0 248 -309 248h-569z" />
<glyph unicode="C" horiz-adv-x="1648" d="M131 606q0 108 21 212t62.5 205t111 186t160.5 150t217 101.5t274 36.5q137 0 248.5 -30.5t197.5 -93t137 -165t58 -239.5l-119 -11q-7 115 -49 200.5t-112.5 137t-162 76.5t-204.5 25q-110 0 -205.5 -25t-167.5 -68t-130.5 -103.5t-98 -129.5t-65.5 -147t-38 -155.5 t-12 -156.5q0 -126 31.5 -223.5t83.5 -159t126 -101t152.5 -55.5t169.5 -16q235 0 380.5 105t217.5 315l115 -16q-83 -246 -256.5 -375t-458.5 -129q-115 0 -214 21t-187 69.5t-149.5 122t-97.5 184.5t-36 252z" />
<glyph unicode="D" horiz-adv-x="1691" d="M145 0l256 1454h545q118 0 217.5 -19.5t188.5 -65.5t150.5 -116.5t97.5 -178t36 -245.5q0 -109 -22.5 -209.5t-67.5 -194.5t-119.5 -170.5t-173.5 -134t-234 -89t-296 -31.5h-578zM281 100h448q125 0 232 22t186 60.5t142 92.5t104.5 116.5t69 135.5t39 145t11.5 149 q0 533 -573 533h-438z" />
<glyph unicode="E" horiz-adv-x="1484" d="M152 0l256 1454h1075l-19 -98h-958l-98 -561h923l-16 -99h-926l-104 -598h972l-16 -98h-1089z" />
<glyph unicode="F" horiz-adv-x="1419" d="M152 0l256 1454h1075l-19 -98h-958l-98 -561h923l-16 -101h-926l-121 -694h-116z" />
<glyph unicode="G" horiz-adv-x="1699" d="M129 592q0 110 21 216.5t63.5 209t112 188.5t161 151.5t217 102.5t273.5 37q103 0 192 -16.5t165.5 -52.5t133.5 -89.5t94 -130.5t48 -172l-121 -16q-14 102 -59.5 176.5t-116 117.5t-155.5 63t-189 20q-110 0 -206 -25t-168 -69t-130.5 -105.5t-98 -132t-66 -151 t-38.5 -160.5t-12 -162q0 -118 28.5 -210t77 -152.5t118 -100t146.5 -56t168 -16.5q119 0 222 31.5t174.5 82t126 118t84.5 136.5t43 140l12 80h-584l19 100h690l-131 -745h-90l41 305q-84 -166 -243 -257t-376 -91q-106 0 -198.5 20.5t-176 68.5t-143 119.5t-94.5 180.5 t-35 246z" />
<glyph unicode="H" horiz-adv-x="1746" d="M152 0l256 1454h116l-116 -659h1032l116 659h115l-256 -1454h-115l123 694h-1032l-123 -694h-116z" />
<glyph unicode="I" horiz-adv-x="598" d="M152 0l256 1454h116l-256 -1454h-116z" />
<glyph unicode="J" horiz-adv-x="876" d="M-45 2l20 109q115 -35 222 -35q144 0 229 74.5t115 248.5l186 1055h115l-189 -1071q-40 -223 -154.5 -319.5t-305.5 -96.5q-112 0 -238 35z" />
<glyph unicode="K" horiz-adv-x="1556" d="M152 0l256 1454h116l-153 -872l1083 872h156l-692 -561l479 -893h-137l-435 815l-481 -383l-76 -432h-116z" />
<glyph unicode="L" horiz-adv-x="1325" d="M152 0l256 1454h116l-239 -1354h905l-16 -100h-1022z" />
<glyph unicode="M" horiz-adv-x="2041" d="M152 0l256 1454h163l355 -1243q13 -52 16 -94h4q15 32 51 94l797 1243h172l-256 -1454h-108l219 1225q10 72 24 121h-4q-60 -111 -67 -121l-789 -1225h-111l-354 1227q-15 54 -22 119h-6q-2 -32 -17 -121l-215 -1225h-108z" />
<glyph unicode="N" horiz-adv-x="1736" d="M152 0l256 1454h135l702 -1186q49 -87 76 -139h2q22 134 27 160l204 1165h107l-256 -1454h-127l-709 1194q-45 76 -75 141h-5q-4 -52 -22 -157l-209 -1178h-106z" />
<glyph unicode="O" horiz-adv-x="1734" d="M131 614q0 90 14.5 178t46.5 176t79 165.5t116 145t153.5 115.5t195.5 75.5t237 27.5q113 0 212 -20t191.5 -68.5t158 -122t105 -187.5t39.5 -259q0 -127 -28.5 -249.5t-94 -238.5t-160.5 -202.5t-239.5 -139.5t-320.5 -53q-112 0 -211 20t-191.5 68.5t-158 122 t-105 187.5t-39.5 259zM254 616q0 -127 34 -226t89.5 -160.5t134 -101.5t159 -55.5t171.5 -15.5q152 0 275.5 48t203.5 126t134.5 181.5t77.5 209.5t23 216q0 127 -34 226t-89.5 160.5t-133.5 101.5t-158.5 55.5t-171.5 15.5q-152 0 -275.5 -48t-204 -126t-135 -181.5 t-77.5 -209.5t-23 -216z" />
<glyph unicode="P" horiz-adv-x="1458" d="M145 0l258 1454h631q74 0 138 -10.5t124.5 -37t103.5 -68t69 -107.5t26 -150q0 -70 -17 -134t-59 -126t-105.5 -107t-165.5 -72.5t-230 -27.5h-545l-109 -614h-119zM391 715h522q106 0 188.5 22t132 57t81.5 84t43.5 97t11.5 102q0 66 -19 116t-50 80t-77 48.5 t-92.5 25.5t-103.5 7h-524z" />
<glyph unicode="Q" horiz-adv-x="1763" d="M131 614q0 90 14.5 178t46.5 176t79 165.5t116 145t153.5 115.5t195.5 75.5t237 27.5q113 0 212 -20t191.5 -68.5t158 -122t105 -187.5t39.5 -259q0 -132 -32 -258.5t-97 -243t-175.5 -206.5t-254.5 -134q78 -160 291 -160q53 0 135 12l-18 -104q-86 -12 -131 -12 q-142 0 -240.5 59.5t-140.5 177.5q-96 -14 -180 -14q-112 0 -211 20t-191.5 68.5t-158 122t-105 187.5t-39.5 259zM254 616q0 -127 34 -226t89.5 -160.5t134 -101.5t159 -55.5t171.5 -15.5q152 0 275.5 48t203.5 126t134.5 181.5t77.5 209.5t23 216q0 127 -34 226 t-89.5 160.5t-133.5 101.5t-158.5 55.5t-171.5 15.5q-152 0 -275.5 -48t-204 -126t-135 -181.5t-77.5 -209.5t-23 -216z" />
<glyph unicode="R" horiz-adv-x="1552" d="M145 0l258 1454h635q76 0 141.5 -11t124.5 -37t100.5 -67t66 -104.5t24.5 -144.5q0 -78 -22 -146.5t-71 -131.5t-139 -106.5t-214 -58.5l299 -647h-138l-288 637h-545l-113 -637h-119zM393 737h525q106 0 187.5 21t131 54t81 80t43 93.5t11.5 99.5q0 269 -338 269h-532z " />
<glyph unicode="S" horiz-adv-x="1499" d="M86 453l121 14v-13q0 -80 22 -144q24 -70 70.5 -117.5t115 -78.5t152 -45t185.5 -14q241 0 358 91t117 241q0 126 -76 188t-242 93l-256 45q-199 39 -298 130t-99 244q0 86 33 158t100.5 129.5t183.5 90t271 32.5q107 0 195.5 -14.5t164.5 -47t128 -83.5q52 -50 80 -126 q28 -73 28 -166v-7l-121 -21q1 199 -121 283t-354 84q-104 0 -185.5 -17t-132.5 -45.5t-84.5 -68.5t-47 -82t-13.5 -90q0 -114 78 -180t243 -99l261 -47q195 -39 292 -125.5t97 -253.5q0 -93 -33 -169t-103 -136.5t-191 -94.5t-284 -34q-152 0 -271.5 28t-207.5 86t-134 155 q-42 89 -42 206v21z" />
<glyph unicode="T" horiz-adv-x="1302" d="M170 1356l16 98h1262l-16 -98h-574l-240 -1356h-114l239 1356h-573z" />
<glyph unicode="U" horiz-adv-x="1650" d="M216 320q-11 59 -12 129q0 80 15 174l148 831h116l-149 -846q-16 -79 -16 -145q0 -35 4 -66q12 -91 49 -155.5t100.5 -105t141 -59t173.5 -18.5q95 0 172.5 18t134.5 53.5t99.5 80.5t72.5 107t49.5 125t33.5 141l153 870h117l-158 -893q-19 -107 -49.5 -193t-84 -164.5 t-126.5 -130.5t-180 -83t-242 -31q-151 0 -265 37.5t-193.5 117.5t-103.5 206z" />
<glyph unicode="V" horiz-adv-x="1421" d="M178 1454h121l301 -1165q29 -129 33 -174h6q26 57 94 174l713 1165h129l-891 -1454h-127z" />
<glyph unicode="W" horiz-adv-x="2174" d="M219 1454h119l154 -1261q8 -70 8 -76h2q2 5 7 16t13.5 29t14.5 31l655 1261h119l209 -1261q10 -58 10 -76h2q2 5 14 31t19 45l600 1261h123l-703 -1454h-139l-203 1241q-8 33 -8 78h-6q-9 -31 -35 -78l-641 -1241h-141z" />
<glyph unicode="X" horiz-adv-x="1458" d="M-55 0l757 760l-458 694h137l352 -539q40 -70 47 -88h4q29 39 76 86l541 541h145l-700 -702l489 -752h-141l-367 575q-40 64 -59 109h-4q-41 -49 -98 -109l-572 -575h-149z" />
<glyph unicode="Y" horiz-adv-x="1374" d="M174 1454h131l346 -663q41 -73 56 -121h4q22 41 96 121l582 663h143l-778 -883l-101 -571h-116l100 571z" />
<glyph unicode="Z" horiz-adv-x="1384" d="M2 0l18 102l1266 1254h-1005l16 98h1153l-18 -100l-1270 -1256h1083l-16 -98h-1227z" />
<glyph unicode="[" horiz-adv-x="741" d="M109 -240l317 1796h432l-16 -88h-334l-285 -1620h332l-14 -88h-432z" />
<glyph unicode="\" horiz-adv-x="1675" d="M285 1556h104l1053 -1796h-105z" />
<glyph unicode="]" horiz-adv-x="739" d="M-66 -240l17 88h334l284 1620h-331l14 88h432l-317 -1796h-433z" />
<glyph unicode="^" horiz-adv-x="913" d="M109 899l473 553h82l278 -553h-96l-230 461l-391 -461h-116z" />
<glyph unicode="_" horiz-adv-x="1038" d="M-139 -285l12 78h1040l-14 -78h-1038z" />
<glyph unicode="`" horiz-adv-x="1228" d="M223 1487h137l322 -299h-111z" />
<glyph unicode="a" horiz-adv-x="1335" d="M86 258q0 127 86 207q118 109 397 125l492 24l6 37q7 39 7 74q0 110 -69 167q-90 75 -280 75q-365 0 -414 -262h-112q28 168 162 260t366 92q244 0 362 -103q89 -78 90 -225q0 -47 -10 -102l-45 -258q-39 -228 -39 -369h-110q3 113 26 240q-77 -135 -210 -204t-310 -69 q-181 0 -288 71t-107 220zM199 260q0 -57 24 -98.5t66.5 -64t93.5 -32.5t113 -10q222 0 363.5 108.5t172.5 278.5l17 93l-457 -23q-393 -22 -393 -252z" />
<glyph unicode="b" horiz-adv-x="1449" d="M135 0l262 1485h107l-127 -713q68 125 190.5 205t292.5 80q70 0 135.5 -13.5t130.5 -46.5t113.5 -84t78.5 -132t30 -183q0 -88 -20.5 -174t-67.5 -169.5t-115 -146.5t-171.5 -102t-228.5 -39q-171 0 -293.5 70t-170.5 209l-58 -246h-88zM330 504q-12 -56 -12 -106 q0 -128 79 -216q110 -122 332 -121q110 0 199 35t145 90t93.5 127.5t53 143.5t15.5 141q0 86 -25.5 152.5t-64.5 105.5t-93 64t-104 34t-104 9q-192 0 -327.5 -109t-170.5 -272z" />
<glyph unicode="c" horiz-adv-x="1286" d="M94 438q0 86 18.5 169t64 166t113.5 145t175.5 100.5t241.5 38.5q75 0 142.5 -12t130 -40t109.5 -70t77.5 -107t37.5 -146l-110 -12q-6 66 -31 117.5t-62 84t-86.5 53.5t-100 29.5t-107.5 8.5q-114 0 -204 -34.5t-144 -88t-89.5 -124.5t-49 -138t-13.5 -136 q0 -86 23 -153t60.5 -109t91.5 -69.5t111 -38.5t123 -11q173 0 273 75t149 214l107 -14q-124 -369 -531 -369q-82 0 -155 14t-141 48.5t-116.5 87t-78 134.5t-29.5 187z" />
<glyph unicode="d" horiz-adv-x="1449" d="M104 434q0 88 20.5 174t67 168t113.5 144t168 99.5t223 37.5q173 0 297.5 -76.5t171.5 -216.5l125 721h107l-262 -1485h-103l41 240q-62 -120 -180 -196.5t-291 -76.5q-73 0 -141 14t-134 48.5t-114.5 86.5t-78.5 134t-30 184zM217 438q0 -87 25.5 -154.5t65.5 -108.5 t95 -67.5t109 -36.5t113 -10q85 0 159.5 23t128.5 61.5t96.5 90t67 106.5t35.5 113l10 51q8 46 8 88q0 52 -12 100q-24 86 -81.5 145t-144.5 91.5t-192 32.5q-102 0 -185.5 -33t-137.5 -86t-91 -122.5t-53 -140.5t-16 -143z" />
<glyph unicode="e" horiz-adv-x="1306" d="M94 434q0 90 20 175.5t66.5 167.5t115 143.5t174 99t235.5 37.5q108 0 197.5 -25t157 -74.5t105 -129t37.5 -183.5q0 -81 -20 -151h-977q-2 -16 -2 -50q0 -90 25.5 -159t66.5 -110.5t98 -68t113.5 -36t120.5 -9.5q88 0 157.5 19t119 55.5t84 82.5t61.5 108l90 -37 q-142 -322 -512 -322q-74 0 -142.5 11.5t-142 43.5t-126.5 82t-87.5 135t-34.5 195zM215 580h877q8 58 8 79q0 81 -33 143t-90 98t-126 53.5t-149 17.5q-108 0 -195 -31t-145 -86t-94 -123.5t-53 -150.5z" />
<glyph unicode="f" horiz-adv-x="821" d="M133 936l17 88h247l29 168q29 152 110 230.5t228 78.5q94 0 180 -33l-16 -92q-76 31 -164 31q-109 0 -161.5 -56.5t-74.5 -172.5l-26 -154h362l-16 -88h-361l-165 -936h-105l164 936h-248z" />
<glyph unicode="g" horiz-adv-x="1300" d="M-18 -162q0 89 58 152.5t175 95.5q-109 46 -109 150q0 72 52 125.5t161 80.5q-102 79 -102 226q0 57 15.5 110.5t53 105t93 89.5t141.5 61t193 23q175 0 288 -62q30 86 99.5 134.5t169.5 48.5q41 0 73 -11l-16 -94q-30 10 -72 10q-152 0 -202 -125q92 -76 92 -215 q0 -58 -15.5 -111.5t-53 -104.5t-93 -89t-141.5 -61t-193 -23q-167 0 -276 56q-80 -17 -120 -56t-40 -92q0 -54 45.5 -80.5t147.5 -29.5l364 -7q80 -2 139.5 -13.5t108.5 -37.5t74.5 -73t25.5 -115q0 -51 -14 -94.5t-54.5 -89.5t-106 -78.5t-177.5 -53t-260 -20.5 q-120 0 -211 13t-164 42.5t-111 83t-38 129.5zM86 -139q0 -59 32.5 -100.5t93.5 -63t133.5 -30.5t168.5 -9q120 0 211 15.5t144 39t86 56.5t44 63.5t11 65.5q0 47 -17.5 78t-53 46.5t-76.5 21.5t-101 7l-367 6q-32 0 -102 9q-105 -25 -156 -79t-51 -126zM324 678 q0 -58 20.5 -102t52.5 -69.5t77 -41.5t87 -21.5t90 -5.5q108 0 186.5 26t120.5 70.5t61 94t19 104.5q0 58 -20.5 102t-52.5 69.5t-77.5 41.5t-87.5 21.5t-89 5.5q-87 0 -156 -18t-111.5 -47t-70 -68.5t-38.5 -79t-11 -82.5z" />
<glyph unicode="h" horiz-adv-x="1433" d="M141 0l262 1485h105l-127 -723q61 129 178.5 212t296.5 83q64 0 121 -11.5t111 -39.5t92.5 -71t62 -112t23.5 -157q0 -73 -19 -168l-88 -498h-104l90 506q12 77 12 143q0 90 -28.5 154.5t-78 97.5t-103.5 47.5t-118 14.5q-112 0 -202 -39.5t-148 -107.5t-93.5 -148.5 t-51.5 -173.5l-88 -494h-105z" />
<glyph unicode="i" horiz-adv-x="546" d="M131 0l180 1024h105l-180 -1024h-105zM330 1200l41 238h121l-43 -238h-119z" />
<glyph unicode="j" horiz-adv-x="552" d="M-233 -389l16 92q70 -25 129 -25q92 0 139 50t66 159l200 1137h107l-205 -1149q-26 -146 -94.5 -218.5t-204.5 -72.5q-77 0 -153 27zM334 1200l41 238h121l-43 -238h-119z" />
<glyph unicode="k" horiz-adv-x="1286" d="M141 0l262 1485h105l-184 -1043l790 582h150l-512 -385l366 -639h-125l-325 580l-367 -263l-55 -317h-105z" />
<glyph unicode="l" horiz-adv-x="567" d="M141 0l262 1485h105l-262 -1485h-105z" />
<glyph unicode="m" horiz-adv-x="2076" d="M131 0l180 1024h103l-43 -248q21 56 54 104t81 89t116 64.5t148 23.5q64 0 120 -15.5t106 -49t82 -94.5t38 -144q124 303 424 303q56 0 106.5 -10.5t100.5 -37.5t86 -68t58 -107.5t22 -151.5q0 -58 -17 -152l-94 -530h-106l94 530q12 59 12 132q0 84 -24 145t-66 93.5 t-90.5 47.5t-105.5 15q-73 0 -134 -24t-105 -64.5t-78 -97.5t-55 -119t-34 -134l-92 -524h-105l97 541q12 74 12 131q0 84 -25 144t-68 90.5t-89.5 43.5t-100.5 13q-93 0 -166.5 -36t-121.5 -101t-78 -142.5t-47 -173.5l-90 -510h-105z" />
<glyph unicode="n" horiz-adv-x="1423" d="M131 0l180 1024h103l-49 -268q140 299 475 299q59 0 111 -9t109 -35.5t97.5 -69.5t67 -117t26.5 -171q0 -68 -16 -166l-86 -487h-105l89 498q14 89 14 139q0 77 -21 136.5t-54 94.5t-79.5 57t-91 30t-94.5 8q-91 0 -166.5 -28t-128 -74t-92 -109.5t-62.5 -129t-36 -139.5 l-86 -483h-105z" />
<glyph unicode="o" horiz-adv-x="1337" d="M96 442q0 89 20 173.5t66.5 165.5t115 141.5t173.5 97.5t234 37q84 0 158.5 -14.5t145 -49t121 -87.5t81 -136t30.5 -188q0 -89 -20 -173.5t-66 -165.5t-114.5 -141.5t-173.5 -97.5t-234 -37q-84 0 -158.5 14.5t-145 49t-121.5 87.5t-81.5 136t-30.5 188zM209 449 q0 -108 36.5 -186t99.5 -120.5t136 -62t158 -19.5q106 0 192 32.5t140.5 84t91.5 120.5t52 137.5t15 139.5q0 87 -25 155t-65.5 111t-97.5 71t-117 39.5t-127 11.5q-106 0 -192 -32.5t-140 -84t-90.5 -120.5t-51.5 -137.5t-15 -139.5z" />
<glyph unicode="p" horiz-adv-x="1441" d="M55 -399l252 1423h105l-47 -260q62 126 185 209.5t300 83.5q70 0 135.5 -13.5t131 -46.5t114 -83.5t78.5 -131t30 -182.5q0 -88 -20.5 -174t-67 -170t-114 -147.5t-170.5 -102.5t-228 -39q-183 0 -303.5 70.5t-159.5 204.5l-114 -641h-107zM317 485q-9 -48 -9 -91 q0 -126 80 -214q109 -119 331 -119q111 0 200 35t145 89.5t93.5 127t52.5 143.5t15 142q0 86 -25 152.5t-64 105.5t-92.5 64t-103 34t-102.5 9q-100 0 -189 -33.5t-152 -90t-106 -129t-59 -151.5z" />
<glyph unicode="q" horiz-adv-x="1441" d="M104 430q0 88 20.5 174t67 168.5t113.5 145.5t168 101t223 38q174 0 299 -74.5t172 -210.5l64 252h84l-252 -1423h-105l113 643q-63 -128 -182.5 -202.5t-288.5 -74.5q-74 0 -142.5 14.5t-134 49t-113.5 86t-77 132t-29 181.5zM217 436q0 -85 24.5 -152t64.5 -108 t94.5 -67.5t108.5 -37t114 -10.5q103 0 190 32.5t147 88t98.5 125t53.5 148.5l8 51q8 46 8 88q0 53 -12 100q-24 87 -81.5 145.5t-144 91t-190.5 32.5q-102 0 -185.5 -33.5t-137.5 -87t-91 -124t-53 -141t-16 -141.5z" />
<glyph unicode="r" horiz-adv-x="839" d="M131 0l180 1024h101l-58 -319q28 79 63 138t84.5 108t119.5 74.5t157 25.5q48 0 107 -15l-19 -102q-49 14 -104 14q-148 0 -246 -88q-73 -62 -124.5 -165.5t-74.5 -235.5l-81 -459h-105z" />
<glyph unicode="s" horiz-adv-x="1216" d="M70 328l106 18q3 -68 27 -119.5t61 -83t89.5 -51.5t107.5 -27.5t121 -7.5q83 0 147.5 12.5t105 33t66.5 50t36.5 61t10.5 69.5q0 76 -45 117.5t-147 58.5l-291 39q-140 24 -211.5 86t-71.5 170q0 136 115.5 219.5t343.5 83.5q453 0 479 -328l-104 -22q-8 65 -33 113 t-58.5 76t-81.5 45t-94.5 22.5t-105.5 5.5q-354 0 -354 -207q0 -72 46 -112t157 -60l296 -41q136 -23 202.5 -87.5t66.5 -174.5q0 -67 -26.5 -123t-81.5 -101t-150.5 -70.5t-223.5 -25.5q-487 0 -505 361z" />
<glyph unicode="t" horiz-adv-x="862" d="M125 936l16 88h248l47 274l115 48l-57 -322h370l-16 -88h-371l-102 -590q-9 -41 -9 -74v-14q2 -38 8.5 -66.5t22.5 -48t32.5 -32t40.5 -19.5t45.5 -9.5t47.5 -2.5q73 0 139 14l-16 -94q-74 -18 -151 -18q-54 0 -98 11t-84 36.5t-61 68.5q-22 44 -30 108q-3 21 -2 44 q0 49 12 110l101 576h-248z" />
<glyph unicode="u" horiz-adv-x="1406" d="M166 334q0 71 22 203l84 487h107l-88 -498q-21 -128 -21 -174q0 -69 19.5 -121.5t50.5 -84t74.5 -51.5t86 -27t91.5 -7q93 0 170.5 27.5t130.5 73t93 109t63 129.5t36 141l86 483h105l-180 -1024h-103l49 272q-133 -303 -477 -303q-58 0 -109 8.5t-106 32.5t-94 63 t-64.5 106t-25.5 155z" />
<glyph unicode="v" horiz-adv-x="1155" d="M113 1024h112l246 -799q23 -99 27 -123h6q21 46 71 123l527 799h121l-678 -1024h-115z" />
<glyph unicode="w" horiz-adv-x="1806" d="M143 1024h103l151 -807q13 -69 15 -119h4q13 31 61 119l455 807h117l168 -807q17 -92 18 -119h4q20 51 57 119l437 807h110l-561 -1024h-115l-174 819q-4 21 -14 105h-2q-25 -58 -53 -105l-459 -819h-121z" />
<glyph unicode="x" horiz-adv-x="1163" d="M-43 0l561 530l-354 494h129l231 -322q49 -71 70 -112h4q18 21 102 110l342 324h138l-527 -498l375 -526h-127l-254 358q-39 55 -65 109h-4q-36 -44 -105 -113l-373 -354h-143z" />
<glyph unicode="y" horiz-adv-x="1142" d="M-84 -393l16 94q51 -23 129 -23q104 0 177.5 54.5t152.5 185.5l47 78l-325 1028h112l240 -772q31 -106 41 -160h4q38 74 90 158l492 774h118l-718 -1128q-62 -98 -114 -159.5t-105 -95t-102.5 -45.5t-117.5 -12q-70 0 -137 23z" />
<glyph unicode="z" horiz-adv-x="1171" d="M18 0l17 86l954 848h-774l14 90h912l-15 -82l-956 -852h834l-17 -90h-969z" />
<glyph unicode="{" horiz-adv-x="733" d="M96 631l17 86q50 1 84.5 9t56 20.5t35 37.5t20 49t13.5 66l65 367q12 72 35 124t65 95.5t111.5 65.5t165.5 22h84l-14 -82h-60q-76 0 -129.5 -17t-85 -51t-48 -74t-26.5 -98l-63 -354q-16 -95 -55 -147.5t-123 -73.5q53 -18 79 -53.5t26.5 -81.5t-7.5 -103l-63 -352 q-6 -37 -6 -68t4.5 -54.5t15 -42t23 -31.5t29.5 -22t33 -14.5t36.5 -8.5t36.5 -4t36 -1h60l-15 -82h-65q-31 0 -57.5 2.5t-57.5 8.5t-55 17t-49 29t-39 43t-26 59t-10 78.5t9 100.5l62 344q9 59 8 101t-38.5 65.5t-117.5 24.5z" />
<glyph unicode="|" horiz-adv-x="555" d="M98 -240l318 1796h92l-318 -1796h-92z" />
<glyph unicode="}" horiz-adv-x="731" d="M-61 -242l14 82h59q76 0 129.5 17t85 51t48 74t26.5 98l64 354q16 95 55 147.5t123 73.5q-53 18 -79 53.5t-27 81.5t7 103l64 352q6 37 6 68t-4.5 54.5t-15 42t-23 31.5t-30 22t-33.5 14.5t-36.5 8.5t-36.5 4t-36 1h-59l14 82h65q31 0 57.5 -2.5t57.5 -8.5t55 -17t49 -29 t39 -43t26 -59t10 -78.5t-9 -100.5l-61 -344q-9 -59 -8 -101t38 -65.5t117 -24.5l-16 -86q-50 -1 -84.5 -9t-56 -20.5t-35 -37.5t-20 -49t-13.5 -66l-66 -366q-13 -72 -35.5 -124t-64.5 -96t-111 -66t-165 -22h-84z" />
<glyph unicode="~" horiz-adv-x="1427" d="M225 496q31 127 109.5 190.5t183.5 63.5q59 0 108.5 -19.5t85 -48t69 -56.5t75.5 -47.5t90 -19.5q78 0 128.5 40.5t78.5 137.5l84 -10q-30 -127 -108 -190.5t-183 -63.5q-59 0 -109.5 19.5t-85.5 47.5t-68.5 56.5t-75.5 48t-89 19.5q-77 0 -128 -41t-81 -138z" />
<glyph unicode="&#xa1;" horiz-adv-x="626" d="M102 -297l222 1098h79l-165 -1098h-136zM326 983l36 205h142l-37 -205h-141z" />
<glyph unicode="&#xa2;" horiz-adv-x="1308" d="M94 434q0 86 19 169.5t65 167t114.5 146t177.5 101.5t245 39h12l29 157h78l-29 -161q66 -7 123 -23.5t110 -46t91.5 -70t64 -98.5t31.5 -129l-107 -12q-7 72 -36.5 126.5t-75.5 88t-99 52t-116 24.5l-160 -910q177 0 280.5 74t151.5 215l102 -14q-123 -363 -540 -363h-11 l-26 -155h-80l29 159q-93 9 -169.5 38t-140 82t-98.5 140.5t-35 202.5zM205 440q0 -96 27.5 -168t76.5 -115.5t109 -67t133 -30.5l162 910q-86 -1 -158.5 -20t-123.5 -50t-91.5 -74.5t-65 -90t-41 -99.5t-22.5 -100t-6 -95z" />
<glyph unicode="&#xa3;" horiz-adv-x="1415" d="M-23 68q101 29 171.5 66.5t125 97.5t81 148.5t26.5 209.5q0 42 -4 112h-246l14 82h224q-4 62 -4 90q0 588 520 588q215 0 337 -89t134 -269l-113 -25q-20 293 -358 293q-73 0 -132 -14t-100.5 -38.5t-72.5 -61.5t-49.5 -78t-30 -94.5t-15.5 -104t-4 -111.5q0 -28 4 -86 h496l-16 -82h-473q4 -58 4 -90q0 -150 -37 -253t-105 -164t-178 -103q112 31 240 31q120 0 264.5 -28.5t232.5 -28.5q130 0 203.5 57.5t97.5 191.5l99 -16q-62 -336 -402 -336q-91 0 -247 34t-287 34q-153 0 -387 -43z" />
<glyph unicode="&#xa4;" horiz-adv-x="1253" d="M84 203l137 121q-84 100 -84 254q0 109 39.5 206t116.5 168l-90 115l61 49l92 -115q132 82 314 82q222 0 356 -114l129 112l45 -49l-127 -112q84 -105 84 -256q0 -110 -40 -208t-116 -167l89 -115l-64 -49l-88 113q-134 -80 -311 -80q-225 0 -361 116l-137 -120zM238 584 q0 -71 21.5 -128.5t57.5 -95.5t86 -63.5t104 -37t114 -11.5q115 0 202.5 35t137 94t74 129.5t24.5 150.5q0 71 -21.5 128.5t-57.5 95.5t-86 63.5t-104 37t-114 11.5q-115 0 -202.5 -35t-137 -94t-74 -129.5t-24.5 -150.5z" />
<glyph unicode="&#xa5;" horiz-adv-x="1372" d="M94 326l12 77h504l27 150h-504l14 80h492l-471 790h125l313 -530q67 -109 103 -195h6q58 76 170 195l504 530h133l-746 -790h490l-15 -80h-503l-27 -150h504l-15 -77h-501l-60 -326h-110l59 326h-504z" />
<glyph unicode="&#xa6;" horiz-adv-x="552" d="M98 -240l138 775h90l-138 -775h-90zM279 782l137 774h90l-137 -774h-90z" />
<glyph unicode="&#xa7;" horiz-adv-x="1222" d="M25 113l104 14q3 -250 381 -250q107 0 183.5 19.5t117 54t58.5 75t18 89.5q0 78 -46 129.5t-143 85.5l-299 84q-124 39 -192 100.5t-68 163.5q0 191 226 268q-105 74 -105 205q0 63 24 118t75 102.5t143 75.5t215 28q67 0 128.5 -8t123 -29.5t106.5 -54t73 -85.5t28 -120 l-107 -21q-1 56 -24.5 99t-58 67t-82.5 39t-89.5 19.5t-87.5 4.5q-103 0 -177 -19t-111.5 -52t-53.5 -69t-16 -79q0 -71 44 -120t146 -82l283 -74q141 -46 207.5 -113.5t66.5 -167.5q0 -95 -52 -167.5t-151 -116.5q82 -82 82 -201q0 -69 -25 -127t-79 -107t-152 -76.5 t-233 -27.5q-70 0 -133.5 8t-128.5 31t-112 58t-76.5 94t-30.5 135zM248 694q0 -72 50.5 -118t172.5 -84l272 -70q51 -17 109 -49q158 76 158 221q0 79 -52.5 125t-175.5 88l-288 78l-52 18q-194 -57 -194 -209z" />
<glyph unicode="&#xa8;" horiz-adv-x="1228" d="M104 1208l41 226h125l-41 -226h-125zM612 1208l39 226h125l-39 -226h-125z" />
<glyph unicode="&#xa9;" horiz-adv-x="1859" d="M135 645q0 83 12.5 164.5t42 166.5t74.5 160t114 142t155.5 115t205 76t256.5 28q78 0 154.5 -10.5t155.5 -35t148 -61t130 -92.5t104.5 -125t69 -162.5t25.5 -201.5q0 -84 -13 -166t-43.5 -167.5t-76.5 -160.5t-116.5 -141.5t-157.5 -114t-205.5 -75t-256.5 -27.5 q-114 0 -220.5 22t-209.5 73.5t-179 128.5t-122.5 196.5t-46.5 267.5zM209 649q0 -129 40.5 -235.5t108.5 -178t159 -120t189.5 -70.5t202.5 -22q173 0 313 49.5t229 128.5t148.5 184t84 209.5t24.5 212.5q0 132 -42.5 240t-112 178t-162.5 118t-191 68.5t-201 20.5 q-125 0 -233 -26t-187.5 -70.5t-143 -106.5t-105.5 -131.5t-69.5 -147.5t-39.5 -152.5t-12 -148.5zM526 678q0 69 15.5 135.5t52 130.5t90.5 112.5t138.5 78t189.5 30.5q102 0 183.5 -29t137.5 -97t64 -167l-88 -10q-10 115 -95.5 170t-201.5 55q-87 0 -156.5 -25.5 t-113 -66.5t-72 -96t-39.5 -109t-10 -110q1 -86 28.5 -148.5t74 -97t100.5 -50t116 -15.5q250 0 324 219l84 -13q-89 -284 -410 -284q-80 0 -150 20t-130.5 63t-96 121t-35.5 183z" />
<glyph unicode="&#xaa;" horiz-adv-x="1046" d="M197 825q0 114 94 173.5t289 68.5l327 14l4 19q21 125 -40 180t-199 55q-257 0 -291 -178h-102q21 119 119 183.5t274 64.5q190 0 277 -79.5t59 -246.5l-31 -180q-28 -171 -31 -264h-100q4 82 20 180q-50 -100 -149 -151.5t-230 -51.5q-130 0 -210 52t-80 161zM301 831 q0 -80 61 -115.5t156 -35.5q150 0 249.5 75t121.5 201l10 70l-305 -14q-293 -13 -293 -181z" />
<glyph unicode="&#xab;" horiz-adv-x="1107" d="M94 563l490 424h129l-492 -432l324 -418h-119zM496 563l489 424h129l-491 -432l323 -418h-119z" />
<glyph unicode="&#xac;" horiz-adv-x="1509" d="M270 635l17 98h1011l-81 -465h-101l66 367h-912z" />
<glyph unicode="&#xad;" horiz-adv-x="1005" d="M125 522l16 99h762l-18 -99h-760z" />
<glyph unicode="&#xae;" horiz-adv-x="1859" d="M135 645q0 83 12.5 164.5t42 166.5t74.5 160t114 142t155.5 115t205 76t256.5 28q78 0 154.5 -10.5t155.5 -35t148 -61t130 -92.5t104.5 -125t69 -162.5t25.5 -201.5q0 -84 -13 -166t-43.5 -167.5t-76.5 -160.5t-116.5 -141.5t-157.5 -114t-205.5 -75t-256.5 -27.5 q-114 0 -220.5 22t-209.5 73.5t-179 128.5t-122.5 196.5t-46.5 267.5zM209 649q0 -129 40.5 -235.5t108.5 -178t159 -120t189.5 -70.5t202.5 -22q173 0 313 49.5t229 128.5t148.5 184t84 209.5t24.5 212.5q0 132 -42.5 240t-112 178t-162.5 118t-191 68.5t-201 20.5 q-125 0 -233 -26t-187.5 -70.5t-143 -106.5t-105.5 -131.5t-69.5 -147.5t-39.5 -152.5t-12 -148.5zM590 319l147 832h361q280 0 280 -217q0 -39 -11.5 -75.5t-38 -72.5t-77.5 -62.5t-121 -37.5l162 -367h-96l-152 361h-303l-63 -361h-88zM754 754h295q69 0 118 15t74.5 42 t36 56t10.5 63q0 84 -53 115.5t-141 31.5h-283z" />
<glyph unicode="&#xaf;" horiz-adv-x="1228" d="M102 1278l15 84h712l-14 -84h-713z" />
<glyph unicode="&#xb0;" horiz-adv-x="915" d="M182 1044q0 58 14.5 115.5t47 114t79 99t117.5 69t156 26.5q153 0 248.5 -84t95.5 -233q0 -57 -14 -114t-46 -113.5t-78.5 -99.5t-117 -70t-156.5 -27q-157 0 -251.5 85.5t-94.5 231.5zM283 1049q0 -112 67.5 -172t175.5 -60q77 0 139 30t99 78.5t56.5 105.5t19.5 116 q0 111 -66.5 171t-177.5 60q-62 0 -114 -19.5t-88 -52.5t-61.5 -75.5t-37.5 -88.5t-12 -93z" />
<glyph unicode="&#xb1;" horiz-adv-x="1554" d="M166 0l16 98h1043l-19 -98h-1040zM276 635l17 90h467l65 373h105l-66 -373h469l-16 -90h-469l-64 -367h-104l63 367h-467z" />
<glyph unicode="&#xb4;" horiz-adv-x="1228" d="M100 1188l322 299h137l-348 -299h-111z" />
<glyph unicode="&#xb5;" horiz-adv-x="1445" d="M63 -399l248 1423h107l-88 -498q-21 -128 -21 -174q0 -69 19.5 -121.5t50.5 -84t74.5 -51.5t86 -27t91.5 -7q93 0 170.5 27.5t130.5 73t93 109t63 129.5t36 141l86 483h105l-180 -1024h-103l49 272q-133 -303 -477 -303q-260 0 -354 164l-92 -532h-95z" />
<glyph unicode="&#xb6;" horiz-adv-x="1585" d="M221 1067q0 66 15.5 122t57.5 110t107.5 92t172.5 61t247 23h760l-12 -76h-250l-283 -1604h-90l285 1604h-318l-282 -1604h-90l166 944q-48 0 -97.5 6t-106.5 19t-105.5 38t-89 59.5t-64 87.5t-23.5 118z" />
<glyph unicode="&#xb7;" horiz-adv-x="489" d="M186 598l37 211h146l-37 -211h-146z" />
<glyph unicode="&#xb8;" horiz-adv-x="1228" d="M96 -281l84 13q15 -74 117 -74q59 0 94 27t35 79q0 84 -107 84q-60 0 -104 -36l-55 18l139 176h76l-115 -135q39 31 102 31q71 0 111.5 -36t40.5 -99q0 -78 -61.5 -125.5t-155.5 -47.5q-86 0 -137.5 33.5t-63.5 91.5z" />
<glyph unicode="&#xba;" horiz-adv-x="1060" d="M186 958q0 83 25.5 159t78 142t144.5 106t213 40q62 0 118 -10t109 -35.5t91.5 -63.5t62 -99t23.5 -138q0 -65 -15 -127t-50 -120.5t-87 -102.5t-131.5 -70.5t-177.5 -26.5q-62 0 -118 10t-109 35.5t-91.5 63.5t-62 99t-23.5 138zM289 958q0 -60 17.5 -107.5t46 -77.5 t68.5 -49.5t82.5 -27.5t90.5 -8q76 0 137.5 23t101 60t66 86.5t38 99.5t11.5 102q0 60 -17.5 107.5t-46 77.5t-68.5 49.5t-82.5 27.5t-90.5 8q-76 0 -137.5 -23t-101 -60t-66 -86.5t-38 -99.5t-11.5 -102z" />
<glyph unicode="&#xbb;" horiz-adv-x="1110" d="M12 137l492 432l-324 418h119l332 -426l-490 -424h-129zM414 137l491 432l-323 418h118l332 -426l-489 -424h-129z" />
<glyph unicode="&#xbc;" horiz-adv-x="1718" d="M106 -35l1289 1524h104l-1288 -1524h-105zM184 1223l13 80h34q84 0 146.5 38t91.5 113h80l-137 -776h-97l115 631q-29 -40 -84.5 -63t-120.5 -23h-41zM815 201l12 65l592 510h97l-91 -508h179l-11 -67h-178l-35 -201h-96l37 201h-506zM920 268h413l82 428z" />
<glyph unicode="&#xbd;" horiz-adv-x="1810" d="M106 -35l1289 1524h104l-1288 -1524h-105zM184 1223l13 80h34q84 0 146.5 38t91.5 113h80l-137 -776h-97l115 631q-29 -40 -84.5 -63t-120.5 -23h-41zM956 0l11 66q271 134 336 170q226 126 286 235q25 46 25 94q0 160 -217 160q-126 0 -190.5 -60t-45.5 -163l-94 8 q-17 131 74 209t262 78q59 0 110 -10t98.5 -33t75 -68t27.5 -108q0 -45 -19.5 -89t-48.5 -81t-79 -77.5t-95.5 -70.5t-115 -67.5t-119 -62t-125.5 -60.5h535l-11 -70h-680z" />
<glyph unicode="&#xbe;" horiz-adv-x="2029" d="M152 907l98 6q3 -48 21 -83t43 -55t61 -31.5t67.5 -15t69.5 -3.5q118 0 179 48.5t61 125.5q0 69 -54 109.5t-157 40.5h-76l10 57h74q112 0 177 41t65 119q0 49 -35 82t-83 46t-104 13q-122 0 -185 -51t-73 -137l-94 6q13 115 100.5 182.5t253.5 67.5q58 0 110.5 -9.5 t101.5 -30t78.5 -60.5t29.5 -95q0 -90 -65.5 -143t-176.5 -62q90 -6 145.5 -52t55.5 -128q0 -104 -85 -171t-251 -67q-353 0 -362 250zM418 -35l1288 1524h104l-1288 -1524h-104zM1126 201l13 65l592 510h96l-90 -508h178l-10 -67h-179l-34 -201h-97l37 201h-506zM1231 268 h414l81 428z" />
<glyph unicode="&#xbf;" horiz-adv-x="1175" d="M-16 49q0 133 77 240t220 176l157 74q83 43 116 93.5t48 133.5l10 63h111l-12 -75q-19 -105 -63 -171t-150 -116l-170 -80q-228 -110 -228 -326q0 -66 23.5 -116.5t61.5 -81.5t91 -51t106 -27.5t112 -7.5q102 0 180.5 22.5t125.5 57.5t77 83.5t40.5 95.5t10.5 99 q0 45 -6 80l114 -12q6 -25 6 -80q0 -61 -15 -119t-54.5 -118t-99.5 -104.5t-157.5 -72.5t-221.5 -28q-102 0 -189.5 19.5t-161.5 60.5t-116.5 115t-42.5 173zM623 979l36 209h140l-37 -209h-139z" />
<glyph unicode="&#xc0;" d="M-35 0l918 1454h114l408 -1454h-117l-108 410h-832l-254 -410h-129zM410 510h743l-166 620q-46 161 -55 224h-4q-31 -61 -135 -224zM602 1749h137l281 -201h-119z" />
<glyph unicode="&#xc1;" d="M-35 0l918 1454h114l408 -1454h-117l-108 410h-832l-254 -410h-129zM410 510h743l-166 620q-46 161 -55 224h-4q-31 -61 -135 -224zM897 1548l281 201h137l-299 -201h-119z" />
<glyph unicode="&#xc2;" d="M-35 0l918 1454h114l408 -1454h-117l-108 410h-832l-254 -410h-129zM410 510h743l-166 620q-46 161 -55 224h-4q-31 -61 -135 -224zM641 1548l289 201h127l217 -201h-117l-166 152l-219 -152h-131z" />
<glyph unicode="&#xc3;" d="M-35 0l918 1454h114l408 -1454h-117l-108 410h-832l-254 -410h-129zM410 510h743l-166 620q-46 161 -55 224h-4q-31 -61 -135 -224zM590 1563q48 196 223 196q45 0 83 -14.5t64 -35t51 -40.5t57 -34.5t69 -14.5q58 0 92.5 28t52.5 99l76 -12q-48 -197 -221 -197 q-45 0 -83 14.5t-64 35t-51 40.5t-57 34.5t-69 14.5q-57 0 -92 -28.5t-53 -98.5z" />
<glyph unicode="&#xc4;" d="M-35 0l918 1454h114l408 -1454h-117l-108 410h-832l-254 -410h-129zM410 510h743l-166 620q-46 161 -55 224h-4q-31 -61 -135 -224zM633 1548l35 195h125l-35 -195h-125zM1155 1548l35 195h125l-33 -195h-127z" />
<glyph unicode="&#xc5;" d="M-35 0l918 1454h114l408 -1454h-117l-108 410h-832l-254 -410h-129zM410 510h743l-166 620q-46 161 -55 224h-4q-31 -61 -135 -224zM770 1683q0 96 68 160t166 64q89 0 139.5 -47.5t50.5 -126.5q0 -95 -67 -158.5t-166 -63.5q-88 0 -139.5 47.5t-51.5 124.5zM848 1686 q0 -48 30 -78.5t85 -30.5q71 0 112 43.5t41 112.5q0 48 -30 78t-85 30q-71 0 -112 -43t-41 -112z" />
<glyph unicode="&#xc6;" horiz-adv-x="2500" d="M16 0l1368 1454h1115l-19 -98h-969l-98 -561h934l-16 -99h-934l-107 -598h983l-16 -98h-1100l64 360h-738l-333 -360h-134zM575 459h662l156 880z" />
<glyph unicode="&#xc7;" horiz-adv-x="1648" d="M131 606q0 108 21 212t62.5 205t111 186t160.5 150t217 101.5t274 36.5q137 0 248.5 -30.5t197.5 -93t137 -165t58 -239.5l-119 -11q-7 115 -49 200.5t-112.5 137t-162 76.5t-204.5 25q-110 0 -205.5 -25t-167.5 -68t-130.5 -103.5t-98 -129.5t-65.5 -147t-38 -155.5 t-12 -156.5q0 -126 31.5 -223.5t83.5 -159t126 -101t152.5 -55.5t169.5 -16q235 0 380.5 105t217.5 315l115 -16q-83 -246 -256.5 -375t-458.5 -129h-16l-80 -94q39 31 102 31q70 0 111 -36.5t41 -99.5q0 -78 -61.5 -125t-155.5 -47q-86 0 -137.5 33.5t-63.5 91.5l84 13 q15 -74 117 -74q59 0 94 27t35 79q0 84 -107 84q-59 0 -104 -37l-56 19l109 139q-102 8 -189 34t-163 77t-129.5 123t-84 177t-30.5 234z" />
<glyph unicode="&#xc8;" horiz-adv-x="1484" d="M152 0l256 1454h1075l-19 -98h-958l-98 -561h923l-16 -99h-926l-104 -598h972l-16 -98h-1089zM629 1749h137l281 -201h-119z" />
<glyph unicode="&#xc9;" horiz-adv-x="1484" d="M152 0l256 1454h1075l-19 -98h-958l-98 -561h923l-16 -99h-926l-104 -598h972l-16 -98h-1089zM924 1548l280 201h137l-299 -201h-118z" />
<glyph unicode="&#xca;" horiz-adv-x="1484" d="M152 0l256 1454h1075l-19 -98h-958l-98 -561h923l-16 -99h-926l-104 -598h972l-16 -98h-1089zM668 1548l288 201h127l217 -201h-116l-166 152l-219 -152h-131z" />
<glyph unicode="&#xcb;" horiz-adv-x="1484" d="M152 0l256 1454h1075l-19 -98h-958l-98 -561h923l-16 -99h-926l-104 -598h972l-16 -98h-1089zM659 1548l35 195h125l-35 -195h-125zM1182 1548l35 195h124l-32 -195h-127z" />
<glyph unicode="&#xcc;" horiz-adv-x="598" d="M152 0l256 1454h116l-256 -1454h-116zM227 1749h123l180 -201h-108z" />
<glyph unicode="&#xcd;" horiz-adv-x="598" d="M152 0l256 1454h116l-256 -1454h-116zM428 1548l180 201h123l-194 -201h-109z" />
<glyph unicode="&#xce;" horiz-adv-x="598" d="M152 0l256 1454h116l-256 -1454h-116zM256 1548l199 201h127l127 -201h-105l-90 152l-141 -152h-117z" />
<glyph unicode="&#xcf;" horiz-adv-x="598" d="M152 0l256 1454h116l-256 -1454h-116zM270 1548l35 195h125l-35 -195h-125zM567 1548l35 195h125l-35 -195h-125z" />
<glyph unicode="&#xd0;" horiz-adv-x="1705" d="M35 711l16 92h236l114 651h545q118 0 217.5 -19.5t188.5 -65.5t150.5 -116.5t97.5 -178t36 -245.5q0 -109 -22.5 -209.5t-67.5 -194.5t-119.5 -170.5t-173.5 -134t-234 -89t-296 -31.5h-578l125 711h-235zM281 100h448q125 0 232 22t186 60.5t142 92.5t104.5 116.5 t69 135.5t39 145t11.5 149q0 533 -573 533h-438l-96 -551h471l-17 -92h-471z" />
<glyph unicode="&#xd1;" horiz-adv-x="1736" d="M152 0l256 1454h135l702 -1186q49 -87 76 -139h2q22 134 27 160l204 1165h107l-256 -1454h-127l-709 1194q-45 76 -75 141h-5q-4 -52 -22 -157l-209 -1178h-106zM684 1563q48 196 223 196q45 0 83 -14.5t64 -35t51 -40.5t57 -34.5t69 -14.5q58 0 92.5 28t52.5 99l76 -12 q-48 -197 -221 -197q-45 0 -83 14.5t-64 35t-51 40.5t-57 34.5t-69 14.5q-57 0 -92 -28.5t-53 -98.5z" />
<glyph unicode="&#xd2;" horiz-adv-x="1734" d="M131 614q0 90 14.5 178t46.5 176t79 165.5t116 145t153.5 115.5t195.5 75.5t237 27.5q113 0 212 -20t191.5 -68.5t158 -122t105 -187.5t39.5 -259q0 -127 -28.5 -249.5t-94 -238.5t-160.5 -202.5t-239.5 -139.5t-320.5 -53q-112 0 -211 20t-191.5 68.5t-158 122 t-105 187.5t-39.5 259zM254 616q0 -127 34 -226t89.5 -160.5t134 -101.5t159 -55.5t171.5 -15.5q152 0 275.5 48t203.5 126t134.5 181.5t77.5 209.5t23 216q0 127 -34 226t-89.5 160.5t-133.5 101.5t-158.5 55.5t-171.5 15.5q-152 0 -275.5 -48t-204 -126t-135 -181.5 t-77.5 -209.5t-23 -216zM674 1749h137l281 -201h-119z" />
<glyph unicode="&#xd3;" horiz-adv-x="1734" d="M131 614q0 90 14.5 178t46.5 176t79 165.5t116 145t153.5 115.5t195.5 75.5t237 27.5q113 0 212 -20t191.5 -68.5t158 -122t105 -187.5t39.5 -259q0 -127 -28.5 -249.5t-94 -238.5t-160.5 -202.5t-239.5 -139.5t-320.5 -53q-112 0 -211 20t-191.5 68.5t-158 122 t-105 187.5t-39.5 259zM254 616q0 -127 34 -226t89.5 -160.5t134 -101.5t159 -55.5t171.5 -15.5q152 0 275.5 48t203.5 126t134.5 181.5t77.5 209.5t23 216q0 127 -34 226t-89.5 160.5t-133.5 101.5t-158.5 55.5t-171.5 15.5q-152 0 -275.5 -48t-204 -126t-135 -181.5 t-77.5 -209.5t-23 -216zM969 1548l280 201h137l-299 -201h-118z" />
<glyph unicode="&#xd4;" horiz-adv-x="1734" d="M131 614q0 90 14.5 178t46.5 176t79 165.5t116 145t153.5 115.5t195.5 75.5t237 27.5q113 0 212 -20t191.5 -68.5t158 -122t105 -187.5t39.5 -259q0 -127 -28.5 -249.5t-94 -238.5t-160.5 -202.5t-239.5 -139.5t-320.5 -53q-112 0 -211 20t-191.5 68.5t-158 122 t-105 187.5t-39.5 259zM254 616q0 -127 34 -226t89.5 -160.5t134 -101.5t159 -55.5t171.5 -15.5q152 0 275.5 48t203.5 126t134.5 181.5t77.5 209.5t23 216q0 127 -34 226t-89.5 160.5t-133.5 101.5t-158.5 55.5t-171.5 15.5q-152 0 -275.5 -48t-204 -126t-135 -181.5 t-77.5 -209.5t-23 -216zM713 1548l288 201h127l218 -201h-117l-166 152l-219 -152h-131z" />
<glyph unicode="&#xd5;" horiz-adv-x="1734" d="M131 614q0 90 14.5 178t46.5 176t79 165.5t116 145t153.5 115.5t195.5 75.5t237 27.5q113 0 212 -20t191.5 -68.5t158 -122t105 -187.5t39.5 -259q0 -127 -28.5 -249.5t-94 -238.5t-160.5 -202.5t-239.5 -139.5t-320.5 -53q-112 0 -211 20t-191.5 68.5t-158 122 t-105 187.5t-39.5 259zM254 616q0 -127 34 -226t89.5 -160.5t134 -101.5t159 -55.5t171.5 -15.5q152 0 275.5 48t203.5 126t134.5 181.5t77.5 209.5t23 216q0 127 -34 226t-89.5 160.5t-133.5 101.5t-158.5 55.5t-171.5 15.5q-152 0 -275.5 -48t-204 -126t-135 -181.5 t-77.5 -209.5t-23 -216zM662 1563q48 196 223 196q45 0 82.5 -14.5t64 -35t51 -40.5t56.5 -34.5t69 -14.5q58 0 93 28t53 99l76 -12q-48 -197 -222 -197q-45 0 -82.5 14.5t-64 35t-51 40.5t-56.5 34.5t-69 14.5q-57 0 -92.5 -28.5t-53.5 -98.5z" />
<glyph unicode="&#xd6;" horiz-adv-x="1734" d="M131 614q0 90 14.5 178t46.5 176t79 165.5t116 145t153.5 115.5t195.5 75.5t237 27.5q113 0 212 -20t191.5 -68.5t158 -122t105 -187.5t39.5 -259q0 -127 -28.5 -249.5t-94 -238.5t-160.5 -202.5t-239.5 -139.5t-320.5 -53q-112 0 -211 20t-191.5 68.5t-158 122 t-105 187.5t-39.5 259zM254 616q0 -127 34 -226t89.5 -160.5t134 -101.5t159 -55.5t171.5 -15.5q152 0 275.5 48t203.5 126t134.5 181.5t77.5 209.5t23 216q0 127 -34 226t-89.5 160.5t-133.5 101.5t-158.5 55.5t-171.5 15.5q-152 0 -275.5 -48t-204 -126t-135 -181.5 t-77.5 -209.5t-23 -216zM705 1548l34 195h125l-35 -195h-124zM1227 1548l35 195h124l-32 -195h-127z" />
<glyph unicode="&#xd7;" horiz-adv-x="1568" d="M236 264l503 406l-362 405l82 68l364 -406l506 406l60 -68l-506 -405l362 -404l-82 -69l-364 405l-506 -405z" />
<glyph unicode="&#xd8;" horiz-adv-x="1734" d="M94 37l164 151q-127 163 -127 426q0 90 14.5 178t46.5 176t79 165.5t116 145t153.5 115.5t195.5 75.5t237 27.5q338 0 524 -172l158 145l57 -55l-162 -149q129 -161 129 -426q0 -127 -28.5 -249.5t-94 -238.5t-160.5 -202.5t-239.5 -139.5t-320.5 -53q-337 0 -523 172 l-161 -149zM254 616q0 -215 94 -346l1063 977q-155 150 -442 150q-152 0 -275.5 -48t-204 -126t-135 -181.5t-77.5 -209.5t-23 -216zM399 207q155 -150 443 -150q152 0 275.5 48t203.5 126t134.5 181.5t77.5 209.5t23 216q0 214 -94 348z" />
<glyph unicode="&#xd9;" horiz-adv-x="1650" d="M215.5 320.5q-24.5 125.5 3.5 302.5l148 831h116l-149 -846q-24 -120 -11.5 -211t49 -155.5t100 -105t141 -59t173.5 -18.5q95 0 172.5 18t134.5 53.5t99.5 80.5t72.5 107t49.5 125t33.5 141l153 870h117l-158 -893q-19 -107 -49.5 -193t-84 -164.5t-126.5 -130.5 t-180 -83t-242 -31q-151 0 -265 37.5t-193.5 118t-104 206zM655 1749h138l280 -201h-119z" />
<glyph unicode="&#xda;" horiz-adv-x="1650" d="M215.5 320.5q-24.5 125.5 3.5 302.5l148 831h116l-149 -846q-24 -120 -11.5 -211t49 -155.5t100 -105t141 -59t173.5 -18.5q95 0 172.5 18t134.5 53.5t99.5 80.5t72.5 107t49.5 125t33.5 141l153 870h117l-158 -893q-19 -107 -49.5 -193t-84 -164.5t-126.5 -130.5 t-180 -83t-242 -31q-151 0 -265 37.5t-193.5 118t-104 206zM950 1548l281 201h137l-299 -201h-119z" />
<glyph unicode="&#xdb;" horiz-adv-x="1650" d="M215.5 320.5q-24.5 125.5 3.5 302.5l148 831h116l-149 -846q-24 -120 -11.5 -211t49 -155.5t100 -105t141 -59t173.5 -18.5q95 0 172.5 18t134.5 53.5t99.5 80.5t72.5 107t49.5 125t33.5 141l153 870h117l-158 -893q-19 -107 -49.5 -193t-84 -164.5t-126.5 -130.5 t-180 -83t-242 -31q-151 0 -265 37.5t-193.5 118t-104 206zM694 1548l289 201h127l217 -201h-117l-166 152l-219 -152h-131z" />
<glyph unicode="&#xdc;" horiz-adv-x="1650" d="M215.5 320.5q-24.5 125.5 3.5 302.5l148 831h116l-149 -846q-24 -120 -11.5 -211t49 -155.5t100 -105t141 -59t173.5 -18.5q95 0 172.5 18t134.5 53.5t99.5 80.5t72.5 107t49.5 125t33.5 141l153 870h117l-158 -893q-19 -107 -49.5 -193t-84 -164.5t-126.5 -130.5 t-180 -83t-242 -31q-151 0 -265 37.5t-193.5 118t-104 206zM686 1548l35 195h125l-35 -195h-125zM1208 1548l35 195h125l-33 -195h-127z" />
<glyph unicode="&#xdd;" horiz-adv-x="1374" d="M174 1454h131l346 -663q41 -73 56 -121h4q22 41 96 121l582 663h143l-778 -883l-101 -571h-116l100 571zM809 1548l281 201h137l-299 -201h-119z" />
<glyph unicode="&#xde;" horiz-adv-x="1357" d="M145 0l256 1454h119l-47 -272h432q97 0 176 -21t139.5 -63.5t94 -112.5t33.5 -162q0 -217 -146.5 -341t-429.5 -124h-444l-64 -358h-119zM344 459h418q463 0 463 362q0 133 -88.5 197.5t-247.5 64.5h-434z" />
<glyph unicode="&#xdf;" horiz-adv-x="1433" d="M121 0l182 1032q15 87 40.5 156t70 130.5t105 102.5t149 64.5t200.5 23.5q102 0 184 -20t144 -60.5t95.5 -108t33.5 -157.5q0 -147 -104.5 -248.5t-290.5 -111.5q169 -15 261.5 -107t92.5 -252q0 -100 -33.5 -182t-102 -146t-182.5 -99t-266 -35q-175 0 -282 36l16 88 q96 -36 268 -36q245 0 358.5 99t113.5 275q0 156 -107.5 235t-308.5 79h-183l15 86h182q221 0 329.5 83t108.5 236q0 135 -91.5 196.5t-250.5 61.5q-114 0 -196 -26.5t-134.5 -80.5t-82 -124t-47.5 -170l-181 -1020h-106z" />
<glyph unicode="&#xe0;" horiz-adv-x="1335" d="M86 258q0 127 86 207q118 109 397 125l492 24l6 37q28 166 -62 241t-280 75q-365 0 -414 -262h-112q28 168 162 260t366 92q244 0 362 -103t80 -327l-45 -258q-39 -228 -39 -369h-110q3 113 26 240q-77 -135 -210 -204t-310 -69q-181 0 -288 71t-107 220zM199 260 q0 -57 24 -98.5t66.5 -64t93.5 -32.5t113 -10q222 0 363.5 108.5t172.5 278.5l17 93l-457 -23q-393 -22 -393 -252zM367 1487h137l321 -299h-110z" />
<glyph unicode="&#xe1;" horiz-adv-x="1335" d="M86 258q0 127 86 207q118 109 397 125l492 24l6 37q28 166 -62 241t-280 75q-365 0 -414 -262h-112q28 168 162 260t366 92q244 0 362 -103t80 -327l-45 -258q-39 -228 -39 -369h-110q3 113 26 240q-77 -135 -210 -204t-310 -69q-181 0 -288 71t-107 220zM199 260 q0 -57 24 -98.5t66.5 -64t93.5 -32.5t113 -10q222 0 363.5 108.5t172.5 278.5l17 93l-457 -23q-393 -22 -393 -252zM711 1188l321 299h137l-348 -299h-110z" />
<glyph unicode="&#xe2;" horiz-adv-x="1335" d="M86 258q0 127 86 207q118 109 397 125l492 24l6 37q28 166 -62 241t-280 75q-365 0 -414 -262h-112q28 168 162 260t366 92q244 0 362 -103t80 -327l-45 -258q-39 -228 -39 -369h-110q3 113 26 240q-77 -135 -210 -204t-310 -69q-181 0 -288 71t-107 220zM199 260 q0 -57 24 -98.5t66.5 -64t93.5 -32.5t113 -10q222 0 363.5 108.5t172.5 278.5l17 93l-457 -23q-393 -22 -393 -252zM422 1188l338 299h114l234 -299h-104l-191 244l-278 -244h-113z" />
<glyph unicode="&#xe3;" horiz-adv-x="1335" d="M86 258q0 127 86 207q118 109 397 125l492 24l6 37q28 166 -62 241t-280 75q-365 0 -414 -262h-112q28 168 162 260t366 92q244 0 362 -103t80 -327l-45 -258q-39 -228 -39 -369h-110q3 113 26 240q-77 -135 -210 -204t-310 -69q-181 0 -288 71t-107 220zM199 260 q0 -57 24 -98.5t66.5 -64t93.5 -32.5t113 -10q222 0 363.5 108.5t172.5 278.5l17 93l-457 -23q-393 -22 -393 -252zM379 1233q25 104 86 158.5t149 54.5q49 0 90 -16.5t69 -39.5t54.5 -46t60.5 -39.5t73 -16.5q125 0 157 142l78 -11q-24 -104 -86 -159.5t-149 -55.5 q-50 0 -91.5 16.5t-70 39.5t-55 46t-60 39.5t-70.5 16.5q-127 0 -159 -141z" />
<glyph unicode="&#xe4;" horiz-adv-x="1335" d="M86 258q0 127 86 207q118 109 397 125l492 24l6 37q28 166 -62 241t-280 75q-365 0 -414 -262h-112q28 168 162 260t366 92q244 0 362 -103t80 -327l-45 -258q-39 -228 -39 -369h-110q3 113 26 240q-77 -135 -210 -204t-310 -69q-181 0 -288 71t-107 220zM199 260 q0 -57 24 -98.5t66.5 -64t93.5 -32.5t113 -10q222 0 363.5 108.5t172.5 278.5l17 93l-457 -23q-393 -22 -393 -252zM451 1208l41 226h124l-41 -226h-124zM958 1208l39 226h125l-39 -226h-125z" />
<glyph unicode="&#xe5;" horiz-adv-x="1335" d="M86 258q0 127 86 207q118 109 397 125l492 24l6 37q28 166 -62 241t-280 75q-365 0 -414 -262h-112q28 168 162 260t366 92q244 0 362 -103t80 -327l-45 -258q-39 -228 -39 -369h-110q3 113 26 240q-77 -135 -210 -204t-310 -69q-181 0 -288 71t-107 220zM199 260 q0 -57 24 -98.5t66.5 -64t93.5 -32.5t113 -10q222 0 363.5 108.5t172.5 278.5l17 93l-457 -23q-393 -22 -393 -252zM518 1327q0 96 72 156.5t192 60.5q106 0 168 -48.5t62 -127.5q0 -95 -73.5 -156t-193.5 -61q-105 0 -166 49t-61 127zM594 1327q0 -49 40 -81t111 -32 q92 0 140.5 43t48.5 111q0 49 -40.5 82t-111.5 33q-91 0 -139.5 -44t-48.5 -112z" />
<glyph unicode="&#xe6;" horiz-adv-x="2150" d="M82 236q0 128 86 206q116 101 407 115l449 18q0 9 4 25l8 49q26 164 -57 241t-270 77q-182 0 -283.5 -70.5t-120.5 -200.5h-110q29 170 159.5 265.5t358.5 95.5q357 0 415 -226q74 106 192 166t275 60q211 0 333 -103.5t122 -294.5q0 -59 -22 -163h-906l-8 -45 q-7 -102 19.5 -179t79.5 -122t122 -67t154 -22q277 0 405 265l91 -35q-150 -324 -506 -324q-110 0 -200.5 30.5t-161 103t-95.5 180.5q-74 -149 -220 -231.5t-345 -82.5q-166 0 -270.5 67.5t-104.5 201.5zM195 244q0 -66 40 -109t101.5 -60.5t142.5 -17.5q210 0 350.5 101.5 t169.5 271.5l13 70l-439 -21q-113 -5 -190.5 -25t-117 -53.5t-55 -70.5t-15.5 -86zM1133 582h800q11 43 11 86q0 147 -97 226t-260 79q-191 0 -306 -107.5t-148 -283.5z" />
<glyph unicode="&#xe7;" horiz-adv-x="1286" d="M94 438q0 86 18.5 169t64 166t113.5 145t175.5 100.5t241.5 38.5q75 0 142.5 -12t130 -40t109.5 -70t77.5 -107t37.5 -146l-110 -12q-6 66 -31 117.5t-62 84t-86.5 53.5t-100 29.5t-107.5 8.5q-114 0 -204 -34.5t-144 -88t-89.5 -124.5t-49 -138t-13.5 -136 q0 -86 23 -153t60.5 -109t91.5 -69.5t111 -38.5t123 -11q173 0 273 75t149 214l107 -14q-124 -366 -522 -369l-84 -98q39 31 102 31q70 0 111 -36.5t41 -99.5q0 -78 -62 -125t-156 -47q-86 0 -137 33t-63 92l84 13q15 -74 116 -74q59 0 94.5 27t35.5 79q0 84 -107 84 q-60 0 -104 -36l-56 18l113 141q-95 7 -173.5 35t-144 81t-102.5 143t-37 210z" />
<glyph unicode="&#xe8;" horiz-adv-x="1306" d="M94 434q0 90 20 175.5t66.5 167.5t115 143.5t174 99t235.5 37.5q108 0 197.5 -25t157 -74.5t105 -129t37.5 -183.5q0 -81 -20 -151h-977q-2 -16 -2 -50q0 -90 25.5 -159t66.5 -110.5t98 -68t113.5 -36t120.5 -9.5q88 0 157.5 19t119 55.5t84 82.5t61.5 108l90 -37 q-142 -322 -512 -322q-74 0 -142.5 11.5t-142 43.5t-126.5 82t-87.5 135t-34.5 195zM215 580h877q8 58 8 79q0 81 -33 143t-90 98t-126 53.5t-149 17.5q-108 0 -195 -31t-145 -86t-94 -123.5t-53 -150.5zM371 1487h137l321 -299h-110z" />
<glyph unicode="&#xe9;" horiz-adv-x="1306" d="M94 434q0 90 20 175.5t66.5 167.5t115 143.5t174 99t235.5 37.5q108 0 197.5 -25t157 -74.5t105 -129t37.5 -183.5q0 -81 -20 -151h-977q-2 -16 -2 -50q0 -90 25.5 -159t66.5 -110.5t98 -68t113.5 -36t120.5 -9.5q88 0 157.5 19t119 55.5t84 82.5t61.5 108l90 -37 q-142 -322 -512 -322q-74 0 -142.5 11.5t-142 43.5t-126.5 82t-87.5 135t-34.5 195zM215 580h877q8 58 8 79q0 81 -33 143t-90 98t-126 53.5t-149 17.5q-108 0 -195 -31t-145 -86t-94 -123.5t-53 -150.5zM715 1188l321 299h138l-349 -299h-110z" />
<glyph unicode="&#xea;" horiz-adv-x="1306" d="M94 434q0 90 20 175.5t66.5 167.5t115 143.5t174 99t235.5 37.5q108 0 197.5 -25t157 -74.5t105 -129t37.5 -183.5q0 -81 -20 -151h-977q-2 -16 -2 -50q0 -90 25.5 -159t66.5 -110.5t98 -68t113.5 -36t120.5 -9.5q88 0 157.5 19t119 55.5t84 82.5t61.5 108l90 -37 q-142 -322 -512 -322q-74 0 -142.5 11.5t-142 43.5t-126.5 82t-87.5 135t-34.5 195zM215 580h877q8 58 8 79q0 81 -33 143t-90 98t-126 53.5t-149 17.5q-108 0 -195 -31t-145 -86t-94 -123.5t-53 -150.5zM426 1188l338 299h115l233 -299h-104l-191 244l-278 -244h-113z" />
<glyph unicode="&#xeb;" horiz-adv-x="1306" d="M94 434q0 90 20 175.5t66.5 167.5t115 143.5t174 99t235.5 37.5q108 0 197.5 -25t157 -74.5t105 -129t37.5 -183.5q0 -81 -20 -151h-977q-2 -16 -2 -50q0 -90 25.5 -159t66.5 -110.5t98 -68t113.5 -36t120.5 -9.5q88 0 157.5 19t119 55.5t84 82.5t61.5 108l90 -37 q-142 -322 -512 -322q-74 0 -142.5 11.5t-142 43.5t-126.5 82t-87.5 135t-34.5 195zM215 580h877q8 58 8 79q0 81 -33 143t-90 98t-126 53.5t-149 17.5q-108 0 -195 -31t-145 -86t-94 -123.5t-53 -150.5zM455 1208l41 226h125l-41 -226h-125zM963 1208l38 226h125l-39 -226 h-124z" />
<glyph unicode="&#xec;" horiz-adv-x="546" d="M104 1487h117l211 -299h-102zM131 0l180 1024h105l-180 -1024h-105z" />
<glyph unicode="&#xed;" horiz-adv-x="546" d="M131 0l180 1024h105l-180 -1024h-105zM342 1188l211 299h117l-226 -299h-102z" />
<glyph unicode="&#xee;" horiz-adv-x="546" d="M131 0l180 1024h105l-180 -1024h-105zM174 1188l217 301h109l112 -301h-90l-82 244l-168 -244h-98z" />
<glyph unicode="&#xef;" horiz-adv-x="546" d="M131 0l180 1024h105l-180 -1024h-105zM195 1208l41 230h124l-41 -230h-124zM475 1208l41 230h125l-41 -230h-125z" />
<glyph unicode="&#xf0;" horiz-adv-x="1380" d="M104 434q0 88 19 171t64 164t112 141t171 97t232 37q164 0 283 -60t166 -185h4q3 261 -164 428l-413 -99l-11 66l365 86q-130 101 -328 139l64 74q230 -55 374 -184l236 55l12 -66l-194 -47q168 -192 168 -518q0 -115 -20.5 -221t-69.5 -206.5t-121 -174.5t-183 -119 t-249 -45q-81 0 -152 13t-139.5 46.5t-117 85t-78.5 134t-30 188.5zM219 444q0 -89 24 -158t62.5 -110.5t93.5 -68t110.5 -36.5t119.5 -10q110 0 199.5 34.5t146 89t95 126t54 141.5t15.5 140q0 122 -56 205t-150 120t-222 37q-110 0 -197.5 -32t-141.5 -83.5t-89.5 -120 t-49.5 -136t-14 -138.5z" />
<glyph unicode="&#xf1;" horiz-adv-x="1423" d="M131 0l180 1024h103l-49 -268q140 299 475 299q59 0 111 -9t109 -35.5t97.5 -69.5t67 -117t26.5 -171q0 -68 -16 -166l-86 -487h-105l89 498q14 89 14 139q0 77 -21 136.5t-54 94.5t-79.5 57t-91 30t-94.5 8q-91 0 -166.5 -28t-128 -74t-92 -109.5t-62.5 -129t-36 -139.5 l-86 -483h-105zM506 1233q25 104 86 158.5t149 54.5q49 0 89.5 -16.5t68.5 -39.5t54.5 -46t60.5 -39.5t73 -16.5q126 0 158 142l78 -11q-24 -104 -86 -159.5t-150 -55.5q-50 0 -91 16.5t-69.5 39.5t-55.5 46t-60 39.5t-70 16.5q-127 0 -159 -141z" />
<glyph unicode="&#xf2;" horiz-adv-x="1337" d="M96 442q0 89 20 173.5t66.5 165.5t115 141.5t173.5 97.5t234 37q84 0 158.5 -14.5t145 -49t121 -87.5t81 -136t30.5 -188q0 -89 -20 -173.5t-66 -165.5t-114.5 -141.5t-173.5 -97.5t-234 -37q-84 0 -158.5 14.5t-145 49t-121.5 87.5t-81.5 136t-30.5 188zM209 449 q0 -108 36.5 -186t99.5 -120.5t136 -62t158 -19.5q106 0 192 32.5t140.5 84t91.5 120.5t52 137.5t15 139.5q0 87 -25 155t-65.5 111t-97.5 71t-117 39.5t-127 11.5q-106 0 -192 -32.5t-140 -84t-90.5 -120.5t-51.5 -137.5t-15 -139.5zM369 1487h137l321 -299h-110z" />
<glyph unicode="&#xf3;" horiz-adv-x="1337" d="M96 442q0 89 20 173.5t66.5 165.5t115 141.5t173.5 97.5t234 37q84 0 158.5 -14.5t145 -49t121 -87.5t81 -136t30.5 -188q0 -89 -20 -173.5t-66 -165.5t-114.5 -141.5t-173.5 -97.5t-234 -37q-84 0 -158.5 14.5t-145 49t-121.5 87.5t-81.5 136t-30.5 188zM209 449 q0 -108 36.5 -186t99.5 -120.5t136 -62t158 -19.5q106 0 192 32.5t140.5 84t91.5 120.5t52 137.5t15 139.5q0 87 -25 155t-65.5 111t-97.5 71t-117 39.5t-127 11.5q-106 0 -192 -32.5t-140 -84t-90.5 -120.5t-51.5 -137.5t-15 -139.5zM713 1188l321 299h137l-348 -299h-110z " />
<glyph unicode="&#xf4;" horiz-adv-x="1337" d="M96 442q0 89 20 173.5t66.5 165.5t115 141.5t173.5 97.5t234 37q84 0 158.5 -14.5t145 -49t121 -87.5t81 -136t30.5 -188q0 -89 -20 -173.5t-66 -165.5t-114.5 -141.5t-173.5 -97.5t-234 -37q-84 0 -158.5 14.5t-145 49t-121.5 87.5t-81.5 136t-30.5 188zM209 449 q0 -108 36.5 -186t99.5 -120.5t136 -62t158 -19.5q106 0 192 32.5t140.5 84t91.5 120.5t52 137.5t15 139.5q0 87 -25 155t-65.5 111t-97.5 71t-117 39.5t-127 11.5q-106 0 -192 -32.5t-140 -84t-90.5 -120.5t-51.5 -137.5t-15 -139.5zM424 1188l338 299h115l233 -299h-104 l-191 244l-278 -244h-113z" />
<glyph unicode="&#xf5;" horiz-adv-x="1337" d="M96 442q0 89 20 173.5t66.5 165.5t115 141.5t173.5 97.5t234 37q84 0 158.5 -14.5t145 -49t121 -87.5t81 -136t30.5 -188q0 -89 -20 -173.5t-66 -165.5t-114.5 -141.5t-173.5 -97.5t-234 -37q-84 0 -158.5 14.5t-145 49t-121.5 87.5t-81.5 136t-30.5 188zM209 449 q0 -108 36.5 -186t99.5 -120.5t136 -62t158 -19.5q106 0 192 32.5t140.5 84t91.5 120.5t52 137.5t15 139.5q0 87 -25 155t-65.5 111t-97.5 71t-117 39.5t-127 11.5q-106 0 -192 -32.5t-140 -84t-90.5 -120.5t-51.5 -137.5t-15 -139.5zM381 1233q25 104 86 158.5t149 54.5 q49 0 90 -16.5t69 -39.5t54.5 -46t60.5 -39.5t73 -16.5q125 0 157 142l78 -11q-24 -104 -86 -159.5t-149 -55.5q-50 0 -91.5 16.5t-70 39.5t-55 46t-60 39.5t-70.5 16.5q-127 0 -159 -141z" />
<glyph unicode="&#xf6;" horiz-adv-x="1337" d="M96 442q0 89 20 173.5t66.5 165.5t115 141.5t173.5 97.5t234 37q84 0 158.5 -14.5t145 -49t121 -87.5t81 -136t30.5 -188q0 -89 -20 -173.5t-66 -165.5t-114.5 -141.5t-173.5 -97.5t-234 -37q-84 0 -158.5 14.5t-145 49t-121.5 87.5t-81.5 136t-30.5 188zM209 449 q0 -108 36.5 -186t99.5 -120.5t136 -62t158 -19.5q106 0 192 32.5t140.5 84t91.5 120.5t52 137.5t15 139.5q0 87 -25 155t-65.5 111t-97.5 71t-117 39.5t-127 11.5q-106 0 -192 -32.5t-140 -84t-90.5 -120.5t-51.5 -137.5t-15 -139.5zM453 1208l41 226h124l-40 -226h-125z M961 1208l38 226h125l-39 -226h-124z" />
<glyph unicode="&#xf7;" horiz-adv-x="1286" d="M143 625l15 92h1042l-16 -92h-1041zM520 285q0 38 23 61t59 23q37 0 60.5 -23t23.5 -61q0 -37 -23.5 -59.5t-60.5 -22.5q-36 0 -59 23t-23 59zM639 1057q0 37 23.5 59.5t60.5 22.5q36 0 59 -23t23 -59q0 -38 -23 -61t-59 -23q-37 0 -60.5 23t-23.5 61z" />
<glyph unicode="&#xf8;" horiz-adv-x="1337" d="M55 18l138 119q-97 118 -97 305q0 89 20 173.5t66.5 165.5t115 141.5t173.5 97.5t234 37q263 0 405 -131l147 127l50 -49l-152 -130q86 -117 86 -292q0 -89 -20 -173.5t-66 -165.5t-114.5 -141.5t-173.5 -97.5t-234 -37q-253 0 -393 121l-138 -117zM209 449 q0 -144 67 -240l750 645q-114 109 -328 109q-106 0 -192 -32.5t-140 -84t-90.5 -120.5t-51.5 -137.5t-15 -139.5zM324 160q113 -99 315 -99q106 0 192 32.5t140.5 84t91.5 120.5t52 137.5t15 139.5q0 138 -59 226z" />
<glyph unicode="&#xf9;" horiz-adv-x="1406" d="M166 334q0 71 22 203l84 487h107l-88 -498q-21 -128 -21 -174q0 -69 19.5 -121.5t50.5 -84t74.5 -51.5t86 -27t91.5 -7q93 0 170.5 27.5t130.5 73t93 109t63 129.5t36 141l86 483h105l-180 -1024h-103l49 272q-133 -303 -477 -303q-58 0 -109 8.5t-106 32.5t-94 63 t-64.5 106t-25.5 155zM412 1487h137l321 -299h-110z" />
<glyph unicode="&#xfa;" horiz-adv-x="1406" d="M166 334q0 71 22 203l84 487h107l-88 -498q-21 -128 -21 -174q0 -69 19.5 -121.5t50.5 -84t74.5 -51.5t86 -27t91.5 -7q93 0 170.5 27.5t130.5 73t93 109t63 129.5t36 141l86 483h105l-180 -1024h-103l49 272q-133 -303 -477 -303q-58 0 -109 8.5t-106 32.5t-94 63 t-64.5 106t-25.5 155zM756 1188l321 299h137l-348 -299h-110z" />
<glyph unicode="&#xfb;" horiz-adv-x="1406" d="M166 334q0 71 22 203l84 487h107l-88 -498q-21 -128 -21 -174q0 -69 19.5 -121.5t50.5 -84t74.5 -51.5t86 -27t91.5 -7q93 0 170.5 27.5t130.5 73t93 109t63 129.5t36 141l86 483h105l-180 -1024h-103l49 272q-133 -303 -477 -303q-58 0 -109 8.5t-106 32.5t-94 63 t-64.5 106t-25.5 155zM467 1188l338 299h115l233 -299h-104l-191 244l-278 -244h-113z" />
<glyph unicode="&#xfc;" horiz-adv-x="1406" d="M166 334q0 71 22 203l84 487h107l-88 -498q-21 -128 -21 -174q0 -69 19.5 -121.5t50.5 -84t74.5 -51.5t86 -27t91.5 -7q93 0 170.5 27.5t130.5 73t93 109t63 129.5t36 141l86 483h105l-180 -1024h-103l49 272q-133 -303 -477 -303q-58 0 -109 8.5t-106 32.5t-94 63 t-64.5 106t-25.5 155zM496 1208l41 226h125l-41 -226h-125zM1004 1208l38 226h125l-39 -226h-124z" />
<glyph unicode="&#xfd;" horiz-adv-x="1142" d="M-84 -393l16 94q51 -23 129 -23q104 0 177.5 54.5t152.5 185.5l47 78l-325 1028h112l240 -772q31 -106 41 -160h4q38 74 90 158l492 774h118l-718 -1128q-62 -98 -114 -159.5t-105 -95t-102.5 -45.5t-117.5 -12q-70 0 -137 23zM639 1188l322 299h137l-348 -299h-111z" />
<glyph unicode="&#xfe;" horiz-adv-x="1452" d="M66 -399l69 399l262 1485h107l-123 -707q68 122 189.5 200.5t289.5 78.5q70 0 135.5 -13.5t130.5 -46.5t113.5 -84t78.5 -132t30 -183q0 -88 -20.5 -174t-67.5 -169.5t-115 -146.5t-171.5 -102t-228.5 -39q-168 0 -289.5 68.5t-172.5 202.5l-111 -637h-106zM330 504 q-43 -200 67 -321.5t332 -121.5q110 0 199 35t145 90t93.5 127.5t53 143.5t15.5 141q0 86 -25.5 152.5t-64.5 105.5t-93 64t-104 34t-104 9q-192 0 -327.5 -109t-170.5 -272z" />
<glyph unicode="&#xff;" horiz-adv-x="1142" d="M-84 -393l16 94q51 -23 129 -23q104 0 177.5 54.5t152.5 185.5l47 78l-325 1028h112l240 -772q31 -106 41 -160h4q38 74 90 158l492 774h118l-718 -1128q-62 -98 -114 -159.5t-105 -95t-102.5 -45.5t-117.5 -12q-70 0 -137 23zM379 1208l41 226h125l-41 -226h-125z M887 1208l39 226h125l-39 -226h-125z" />
<glyph unicode="&#x152;" horiz-adv-x="2441" d="M129 614q0 123 29.5 238.5t99 226.5t173.5 193t265.5 132t362.5 50h1388l-18 -98h-959l-98 -561h924l-17 -99h-925l-105 -598h973l-16 -98h-1338q-121 0 -224.5 17t-200.5 60.5t-165 111.5t-108.5 176.5t-40.5 248.5zM252 618q0 -518 618 -518h265l219 1254h-297 q-129 0 -239.5 -23.5t-192 -64t-146 -97.5t-106.5 -121.5t-70 -138.5t-39.5 -145.5t-11.5 -145.5z" />
<glyph unicode="&#x153;" horiz-adv-x="2328" d="M96 442q0 89 20 173.5t67 165.5t115 141.5t172.5 97.5t231.5 37q85 0 159.5 -16t142.5 -50.5t118.5 -95.5t75.5 -145q67 140 198.5 223.5t332.5 83.5q144 0 254 -43t176.5 -137.5t66.5 -231.5q0 -69 -20 -151h-979q-2 -16 -2 -50q0 -90 25.5 -159t66.5 -110.5t98 -68 t113.5 -36t120.5 -9.5q116 0 201.5 35t135 90.5t87.5 139.5l88 -37q-32 -72 -74.5 -127.5t-103 -101t-145.5 -69.5t-189 -24q-60 0 -116 7.5t-117.5 28.5t-111 54t-91 87.5t-62.5 125.5q-66 -138 -195.5 -220.5t-322.5 -82.5q-84 0 -158.5 14.5t-145 49t-121.5 87.5 t-81.5 136t-30.5 188zM207 449q0 -87 25 -155t65.5 -111t97.5 -71t117 -39.5t127 -11.5q104 0 189 32.5t139.5 84t91 120.5t52 138t15.5 139q0 87 -24.5 155t-65 111t-97 71t-115.5 39.5t-126 11.5q-106 0 -191.5 -32.5t-140 -84t-91.5 -120.5t-52.5 -138t-15.5 -139z M1237 580h877q8 39 8 79q0 81 -32.5 143t-89.5 98t-126 53.5t-150 17.5q-108 0 -195 -31t-145 -86t-94 -123.5t-53 -150.5z" />
<glyph unicode="&#x178;" horiz-adv-x="1374" d="M174 1454h131l346 -663q41 -73 56 -121h4q22 41 96 121l582 663h143l-778 -883l-101 -571h-116l100 571zM545 1548l35 195h125l-35 -195h-125zM1067 1548l35 195h125l-33 -195h-127z" />
<glyph unicode="&#x2c6;" horiz-adv-x="1228" d="M63 1188l338 299h115l234 -299h-105l-190 244l-279 -244h-113z" />
<glyph unicode="&#x2dc;" horiz-adv-x="1228" d="M115 1233q25 104 86 158.5t149 54.5q49 0 89.5 -16.5t68.5 -39.5t54.5 -46t60.5 -39.5t73 -16.5q126 0 158 142l78 -11q-24 -104 -86 -159.5t-150 -55.5q-50 0 -91 16.5t-69.5 39.5t-55.5 46t-60 39.5t-70 16.5q-128 0 -160 -141z" />
<glyph unicode="&#x2000;" horiz-adv-x="953" />
<glyph unicode="&#x2001;" horiz-adv-x="1907" />
<glyph unicode="&#x2002;" horiz-adv-x="953" />
<glyph unicode="&#x2003;" horiz-adv-x="1907" />
<glyph unicode="&#x2004;" horiz-adv-x="635" />
<glyph unicode="&#x2005;" horiz-adv-x="476" />
<glyph unicode="&#x2006;" horiz-adv-x="317" />
<glyph unicode="&#x2007;" horiz-adv-x="317" />
<glyph unicode="&#x2008;" horiz-adv-x="238" />
<glyph unicode="&#x2009;" horiz-adv-x="381" />
<glyph unicode="&#x200a;" horiz-adv-x="105" />
<glyph unicode="&#x2010;" horiz-adv-x="1005" d="M125 522l16 99h762l-18 -99h-760z" />
<glyph unicode="&#x2011;" horiz-adv-x="1005" d="M125 522l16 99h762l-18 -99h-760z" />
<glyph unicode="&#x2012;" horiz-adv-x="1005" d="M125 522l16 99h762l-18 -99h-760z" />
<glyph unicode="&#x2013;" horiz-adv-x="1312" d="M127 528l14 84h1067l-16 -84h-1065z" />
<glyph unicode="&#x2014;" horiz-adv-x="1886" d="M127 528l14 84h1641l-15 -84h-1640z" />
<glyph unicode="&#x2018;" horiz-adv-x="495" d="M258 1006l37 211q13 66 33 113.5t46.5 75t50.5 42t56 25.5l21 -56q-50 -15 -83.5 -55t-49.5 -123l-2 -16h77l-36 -217h-150z" />
<glyph unicode="&#x2019;" horiz-adv-x="495" d="M246 1042q50 15 83.5 55.5t49.5 123.5l2 16h-78l37 217h149l-36 -211q-24 -125 -71 -179t-116 -77z" />
<glyph unicode="&#x201a;" horiz-adv-x="495" d="M29 -195q50 15 83.5 55.5t49.5 123.5l2 16h-78l37 217h149l-36 -211q-24 -125 -71 -179t-116 -77z" />
<glyph unicode="&#x201c;" horiz-adv-x="776" d="M258 1008l37 211q13 66 33 113.5t46.5 75t50.5 42t56 25.5l21 -56q-50 -15 -83.5 -55t-49.5 -123l-2 -16h77l-36 -217h-150zM539 1008l36 211q24 125 71 179t116 77l20 -56q-50 -15 -83.5 -55t-49.5 -123l-2 -16h78l-37 -217h-149z" />
<glyph unicode="&#x201d;" horiz-adv-x="776" d="M248 1042q50 15 83.5 55.5t49.5 123.5l2 16h-78l37 217h150l-37 -211q-24 -125 -71 -179t-116 -77zM528 1042q106 32 134 179l2 16h-78l37 217h149l-37 -211q-13 -66 -33 -113.5t-46.5 -75t-50.5 -42t-56 -25.5z" />
<glyph unicode="&#x201e;" horiz-adv-x="776" d="M31 -195q50 15 83.5 55.5t49.5 123.5l2 16h-78l37 217h149l-36 -211q-24 -125 -71 -179t-116 -77zM311 -195q50 15 83.5 55.5t49.5 123.5l2 16h-77l37 217h149l-37 -211q-13 -66 -33 -113.5t-46.5 -75t-50.5 -42t-56 -25.5z" />
<glyph unicode="&#x2022;" horiz-adv-x="598" d="M209 709q0 56 34.5 89t90.5 33q55 0 89 -33t34 -89t-34 -89.5t-89 -33.5q-56 0 -90.5 33.5t-34.5 89.5z" />
<glyph unicode="&#x2026;" horiz-adv-x="1691" d="M82 0l37 205h145l-37 -205h-145zM684 0l37 205h145l-37 -205h-145zM1284 0l37 205h145l-36 -205h-146z" />
<glyph unicode="&#x202f;" horiz-adv-x="381" />
<glyph unicode="&#x2039;" horiz-adv-x="706" d="M94 563l490 424h129l-492 -432l324 -418h-119z" />
<glyph unicode="&#x203a;" horiz-adv-x="708" d="M12 137l492 432l-324 418h119l332 -426l-490 -424h-129z" />
<glyph unicode="&#x205f;" horiz-adv-x="476" />
<glyph unicode="&#x20ac;" horiz-adv-x="1617" d="M45 629l14 78h144l6 49h-141l14 78h141q27 129 86 237.5t153 197.5t236.5 140t319.5 51q106 0 196.5 -18.5t168.5 -57t136 -103.5t89 -153v-4l-111 -41q-99 279 -483 279q-149 0 -269.5 -43.5t-199.5 -119.5t-128.5 -167t-74.5 -198h870l-14 -78h-870l-6 -49h868l-14 -78 h-859v-17q0 -127 31.5 -225t82.5 -159t124 -100t148.5 -54t162.5 -15q369 0 525 299l92 -45q-185 -352 -617 -352q-110 0 -205.5 20t-182 67.5t-147 120t-96.5 184t-36 253.5v23h-154z" />
<glyph unicode="&#x2122;" horiz-adv-x="1945" d="M164 1386l12 72h776l-14 -72h-354l-133 -759h-86l135 759h-336zM901 627l148 831h116l181 -627q22 -76 30 -133h4q35 65 78 133l402 627h122l-147 -831h-80l111 624q16 91 24 123h-2q-1 -2 -69 -110l-408 -637h-84l-184 637q-4 18 -14.5 52t-14.5 58h-4q-6 -66 -18 -123 l-109 -624h-82z" />
<glyph unicode="&#x25fc;" horiz-adv-x="1024" d="M0 0v1024h1024v-1024h-1024z" />
</font>
</defs>
</svg>
