<?xml version="1.0" standalone="no"?>
<!DOCTYPE svg PUBLIC "-//W3C//DTD SVG 1.1//EN" "http://www.w3.org/Graphics/SVG/1.1/DTD/svg11.dtd" >
<svg xmlns="http://www.w3.org/2000/svg" xmlns:xlink="http://www.w3.org/1999/xlink" version="1.1">
<metadata></metadata>
<defs>
<font id="gt_americaExultraLtIt" horiz-adv-x="1323" >
<font-face units-per-em="2048" ascent="1638" descent="-410" />
<missing-glyph horiz-adv-x="718" />
<glyph unicode="&#xfb01;" horiz-adv-x="1327" d="M147 969l11 55h250l32 182q26 145 100.5 220t211.5 75q86 0 168 -33l-11 -57q-78 33 -159 33q-111 0 -168 -61t-80 -187l-31 -172h369l-11 -55h-366l-172 -969h-64l170 969h-250zM940 0l180 1024h64l-180 -1024h-64zM1139 1192l43 244h71l-43 -244h-71z" />
<glyph unicode="&#xfb02;" horiz-adv-x="1347" d="M147 969l11 55h250l32 182q26 145 100.5 220t211.5 75q86 0 168 -33l-11 -57q-78 33 -159 33q-111 0 -168 -61t-80 -187l-31 -172h369l-11 -55h-366l-172 -969h-64l170 969h-250zM950 0l262 1485h64l-262 -1485h-64z" />
<glyph horiz-adv-x="0" />
<glyph horiz-adv-x="0" />
<glyph horiz-adv-x="682" />
<glyph unicode="&#xd;" horiz-adv-x="0" />
<glyph unicode=" "  horiz-adv-x="718" />
<glyph unicode="&#x09;" horiz-adv-x="718" />
<glyph unicode="&#xa0;" horiz-adv-x="718" />
<glyph unicode="!" horiz-adv-x="589" d="M164 0l35 195h80l-33 -195h-82zM248 385l180 1100h78l-207 -1100h-51z" />
<glyph unicode="&#x22;" horiz-adv-x="634" d="M272 1001l68 453h70l-95 -453h-43zM489 1001l68 453h70l-95 -453h-43z" />
<glyph unicode="#" horiz-adv-x="1325" d="M39 457v51h309l76 407h-303v54h313l84 448h62l-84 -448h489l84 448h59l-84 -448h302v-54h-312l-76 -407h318v-51h-328l-86 -457h-59l86 457h-490l-86 -457h-61l86 457h-299zM410 508h489l76 407h-490z" />
<glyph unicode="$" horiz-adv-x="1464" d="M98 440l72 4q-8 -104 22.5 -181.5t94.5 -124.5t143 -72.5t180 -34.5l123 690l-92 18q-186 39 -279.5 121t-93.5 221q0 79 31 145t96.5 120t179.5 84t267 30h20l31 176h53l-31 -178q116 -5 205 -31t155 -75t97 -129t23 -187l-68 -6q12 184 -98 272t-324 97l-110 -625 l147 -29q181 -39 273 -122t92 -240q0 -68 -18.5 -127.5t-62.5 -113.5t-110 -92t-168 -60.5t-231 -22.5q-44 0 -64 2l-32 -186h-54l33 188q-91 8 -168 28t-142.5 57.5t-110 89.5t-66.5 127t-15 167zM340 1085q0 -116 79.5 -182.5t258.5 -105.5l65 -13l109 617h-12 q-110 0 -196.5 -17t-142.5 -45.5t-93 -69.5t-52.5 -86.5t-15.5 -97.5zM664 29q18 -2 55 -2q139 0 241.5 28t161 77.5t86 111t27.5 135.5q0 138 -82 206t-248 103l-121 23z" />
<glyph unicode="%" horiz-adv-x="1796" d="M182 1053q0 57 13 113t43 110.5t73.5 95.5t109.5 66.5t146 25.5q48 0 93.5 -9t90.5 -31.5t78 -57t53.5 -89.5t20.5 -124q0 -57 -13 -113t-43 -110.5t-73.5 -96t-110 -67t-147.5 -25.5q-47 0 -91.5 9t-89.5 31.5t-78 57t-54 89.5t-21 125zM242 1057q0 -76 26 -130.5 t69 -82t87 -39.5t92 -12q69 0 126 22.5t93.5 59t62 84t36 95t10.5 95.5q0 75 -26 129.5t-69.5 82t-88 40t-93.5 12.5q-69 0 -125 -22.5t-92.5 -59t-61.5 -84t-35.5 -95t-10.5 -95.5zM250 -31l1304 1520h68l-1303 -1520h-69zM971 279q0 57 13 113t43 110.5t73.5 95.5 t109.5 66.5t146 25.5q48 0 93.5 -9t90.5 -31.5t78 -57t53.5 -89.5t20.5 -124q0 -57 -13 -113t-43 -110.5t-73.5 -96t-110 -67t-147.5 -25.5q-47 0 -91.5 9t-89.5 31.5t-78 57t-54 89.5t-21 125zM1030 283q0 -76 26 -130.5t69 -82.5t87.5 -40t92.5 -12q69 0 126 22.5t93.5 59 t61.5 84.5t35.5 95.5t10.5 95.5q0 75 -26 129.5t-69 82t-87.5 40t-93.5 12.5q-69 0 -125 -22.5t-92.5 -59t-62 -84t-36 -95t-10.5 -95.5z" />
<glyph unicode="&#x26;" horiz-adv-x="1529" d="M66 317q0 64 18 120t61 114.5t121.5 112.5t190.5 102l39 16q-49 68 -77.5 112.5t-56.5 119.5t-28 145q0 49 10 95.5t36 94t65 82t103 56.5t144 22q61 0 114 -13t103 -43t79.5 -89.5t29.5 -142.5q0 -274 -330 -416l-96 -41l459 -549q198 198 272 563l63 -6 q-82 -397 -294 -604q64 -70 117.5 -98.5t115.5 -28.5q42 0 96 16l-10 -59q-59 -18 -106 -18q-134 0 -265 143q-207 -168 -499 -168q-68 0 -129.5 8.5t-126.5 32.5t-112 63t-77 105t-30 153zM135 322q0 -76 30.5 -134.5t74.5 -90.5t103.5 -51.5t108.5 -25.5t99 -6 q262 0 450 156l-471 567l-51 -22q-344 -152 -344 -393zM403 1161q0 -87 38.5 -169t115.5 -183l100 43q293 122 293 369q0 69 -24 117t-64.5 71.5t-81.5 33t-88 9.5q-66 0 -118 -18.5t-83.5 -48t-52 -69t-28 -77.5t-7.5 -78z" />
<glyph unicode="'" horiz-adv-x="417" d="M272 1001l68 453h70l-95 -453h-43z" />
<glyph unicode="(" horiz-adv-x="641" d="M166 500q0 156 32.5 298t84.5 249.5t128 207.5t150 170.5t164 139.5l61 -17q-100 -81 -174.5 -153t-150 -171t-123 -202t-77.5 -238.5t-30 -289.5q0 -362 234 -732l-57 -14q-117 171 -179.5 372t-62.5 380z" />
<glyph unicode=")" horiz-adv-x="641" d="M-94 -236q100 81 174.5 153t150 171t123 202.5t77.5 239t30 289.5q0 361 -234 731l58 15q117 -171 179 -372t62 -380q0 -156 -32.5 -298t-84.5 -249.5t-128 -207.5t-150 -170.5t-164 -139.5z" />
<glyph unicode="*" horiz-adv-x="718" d="M197 1255l28 54l240 -92l35 258h59l-55 -256l270 90l8 -58l-274 -69l145 -219l-53 -39l-123 237l-211 -237l-41 43l224 217z" />
<glyph unicode="+" horiz-adv-x="1300" d="M154 647l10 53h487l78 439h62l-78 -439h491l-8 -53h-491l-82 -461h-62l82 461h-489z" />
<glyph unicode="," horiz-adv-x="440" d="M16 -197q44 21 72.5 59.5t42.5 119.5l4 18h-45l35 199h86l-35 -195q-11 -59 -27 -101.5t-37 -67.5t-39.5 -38t-43.5 -24z" />
<glyph unicode="-" horiz-adv-x="1005" d="M135 541l10 59h748l-10 -59h-748z" />
<glyph unicode="." horiz-adv-x="430" d="M84 0l35 195h82l-35 -195h-82z" />
<glyph unicode="/" horiz-adv-x="1009" d="M-27 -240l1051 1796h66l-1053 -1796h-64z" />
<glyph unicode="0" horiz-adv-x="1462" d="M154 559q0 99 16 199.5t48.5 204t88.5 192.5t129.5 159t178 110t227.5 40q83 0 156 -17t144.5 -60t122.5 -109t82 -172t31 -242q0 -84 -11 -170t-36 -176t-62 -170.5t-93 -152t-124.5 -123.5t-161 -82.5t-198.5 -30.5q-83 0 -157 17t-145.5 60t-122.5 109t-82 172 t-31 242zM221 559q0 -126 29 -223.5t75 -156t110 -96t126.5 -51.5t132.5 -14q95 0 178.5 29t145 78t112 117t83.5 143.5t55.5 159.5t32.5 163t10 156q0 126 -29 223.5t-75 156t-110 96t-126.5 51.5t-132.5 14q-95 0 -178.5 -29t-145 -78t-112 -117t-83.5 -143.5 t-55.5 -159.5t-32.5 -163t-10 -156z" />
<glyph unicode="1" horiz-adv-x="825" d="M172 1079l10 60h47q142 0 251.5 74t154.5 210h53l-250 -1423h-65l221 1260q-52 -84 -148 -132.5t-219 -48.5h-55z" />
<glyph unicode="2" horiz-adv-x="1290" d="M12 0l11 61q579 325 825 517q163 129 238 246t75 249q0 77 -23.5 136.5t-62 95.5t-94 59.5t-111.5 32t-122 8.5q-116 0 -203.5 -29t-140.5 -81t-81 -115.5t-34 -139.5q-4 -37 0 -100l-66 6q-7 44 -2 96q4 66 24 125.5t61 114.5t100 95t147.5 63.5t196.5 23.5 q73 0 138 -10t129.5 -37t111 -69.5t75.5 -111t29 -157.5q0 -105 -43.5 -200t-112.5 -170.5t-180 -165.5q-233 -183 -766 -484h963l-11 -59h-1071z" />
<glyph unicode="3" horiz-adv-x="1361" d="M102 403l68 5q3 -98 36 -171.5t80.5 -114.5t115.5 -66t128 -32.5t132 -7.5q237 0 354 106t117 273q0 155 -96.5 236.5t-282.5 81.5h-142l11 57h133q208 0 330 88.5t122 253.5q0 82 -37.5 142t-101 92t-133.5 46.5t-148 14.5q-120 0 -212 -29.5t-150 -84t-91 -124 t-44 -157.5l-64 6q13 98 50 176.5t103 140.5t170 95.5t241 33.5q93 0 175.5 -18t154.5 -57t114.5 -109t42.5 -164q0 -162 -107 -259t-292 -116q145 -13 233 -98.5t88 -245.5q0 -88 -30 -164.5t-92 -139t-168.5 -98.5t-247.5 -36q-83 0 -154.5 9.5t-147.5 39t-130 77t-90 129 t-38 189.5z" />
<glyph unicode="4" horiz-adv-x="1331" d="M20 403l11 52l1024 968h65l-170 -964h301l-10 -56h-301l-70 -403h-63l70 403h-857zM106 459h781l141 776q11 67 27 125h-4q-38 -47 -105 -107l-729 -702q-77 -67 -111 -92z" />
<glyph unicode="5" horiz-adv-x="1310" d="M96 344l68 6q11 -95 53 -162.5t106.5 -103t133.5 -51t151 -15.5q113 0 204 30.5t148 79.5t95 115t53.5 133.5t15.5 139.5q0 88 -25.5 155.5t-66 108.5t-97.5 67t-113 36t-120 10q-177 0 -289.5 -75t-181.5 -220l-65 6l219 819h899l-10 -59h-848l-182 -668 q65 126 189.5 190t279.5 64q72 0 137 -12t128.5 -43t110 -78t75 -123.5t28.5 -173.5q0 -84 -20 -163t-65.5 -152t-112 -127t-167 -86.5t-223.5 -32.5q-73 0 -139 11.5t-131 39.5t-113.5 71t-82.5 110t-42 153z" />
<glyph unicode="6" horiz-adv-x="1390" d="M150 569q0 83 9.5 166.5t33 173t59 169t91 151t125.5 123t166 82t208 30.5q67 0 129.5 -10.5t126.5 -38t112 -69.5t81 -110t38 -155l-63 -6q-10 90 -50 156.5t-100.5 103.5t-128.5 54.5t-145 17.5q-102 0 -188.5 -28t-149 -75.5t-112.5 -113.5t-82 -138.5t-53.5 -154.5 t-31 -157.5t-10.5 -151.5q61 173 202 265.5t341 92.5q79 0 150 -14t136.5 -48t112.5 -84.5t75 -129t28 -176.5q0 -104 -32.5 -197t-97.5 -170t-174.5 -122.5t-250.5 -45.5q-87 0 -164 17.5t-150 61.5t-125.5 111.5t-84 175t-31.5 244.5zM217 502q7 -108 38.5 -193 t77.5 -139.5t108.5 -89.5t128 -49.5t139.5 -14.5q126 0 221.5 40t151 108.5t83 151t27.5 176.5q0 89 -25 159t-66.5 114t-99 72.5t-118 40t-129.5 11.5q-202 0 -339 -101t-198 -286z" />
<glyph unicode="7" horiz-adv-x="1202" d="M221 1364l10 59h1072l-11 -59q-364 -249 -591.5 -589.5t-276.5 -723.5l-6 -51h-70l4 43q48 376 269.5 717.5t595.5 603.5h-996z" />
<glyph unicode="8" horiz-adv-x="1378" d="M96 334q0 74 24.5 137t78.5 120t152.5 98.5t234.5 60.5q-66 14 -118 37t-100 60.5t-74 97t-26 136.5t26.5 142t85 121t166 88t255.5 32q71 0 137.5 -8.5t136 -32.5t120.5 -61t83.5 -99t32.5 -141q0 -142 -108 -239.5t-351 -132.5l8 -2q58 -14 102 -29.5t97 -46t87 -68 t57.5 -97.5t23.5 -134q0 -65 -16.5 -122t-58 -112t-105 -94t-164 -62.5t-228.5 -23.5q-89 0 -166.5 11t-151 38t-126 69t-84 107.5t-31.5 149.5zM166 342q0 -75 28.5 -133.5t75 -94t112 -58.5t132.5 -31.5t143 -8.5q115 0 204.5 21t144.5 55t90.5 81.5t49 96t13.5 103.5 q0 75 -27.5 132.5t-77 94t-102 58.5t-118.5 38l-156 33q-512 -70 -512 -387zM336 1085q0 -57 18.5 -103.5t46.5 -76t69.5 -53t77.5 -35.5t81 -22l139 -29q138 21 235 57.5t147 84.5t71.5 98t21.5 110t-20 107.5t-55.5 78.5t-78.5 53t-94.5 33.5t-97 16t-92.5 4.5 q-109 0 -193 -19t-135 -50t-84 -74.5t-45 -87t-12 -93.5z" />
<glyph unicode="9" horiz-adv-x="1400" d="M137 352l68 8q1 -82 30 -145t72.5 -99.5t103 -60t112.5 -31.5t110 -8q112 0 204.5 30t155 78.5t110.5 119t75 141.5t44.5 157t23.5 155t7 145q-67 -144 -205 -229t-348 -85q-67 0 -132.5 13.5t-132 46t-116 81t-81 125t-31.5 171.5q0 70 14.5 135.5t54 133.5t100.5 117.5 t162.5 81t231.5 31.5q55 0 106 -7t107 -25t103.5 -46t91 -75t73.5 -107t48 -145.5t18 -188.5q0 -78 -5 -150t-22.5 -167t-46 -174t-81 -159.5t-122 -135.5t-174.5 -90t-233 -35q-66 0 -127.5 9t-130 35.5t-118.5 68t-84 114t-36 166.5zM274 967q0 -87 29 -156t74 -109.5 t104.5 -67.5t114.5 -36.5t111 -9.5q208 0 344.5 92.5t199.5 251.5q-6 113 -39 199.5t-80 137.5t-111.5 83.5t-125 43.5t-127.5 11q-99 0 -178 -19t-131.5 -53t-90 -76t-57.5 -93.5t-28.5 -99.5t-8.5 -99z" />
<glyph unicode=":" horiz-adv-x="430" d="M84 0l35 195h82l-35 -195h-82zM229 829l35 195h82l-35 -195h-82z" />
<glyph unicode=";" horiz-adv-x="477" d="M53 -197q44 21 72.5 59.5t42.5 119.5l4 18h-45l35 199h86l-35 -195q-11 -59 -27 -101.5t-37 -67.5t-39.5 -38t-43.5 -24zM250 829l35 195h82l-35 -195h-82z" />
<glyph unicode="&#x3c;" horiz-adv-x="1517" d="M340 645l10 47l1114 469l-10 -65l-1028 -434l877 -429l-13 -59z" />
<glyph unicode="=" horiz-adv-x="1300" d="M123 471l10 57h1041l-11 -57h-1040zM184 819l11 58h1040l-10 -58h-1041z" />
<glyph unicode="&#x3e;" horiz-adv-x="1519" d="M109 174l10 66l1028 434l-877 428l13 59l950 -471l-10 -47z" />
<glyph unicode="?" horiz-adv-x="1163" d="M178 1094q0 58 15 113.5t53 111t95.5 97t150 67.5t208.5 26q81 0 153 -12t135 -39.5t108.5 -68.5t71.5 -102t26 -136q0 -125 -69.5 -231t-209.5 -177l-163 -84q-52 -26 -85.5 -52.5t-52.5 -59.5t-27.5 -60.5t-17.5 -74.5l-10 -62h-67l12 68q10 53 20.5 85.5t32.5 71 t60.5 70t97.5 60.5l170 83q125 64 182 157t57 200q0 86 -36 148t-99.5 95t-134 47.5t-154.5 14.5q-103 0 -184 -22.5t-131 -58t-82 -84.5t-44.5 -97t-12.5 -101q0 -37 6 -71l-70 4q-4 25 -4 74zM426 0l35 199h80l-37 -199h-78z" />
<glyph unicode="@" horiz-adv-x="1925" d="M121 510q0 84 13 164.5t43.5 165.5t78 158.5t121 139.5t167 112.5t221.5 74t279 27.5q132 0 245 -20.5t216 -69t175 -123t114.5 -189t42.5 -260.5q0 -106 -22 -200t-65 -171t-115 -122t-165 -45q-105 0 -153.5 56.5t-38.5 166.5q-56 -114 -178.5 -178t-272.5 -64 q-63 0 -115 12t-96 37.5t-69 72t-25 110.5q0 245 381 266l410 20l6 35q23 156 -58 224.5t-235 68.5q-89 0 -152 -18t-99.5 -53t-56 -73.5t-32.5 -93.5h-61q24 136 117 213.5t284 77.5q70 0 127 -11.5t107 -37t79 -67.5t42 -103t-3 -143l-43 -234q-21 -116 12.5 -173.5 t127.5 -57.5q65 0 117.5 29t86 76.5t56 111t32 129.5t9.5 135q0 138 -40 245t-106.5 175.5t-161.5 113t-198 62.5t-223 18q-197 0 -352.5 -50t-249.5 -128.5t-155.5 -185t-84.5 -209.5t-23 -213q0 -109 24.5 -202.5t66 -161t99.5 -121t122 -87.5t137 -56.5t140.5 -32 t135.5 -9.5q211 0 430 72v-51q-209 -76 -424 -76q-78 0 -154.5 10.5t-156 36t-149 63t-131.5 95.5t-106 131t-69.5 171.5t-25.5 213.5zM588 365q0 -179 246 -179q176 0 302.5 89t153.5 239l17 88l-410 -20q-309 -18 -309 -217z" />
<glyph unicode="A" horiz-adv-x="1515" d="M-27 0l916 1454h69l404 -1454h-70l-114 426h-861l-266 -426h-78zM354 487h805l-184 682q-49 189 -55 226h-5q-31 -57 -135 -226z" />
<glyph unicode="B" horiz-adv-x="1581" d="M162 0l252 1454h676q196 0 299.5 -86t103.5 -240q0 -68 -19 -128t-59.5 -113t-112.5 -89t-169 -48q130 -17 200 -97.5t70 -218.5q0 -71 -16.5 -132.5t-55.5 -118t-99 -96.5t-152.5 -63.5t-209.5 -23.5h-708zM242 61h630q128 0 220.5 30t143 83.5t73 117.5t22.5 142 q0 287 -342 287h-633zM367 780h630q98 0 174 21t122 54.5t75.5 80t40.5 91.5q10 41 10 87v8q0 131 -85.5 201t-254.5 70h-606z" />
<glyph unicode="C" horiz-adv-x="1634" d="M141 606q0 130 28 253.5t92 240.5t157 204t234.5 140t314.5 53q284 0 449.5 -131.5t174.5 -394.5l-71 -4q-5 122 -47.5 213t-116.5 146.5t-171.5 82.5t-219.5 27q-114 0 -213 -26t-174.5 -71t-137 -108.5t-103.5 -136.5t-70 -155.5t-41 -165.5t-13 -167q0 -130 32.5 -232 t87.5 -168t133 -109t162 -61t181 -18q244 0 398 111t227 342l71 -6q-80 -255 -250.5 -381.5t-445.5 -126.5q-113 0 -210 21t-182.5 70t-146 122.5t-95 184.5t-34.5 251z" />
<glyph unicode="D" horiz-adv-x="1683" d="M158 0l256 1454h520q117 0 215.5 -19t186.5 -64t149.5 -115t97 -177t35.5 -245q0 -133 -31.5 -252.5t-103 -227t-177.5 -185.5t-265 -123.5t-355 -45.5h-528zM238 61h456q184 0 331.5 44t243.5 117t159.5 173.5t90.5 208.5t27 227q0 562 -616 562h-457z" />
<glyph unicode="E" horiz-adv-x="1486" d="M164 0l256 1454h1061l-11 -59h-991l-108 -619h956l-10 -61h-959l-114 -656h1005l-10 -59h-1075z" />
<glyph unicode="F" horiz-adv-x="1423" d="M164 0l256 1454h1061l-11 -59h-991l-108 -619h956l-10 -61h-959l-125 -715h-69z" />
<glyph unicode="G" horiz-adv-x="1683" d="M137 582q0 134 29 262t93.5 247.5t159 208.5t236.5 143t314 54q125 0 228.5 -26t185 -80t132 -143.5t62.5 -209.5l-72 -6q-13 110 -59 189.5t-119.5 125.5t-162 67.5t-197.5 21.5q-158 0 -288 -51t-215.5 -135t-144.5 -196.5t-84.5 -231t-25.5 -242.5q0 -121 28.5 -216.5 t78.5 -159.5t121.5 -106.5t154 -61t180.5 -18.5q131 0 241 36t183 92.5t127 131t82 145t41 142.5l18 109h-612l12 61h676l-129 -735h-57l53 342q-88 -186 -249.5 -285.5t-391.5 -99.5q-106 0 -197.5 21t-172 68t-137.5 118t-89.5 177.5t-32.5 240.5z" />
<glyph unicode="H" horiz-adv-x="1736" d="M164 0l256 1454h69l-118 -678h1089l119 678h70l-256 -1454h-70l127 715h-1090l-127 -715h-69z" />
<glyph unicode="I" horiz-adv-x="577" d="M164 0l256 1454h69l-256 -1454h-69z" />
<glyph unicode="J" horiz-adv-x="854" d="M-43 4l12 64q110 -35 224 -35q152 0 239 82.5t119 265.5l188 1073h70l-193 -1083q-36 -211 -141 -306.5t-287 -95.5q-124 0 -231 35z" />
<glyph unicode="K" horiz-adv-x="1533" d="M164 0l256 1454h69l-165 -940l1163 940h92l-692 -567l471 -887h-78l-449 844l-524 -422l-74 -422h-69z" />
<glyph unicode="L" d="M164 0l256 1454h69l-245 -1393h932l-11 -61h-1001z" />
<glyph unicode="M" horiz-adv-x="2031" d="M164 0l256 1454h94l399 -1300q12 -34 19 -76h4q13 29 45 76l862 1300h101l-256 -1454h-68l227 1274q10 56 21 106h-2q-24 -46 -64 -104l-846 -1276h-63l-395 1276q-18 60 -25 104h-4q-2 -30 -14 -106l-226 -1274h-65z" />
<glyph unicode="N" horiz-adv-x="1724" d="M164 0l256 1454h80l757 -1245q37 -57 72 -123h2q2 9 10.5 61t14.5 82l215 1225h65l-256 -1454h-73l-762 1251q-17 26 -72 125h-4q-4 -50 -23 -141l-217 -1235h-65z" />
<glyph unicode="O" horiz-adv-x="1712" d="M141 608q0 127 28 250t92 240t157 204.5t234 141t313 53.5q108 0 203.5 -19t185 -66.5t153 -120t102 -186.5t38.5 -259q0 -127 -28 -250t-92.5 -240t-157.5 -204.5t-234.5 -141t-313.5 -53.5q-108 0 -202.5 19t-184 66.5t-153 120t-102 186.5t-38.5 259zM213 606 q0 -132 35 -235.5t92.5 -168.5t138 -107.5t165.5 -59.5t181 -17q156 0 284 50.5t212.5 133t142.5 192t83.5 223.5t25.5 231q0 132 -34.5 235.5t-92 168.5t-137.5 107.5t-165 59.5t-181 17q-156 0 -284.5 -50.5t-213 -133.5t-143 -192.5t-84 -223t-25.5 -230.5z" />
<glyph unicode="P" horiz-adv-x="1449" d="M158 0l256 1454h637q70 0 130 -9.5t117.5 -34.5t98.5 -64t65.5 -101.5t24.5 -144.5q0 -67 -15.5 -127.5t-55 -121t-101 -104.5t-161 -71t-226.5 -27h-586l-115 -649h-69zM354 709h574q112 0 198.5 24t139 61.5t86.5 90t46.5 104.5t12.5 109q0 71 -21 125t-54.5 85.5 t-83 51t-98 26.5t-107.5 7h-572z" />
<glyph unicode="Q" horiz-adv-x="1765" d="M141 608q0 127 28 250t92 240t157 204.5t234 141t313 53.5q108 0 203.5 -19t185 -66.5t153 -120t102 -186.5t38.5 -259q0 -106 -19.5 -209.5t-64 -205.5t-109 -186.5t-160.5 -151t-213 -101.5q42 -97 119 -142t195 -45q53 0 137 13l-12 -62q-72 -14 -134 -14 q-137 0 -231 59t-133 176q-87 -20 -201 -20q-108 0 -202.5 19t-184 66.5t-153 120t-102 186.5t-38.5 259zM213 606q0 -132 35 -235.5t92.5 -168.5t138 -107.5t165.5 -59.5t181 -17q156 0 284 50.5t212.5 133t142.5 192t83.5 223.5t25.5 231q0 132 -34.5 235.5t-92 168.5 t-137.5 107.5t-165 59.5t-181 17q-156 0 -284.5 -50.5t-213 -133.5t-143 -192.5t-84 -223t-25.5 -230.5z" />
<glyph unicode="R" horiz-adv-x="1548" d="M158 0l256 1454h630q74 0 136 -10t120 -35t98.5 -64t64.5 -101t24 -142q0 -59 -12.5 -113t-44.5 -109.5t-82.5 -98t-133 -74t-188.5 -41.5l307 -666h-84l-301 662h-2h-602l-117 -662h-69zM354 723h574q114 0 202 23.5t140.5 60t85.5 88t45 101t12 104.5q0 69 -20 121.5 t-53.5 84.5t-82.5 52t-100.5 27.5t-114.5 7.5h-569z" />
<glyph unicode="S" horiz-adv-x="1484" d="M100 453l72 4q-2 -23 -2 -44q0 -91 31 -161q38 -86 116.5 -136.5t180.5 -74t231 -23.5q141 0 245.5 29.5t164 81.5t87 115t27.5 139q0 139 -83.5 206.5t-254.5 102.5l-264 47q-191 41 -285 128t-94 235q0 82 31.5 151t97 125t179.5 87.5t266 31.5q136 0 240 -24 t181 -75.5t113 -139.5q29 -69 29 -158q0 -24 -2 -51l-70 -9q1 20 1 39q0 84 -25 148q-31 78 -97.5 123.5t-156.5 66.5t-211 21q-136 0 -236.5 -27t-156.5 -74.5t-82.5 -105.5t-26.5 -127q0 -122 81 -194t257 -107l266 -51q90 -19 155 -45t117 -68t78.5 -105t26.5 -147 q0 -89 -31.5 -163.5t-99.5 -136t-188.5 -96t-284.5 -34.5q-147 0 -261.5 27t-200.5 84.5t-128 155.5q-35 80 -35 183q0 23 2 46z" />
<glyph unicode="T" horiz-adv-x="1277" d="M176 1395l10 59h1237l-10 -59h-584l-247 -1395h-68l248 1395h-586z" />
<glyph unicode="U" horiz-adv-x="1628" d="M216 399q-1 17 -1 34q0 83 16 183l148 838h70l-150 -848q-15 -92 -15 -168v-29q4 -87 32.5 -152t71.5 -110.5t104.5 -74t130 -41.5t149.5 -13q118 0 211.5 29.5t155.5 78t107 123t70.5 153t43.5 178.5l153 874h70l-156 -883q-16 -91 -39 -164.5t-58 -145.5t-85.5 -125 t-117.5 -94t-157.5 -62t-201.5 -21q-92 0 -170.5 15t-147.5 47.5t-117.5 84t-80.5 124.5t-36 169z" />
<glyph unicode="V" horiz-adv-x="1400" d="M180 1454h74l326 -1202q33 -140 36 -180h7q16 32 100 180l750 1202h77l-903 -1454h-74z" />
<glyph unicode="W" horiz-adv-x="2174" d="M219 1454h74l182 -1315l8 -65h2q1 2 5.5 11.5t12 25t13.5 28.5l701 1315h71l236 -1315q10 -48 10 -65h2q1 1 5 11.5t11 25.5t13 28l647 1315h74l-723 -1454h-78l-234 1303q-8 44 -8 75h-2q-10 -30 -35 -75l-692 -1303h-84z" />
<glyph unicode="X" horiz-adv-x="1417" d="M-51 0l760 756l-463 698h82l377 -567q41 -65 51 -90h2q27 33 84 90l575 567h88l-706 -702l489 -752h-82l-387 596q-49 77 -67 117h-4q-42 -51 -111 -117l-598 -596h-90z" />
<glyph unicode="Y" horiz-adv-x="1349" d="M180 1454h78l360 -670q57 -94 72 -143h4q30 47 123 143l598 670h86l-780 -872l-103 -582h-69l102 582z" />
<glyph unicode="Z" horiz-adv-x="1370" d="M4 0l10 61l1315 1334h-1040l10 59h1133l-11 -59l-1321 -1336h1119l-11 -59h-1204z" />
<glyph unicode="[" horiz-adv-x="741" d="M123 -240l315 1796h414l-8 -53h-352l-299 -1689h352l-8 -54h-414z" />
<glyph unicode="\" horiz-adv-x="1644" d="M289 1556h65l1051 -1796h-64z" />
<glyph unicode="]" horiz-adv-x="741" d="M-59 -240l8 54h352l299 1689h-352l8 53h414l-316 -1796h-413z" />
<glyph unicode="^" horiz-adv-x="876" d="M109 899l473 553h45l278 -553h-61l-246 492l-418 -492h-71z" />
<glyph unicode="_" horiz-adv-x="1024" d="M-135 -262l8 49h1024l-8 -49h-1024z" />
<glyph unicode="`" horiz-adv-x="1228" d="M221 1487h86l334 -299h-74z" />
<glyph unicode="a" d="M98 254q0 119 80 199q116 113 412 129l485 24l6 39q8 47 8 88q1 123 -73 185q-98 84 -299 83q-387 0 -436 -288h-68q27 164 151.5 254t350.5 90q114 0 199.5 -23t145.5 -72q60 -48 82 -130q12 -44 11 -97q0 -45 -8 -96l-47 -266q-40 -228 -43 -373h-66q8 134 33 266 q-72 -145 -212 -222t-329 -77q-81 0 -147.5 15t-121 47.5t-84.5 89.5t-30 135zM166 252q0 -52 18 -92t48 -65.5t72.5 -42t87 -23t95.5 -6.5q226 0 376.5 115t183.5 302l22 115l-471 -23q-432 -22 -432 -280z" />
<glyph unicode="b" horiz-adv-x="1445" d="M147 0l263 1485h63l-133 -754q67 142 196.5 234t315.5 92q68 0 131 -12.5t127.5 -45.5t112 -82.5t77 -130.5t29.5 -184q0 -73 -14.5 -145.5t-44 -144.5t-79 -133.5t-113.5 -109.5t-154 -75t-195 -27q-190 0 -313 80.5t-156 233.5l-59 -281h-54zM301 500q-12 -59 -12 -112 q0 -138 85 -232q118 -130 351 -131q112 0 204.5 36.5t152.5 95t101 135.5t59 154.5t18 155.5q0 92 -26.5 163.5t-68 114.5t-98 70.5t-110.5 38t-111 10.5q-202 0 -345.5 -121.5t-183.5 -302.5z" />
<glyph unicode="c" horiz-adv-x="1275" d="M100 436q0 87 18.5 171t63 166.5t110.5 144.5t169.5 100.5t232.5 38.5q99 0 182.5 -21.5t150.5 -65.5t107 -117t44 -169l-66 -4q-5 84 -40 147t-93 99.5t-129 54.5t-154 18q-118 0 -212 -36t-151.5 -93t-96 -133t-53.5 -149.5t-15 -149.5q0 -92 24.5 -164t65 -118t98 -76 t119 -42.5t131.5 -12.5q352 0 447 317l65 -6q-109 -369 -514 -369q-83 0 -155 15t-137 49.5t-111.5 87.5t-73.5 134t-27 183z" />
<glyph unicode="d" horiz-adv-x="1445" d="M119 432q0 87 20 173t66 168.5t112.5 145t167 100.5t222.5 38q190 0 315 -88t160 -244l135 760h63l-262 -1485h-63l49 272q-62 -134 -185.5 -219.5t-310.5 -85.5q-72 0 -138.5 14t-131.5 48.5t-112.5 86.5t-77 133t-29.5 183zM188 434q0 -93 27 -166t69.5 -117.5 t101.5 -74t116.5 -40.5t120.5 -11q90 0 168.5 25.5t135.5 68t101.5 99.5t71 118.5t39.5 126.5l8 49q10 50 10 96q-1 76 -27 145q-42 110 -152 178t-269 68q-109 0 -198.5 -35t-148 -91.5t-99 -131.5t-58 -152t-17.5 -155z" />
<glyph unicode="e" horiz-adv-x="1282" d="M100 430q0 90 19 175.5t64 168.5t111 145t168.5 100t229.5 38q219 0 348 -104t129 -300q0 -64 -16 -139h-983q-4 -58 -4 -84q0 -95 27.5 -168t70.5 -117t103.5 -72t119 -38t123.5 -10q94 0 168.5 22.5t126 64.5t86.5 93t60 117l59 -13q-28 -75 -67 -133t-97.5 -107 t-144 -75.5t-193.5 -26.5q-74 0 -140 11.5t-135.5 43t-119 81.5t-81.5 134t-32 193zM178 567h920q8 47 8 90q0 169 -114 256.5t-302 87.5q-116 0 -208 -34.5t-153 -96t-98 -137.5t-53 -166z" />
<glyph unicode="f" horiz-adv-x="796" d="M147 969l11 55h250l32 182q26 145 100.5 220t211.5 75q86 0 168 -33l-11 -57q-78 33 -159 33q-111 0 -168 -61t-80 -187l-31 -172h369l-11 -55h-366l-172 -969h-64l170 969h-250z" />
<glyph unicode="g" horiz-adv-x="1294" d="M-12 -164q0 96 64 162.5t184 95.5q-117 39 -117 150q0 70 51 123.5t156 78.5q-103 79 -103 224q0 71 25 135.5t79 123t153.5 93.5t232.5 35q179 0 288 -64q30 83 102 128.5t165 45.5q37 0 61 -6l-10 -59q-27 6 -59 6q-78 0 -138 -36t-84 -105q95 -78 95 -217 q0 -56 -14.5 -108.5t-51 -104t-90.5 -90t-140 -62t-194 -23.5q-171 0 -276 58q-90 -15 -137.5 -59t-47.5 -105q0 -118 193 -123l399 -6q61 -1 107.5 -7t90.5 -21.5t73 -39.5t46 -63t17 -92q0 -33 -6.5 -63.5t-24 -65t-46 -63t-76 -55.5t-109.5 -46t-151.5 -30t-198.5 -11 q-120 0 -209 13t-158.5 43t-105 82.5t-35.5 127.5zM53 -154q0 -63 32.5 -107.5t95 -68.5t140 -34.5t181.5 -10.5q135 0 236 18t157.5 45.5t91 66t45 72t10.5 71.5q0 44 -14.5 75.5t-37 49.5t-60 28.5t-73.5 14t-87 4.5l-405 4q-35 0 -70 6q-118 -23 -180 -85.5t-62 -148.5z M289 678q0 -65 23 -113.5t57.5 -76t83 -44.5t92 -22.5t92.5 -5.5q98 0 175 20t124 51.5t77.5 75.5t42 88t11.5 92q0 64 -23 112.5t-57.5 76t-83 44.5t-92 22.5t-92.5 5.5q-98 0 -175 -20t-124 -52t-77.5 -76t-42 -87.5t-11.5 -90.5z" />
<glyph unicode="h" horiz-adv-x="1431" d="M154 0l262 1485h63l-131 -752q29 67 71 122t102 102t143 73.5t182 26.5q61 0 115.5 -10t109 -37t93 -69.5t63 -112.5t24.5 -160q0 -79 -16 -170l-90 -498h-64l90 502q15 89 15 157q0 81 -21.5 143t-55.5 98.5t-82 59.5t-93.5 31t-97.5 8q-94 0 -175 -28t-139 -75 t-103 -111.5t-72 -134.5t-40 -146l-90 -504h-63z" />
<glyph unicode="i" horiz-adv-x="530" d="M143 0l181 1024h63l-180 -1024h-64zM342 1192l43 244h72l-43 -244h-72z" />
<glyph unicode="j" horiz-adv-x="532" d="M-240 -389l9 57q62 -26 131 -26q97 0 148.5 53.5t70.5 163.5l207 1165h63l-207 -1174q-25 -131 -89.5 -198.5t-188.5 -67.5q-75 0 -144 27zM342 1192l43 244h72l-43 -244h-72z" />
<glyph unicode="k" horiz-adv-x="1273" d="M154 0l262 1485h63l-192 -1088l848 627h92l-508 -381l366 -643h-71l-346 606l-394 -284l-57 -322h-63z" />
<glyph unicode="l" horiz-adv-x="550" d="M154 0l262 1485h63l-262 -1485h-63z" />
<glyph unicode="m" horiz-adv-x="2080" d="M143 0l181 1024h61l-47 -274q21 62 55.5 115t85 96.5t121.5 68.5t154 25q52 0 99 -9.5t93 -33t80 -60t56 -94t24 -131.5q119 328 430 328q58 0 109.5 -11t100 -38.5t83 -69t55.5 -107.5t21 -149q0 -58 -17 -152l-94 -528h-63l94 528q12 76 12 140q0 91 -26 157.5 t-71.5 103t-98.5 53.5t-117 17q-94 0 -169 -36t-126.5 -101.5t-84 -146.5t-50.5 -180l-95 -535h-61l98 553q13 83 13 135q0 90 -27.5 154t-74.5 96.5t-97.5 46.5t-108.5 14q-96 0 -173.5 -37t-130.5 -104.5t-87.5 -154.5t-52.5 -195l-90 -508h-64z" />
<glyph unicode="n" horiz-adv-x="1421" d="M143 0l181 1024h63l-53 -295q141 326 491 326q60 0 112 -8.5t109.5 -35t97.5 -69.5t66.5 -117.5t26.5 -173.5q0 -80 -16 -168l-86 -483h-64l88 498q15 82 15 149q0 85 -23.5 149.5t-59 101.5t-85.5 60.5t-96 31t-97 7.5q-96 0 -176.5 -29.5t-136.5 -78t-99 -116 t-68.5 -138t-39.5 -148.5l-86 -487h-64z" />
<glyph unicode="o" horiz-adv-x="1318" d="M102 442q0 89 19 173t64 165.5t111.5 142t169 97.5t228.5 37q82 0 155 -14.5t142 -49t118 -87.5t78.5 -136t29.5 -188q0 -89 -19 -173t-64 -165.5t-111.5 -142t-169 -97.5t-228.5 -37q-82 0 -155 14.5t-142 49t-118 87.5t-78.5 136t-29.5 188zM170 444q0 -116 39 -200.5 t106.5 -130.5t145 -67t168.5 -21q111 0 201.5 34t148.5 89.5t97.5 129t56 149t16.5 153.5q0 116 -39 200.5t-106.5 130.5t-145 67t-168.5 21q-111 0 -201.5 -34t-148.5 -89.5t-97.5 -129t-56 -149t-16.5 -153.5z" />
<glyph unicode="p" horiz-adv-x="1437" d="M68 -399l251 1423h64l-53 -297q62 143 194 236.5t318 93.5q68 0 132 -12.5t128.5 -45.5t112 -82.5t77 -130t29.5 -182.5q0 -88 -20 -175t-66 -171.5t-113.5 -148t-171 -103t-229.5 -39.5q-193 0 -315 81.5t-154 232.5l-119 -680h-65zM291 487q-11 -53 -11 -101 q0 -138 88 -233q117 -128 347 -128q113 0 205.5 36t152.5 95t101.5 136t59 155t17.5 157q0 91 -26 162.5t-67.5 114t-97.5 70.5t-109.5 38t-110.5 10q-105 0 -198.5 -36.5t-160.5 -98.5t-112.5 -140.5t-63.5 -164.5z" />
<glyph unicode="q" horiz-adv-x="1435" d="M117 428q0 87 20 173t66 169t112.5 146t167 102t222.5 39q190 0 316 -87t163 -239l63 293h51l-249 -1423h-66l119 680q-62 -143 -188.5 -228.5t-307.5 -85.5q-73 0 -140 14.5t-131.5 48.5t-112 85.5t-76.5 132t-29 180.5zM186 430q0 -91 26.5 -162.5t68.5 -116.5t100 -74 t116 -40.5t121 -11.5q108 0 199.5 36t155 97.5t105.5 139t59 165.5l8 49q10 50 10 96q0 77 -27 145q-42 110 -152 178t-269 68q-108 0 -197 -35.5t-148 -93t-99.5 -133t-58.5 -153t-18 -154.5z" />
<glyph unicode="r" horiz-adv-x="831" d="M143 0l181 1024h61l-59 -346q27 83 63 147t88 116t125.5 80t165.5 28q34 0 104 -13l-12 -59q-53 12 -104 12q-152 0 -256 -96q-75 -66 -130.5 -176.5t-78.5 -241.5l-84 -475h-64z" />
<glyph unicode="s" horiz-adv-x="1198" d="M74 326l65 6v-6q0 -68 22 -120q23 -54 61 -88t94 -55t115.5 -29.5t131.5 -8.5q93 0 164 14.5t115.5 38t72.5 57.5t39 68.5t11 75.5q0 84 -50 133t-163 69l-293 39q-135 22 -202 81t-67 163q0 131 108.5 212t338.5 81q453 0 453 -336l-64 -8q-2 70 -23 121.5t-54.5 83 t-83.5 50.5t-102.5 26t-119.5 7q-385 0 -385 -233q0 -79 48.5 -125t172.5 -68l293 -40q133 -22 196.5 -85t63.5 -171q0 -48 -13 -91t-46.5 -84.5t-85.5 -71t-135.5 -47.5t-190.5 -18q-80 0 -147.5 9.5t-132.5 35t-110 65t-71 103.5q-26 61 -26 140v6z" />
<glyph unicode="t" horiz-adv-x="839" d="M141 969l11 55h245l49 279l70 30l-53 -309h375l-11 -55h-374l-113 -643q-9 -43 -9 -78q1 -8 1 -16q2 -41 8 -71t23 -51.5t34.5 -34.5t42.5 -20.5t47.5 -10.5t49.5 -3q71 0 131 14l-11 -57q-65 -14 -137 -14q-254 0 -254 243q0 49 10 107l113 635h-248z" />
<glyph unicode="u" horiz-adv-x="1409" d="M180 346q0 66 21 195l84 483h65l-88 -498q-18 -113 -18 -172q0 -80 22.5 -141t56.5 -96t82.5 -56.5t92.5 -28.5t94 -7q96 0 177.5 29.5t138 78.5t100 116.5t69 138t39.5 149.5l86 487h64l-181 -1024h-63l53 303q-30 -72 -69 -128t-97 -105t-141.5 -75t-187.5 -26 q-58 0 -109 8t-106.5 32.5t-94.5 64.5t-64.5 109.5t-25.5 162.5z" />
<glyph unicode="v" horiz-adv-x="1140" d="M117 1024h67l267 -834q26 -86 34 -127h7q22 46 79 127l559 834h74l-688 -1024h-72z" />
<glyph unicode="w" horiz-adv-x="1794" d="M147 1024h64l170 -829q17 -97 18 -127h7q12 27 38 74t29 53l481 829h64l188 -829q1 -3 11 -51.5t12 -75.5h4q27 60 65 127l463 829h66l-574 -1024h-63l-191 848q-10 45 -20 108h-2q-20 -43 -57 -108l-490 -848h-68z" />
<glyph unicode="x" horiz-adv-x="1140" d="M-33 0l568 535l-361 489h78l246 -330q54 -75 82 -123h4q33 38 118 123l359 330h86l-531 -492l377 -532h-75l-271 379q-42 60 -74 115h-4q-86 -90 -116 -119l-400 -375h-86z" />
<glyph unicode="y" horiz-adv-x="1118" d="M-92 -393l10 57q42 -22 123 -22q116 0 188.5 57t167.5 209l49 80l-329 1036h67l248 -784q41 -125 55 -197h5q36 69 116 195l504 786h70l-719 -1116q-84 -134 -148 -202.5t-127 -95t-153 -26.5q-76 0 -127 23z" />
<glyph unicode="z" horiz-adv-x="1167" d="M29 0l10 55l999 914h-807l11 55h888l-8 -51l-1001 -918h862l-10 -55h-944z" />
<glyph unicode="{" horiz-adv-x="729" d="M94 647l10 53q65 1 104 10.5t61.5 33t31.5 49.5t18 75l70 398q13 74 36.5 127t65.5 95.5t109.5 63.5t161.5 21h76l-9 -53h-63q-82 0 -139.5 -18t-92.5 -54.5t-54 -82t-31 -110.5l-70 -401q-13 -77 -48 -118.5t-114 -59.5q49 -14 73.5 -42.5t27 -67t-4.5 -89.5l-69 -397 q-7 -42 -7.5 -77t5 -60.5t17.5 -46t25.5 -34t33 -23t37 -15t41 -8.5t40.5 -3.5t39 -0.5h57l-8 -54h-59q-27 0 -49 1.5t-49.5 5.5t-50 11t-45.5 20t-40 30t-31 42t-21 56t-6.5 73t9.5 91l70 383q9 56 6 94t-41.5 59t-122.5 23z" />
<glyph unicode="|" horiz-adv-x="546" d="M111 -240l317 1796h59l-317 -1796h-59z" />
<glyph unicode="}" horiz-adv-x="727" d="M-53 -242l8 54h63q82 0 139.5 17.5t93 54t54.5 82t31 110.5l70 401q13 77 47.5 118.5t113.5 59.5q-49 14 -73.5 42.5t-27 67t4.5 89.5l70 397q7 42 7 77t-5 60.5t-17 46t-25.5 34t-33.5 23.5t-37.5 15t-41 8.5t-40.5 4t-39 0.5h-57l8 53h59q27 0 49 -1.5t49.5 -5.5 t50 -11t45.5 -20t40 -30t31 -42t21 -56t6.5 -73t-9.5 -91l-70 -383q-9 -56 -6 -94t41.5 -59t122.5 -23l-10 -53q-65 -1 -104 -10.5t-61.5 -33t-31.5 -49.5t-18 -75l-70 -397q-13 -74 -36.5 -127t-65.5 -96t-109 -64t-161 -21h-76z" />
<glyph unicode="~" horiz-adv-x="1427" d="M242 479q59 246 270 246q59 0 108.5 -21t84.5 -51t68.5 -60.5t77.5 -51.5t95 -21q82 0 136 46t79 151l56 -2q-28 -126 -99 -187t-172 -61q-50 0 -93.5 15t-73 38t-61.5 49.5t-59 49.5t-65.5 38t-81.5 15q-81 0 -134.5 -46t-80.5 -151z" />
<glyph unicode="&#xa1;" horiz-adv-x="589" d="M113 -297l206 1100h52l-181 -1100h-77zM340 993l33 195h82l-35 -195h-80z" />
<glyph unicode="&#xa2;" horiz-adv-x="1284" d="M100 434q0 87 18.5 171t63 167t110.5 145.5t171 101t235 38.5h21l29 160h51l-29 -162q86 -8 157.5 -33t128.5 -68.5t90.5 -112t37.5 -155.5l-64 -4q-9 148 -106.5 226t-253.5 91l-170 -976h20q357 0 451 317l63 -6q-110 -367 -516 -367h-28l-27 -151h-51l26 155 q-91 9 -165.5 38.5t-135 83t-94 140.5t-33.5 201zM166 438q0 -103 29.5 -181t83 -125t118 -72.5t142.5 -32.5l172 974h-13q-120 0 -214.5 -36.5t-153 -94t-96.5 -134t-53 -150t-15 -148.5z" />
<glyph unicode="&#xa3;" horiz-adv-x="1398" d="M-16 41q102 29 173.5 67.5t127 101t82 155t26.5 219.5q0 72 -6 133h-252l8 53h240q-4 66 -4 94q0 103 12.5 186.5t46.5 163t89 133t145 85.5t209 32q204 0 319.5 -91t122.5 -283l-66 -9q-19 328 -376 328q-107 0 -186 -29.5t-126 -77t-75.5 -120.5t-38 -147.5 t-9.5 -170.5q0 -12 5 -94h501l-10 -53h-487q6 -55 6 -117q0 -161 -40 -270.5t-109 -170.5t-177 -100q124 33 266 33q124 0 268.5 -33.5t233.5 -33.5q134 0 211 63t98 207l60 -6q-24 -169 -117.5 -246.5t-251.5 -77.5q-90 0 -242.5 36t-283.5 36q-88 0 -167 -10.5t-218 -36.5 z" />
<glyph unicode="&#xa4;" horiz-adv-x="1257" d="M90 197l137 118q-86 107 -86 258q0 114 40 213.5t120 169.5l-90 109l43 37l90 -113q134 94 334 94q106 0 200.5 -31.5t159.5 -93.5l127 109l33 -35l-125 -108q84 -104 84 -256q0 -114 -40 -213.5t-120 -169.5l88 -111l-43 -37l-90 111q-137 -90 -331 -90 q-106 0 -201 31.5t-160 93.5l-141 -121zM203 578q0 -75 23 -136.5t62 -103t92.5 -70t113 -41t124.5 -12.5q98 0 179 24.5t135.5 67t92 100t54.5 122t17 135.5q0 93 -34.5 164.5t-94 113.5t-131.5 63t-154 21q-122 0 -216.5 -37t-150.5 -101t-84 -142.5t-28 -167.5z" />
<glyph unicode="&#xa5;" horiz-adv-x="1374" d="M90 344l10 51h533l31 170h-535l10 51h523l-488 807h76l356 -592q66 -103 101 -180h4q66 82 161 180l568 592h82l-772 -807h522l-10 -51h-531l-31 -170h531l-8 -51h-533l-61 -344h-66l62 344h-535z" />
<glyph unicode="&#xa6;" horiz-adv-x="546" d="M111 -240l137 775h59l-137 -775h-59zM291 782l137 774h59l-137 -774h-59z" />
<glyph unicode="&#xa7;" horiz-adv-x="1216" d="M41 113l63 6q-1 -65 22.5 -115t61.5 -80t92.5 -49t109 -26t118.5 -7q116 0 199 22t126 61t61.5 82.5t18.5 96.5q0 86 -51.5 142.5t-159.5 95.5l-315 86q-115 37 -172 96t-57 154q0 205 258 272q-131 80 -131 224q0 56 21.5 106.5t69.5 96.5t138 73t213 27q61 0 118 -7.5 t118 -28t104.5 -53t70 -87t23.5 -125.5l-63 -9q2 63 -23.5 111t-63.5 74.5t-90.5 42.5t-96 21t-89.5 5q-91 0 -161 -15t-111.5 -38.5t-68 -56t-35.5 -63.5t-9 -66q0 -156 197 -221l280 -78q145 -49 210 -110t65 -159q0 -198 -230 -290q107 -79 107 -211q0 -52 -14 -97.5 t-48.5 -88t-87.5 -73t-136 -49t-189 -18.5q-70 0 -132 8.5t-125 31t-108 57.5t-72.5 94t-25.5 135zM223 688q0 -76 48.5 -126t156.5 -87l297 -76q54 -19 104 -47q209 76 209 252q0 86 -56.5 134t-188.5 96l-285 77l-33 13q-123 -26 -187.5 -86t-64.5 -150z" />
<glyph unicode="&#xa8;" horiz-adv-x="1228" d="M106 1198l41 232h72l-41 -232h-72zM610 1198l39 232h72l-39 -232h-72z" />
<glyph unicode="&#xa9;" horiz-adv-x="1875" d="M143 639q0 82 12.5 163.5t42.5 167.5t75 161.5t114.5 143t156 115.5t204.5 76.5t256 28.5q97 0 188 -15.5t180 -47.5t162.5 -87t130 -128t88 -176.5t31.5 -227.5q0 -83 -13.5 -165.5t-44.5 -168t-77 -161t-116.5 -142.5t-158 -115t-206 -76t-255.5 -28q-121 0 -230.5 23 t-209 75.5t-172 130t-115.5 194t-43 259.5zM197 643q0 -160 58 -285t158.5 -201t226.5 -114.5t271 -38.5q147 0 272 35t213 96.5t154.5 140.5t105.5 171t58 183.5t19 182.5q-1 133 -42.5 242t-111 181t-164 121.5t-196.5 71t-213 21.5q-176 0 -317.5 -51.5t-231.5 -133 t-150 -190t-85 -216t-25 -216.5zM537 680q0 70 15.5 136t52.5 130t91.5 111.5t138 76.5t187.5 29q101 1 182.5 -29t134.5 -97t58 -163l-56 -4q-5 81 -53 137.5t-116 80.5t-150 24q-78 0 -143.5 -18.5t-111 -51t-80 -74t-54 -90.5t-29 -98t-8.5 -98q1 -92 31.5 -160 t82.5 -105.5t110 -55t124 -17.5q274 0 348 231l56 -4q-90 -280 -404 -280q-62 0 -119 12t-110 41t-92 73t-62.5 111.5t-23.5 151.5z" />
<glyph unicode="&#xaa;" horiz-adv-x="1038" d="M207 823q0 113 93 172t286 68l342 14l2 15q24 143 -43.5 205.5t-218.5 62.5q-280 0 -318 -199h-61q43 244 379 244q180 0 263.5 -77.5t55.5 -240.5l-29 -176q-29 -185 -32 -276h-60q4 85 23 196q-51 -108 -155 -163.5t-240 -55.5q-128 0 -207.5 50.5t-79.5 160.5z M268 825q0 -47 20 -81t54.5 -53t75.5 -27.5t90 -8.5q161 0 268.5 83.5t132.5 222.5l15 77l-330 -14q-326 -13 -326 -199z" />
<glyph unicode="&#xab;" horiz-adv-x="1079" d="M109 563l487 424h82l-490 -430l324 -420h-74zM492 563l487 424h82l-490 -430l324 -420h-74z" />
<glyph unicode="&#xac;" horiz-adv-x="1505" d="M279 655l10 60h997l-78 -447h-63l69 387h-935z" />
<glyph unicode="&#xad;" horiz-adv-x="1005" d="M135 541l10 59h748l-10 -59h-748z" />
<glyph unicode="&#xae;" horiz-adv-x="1875" d="M143 639q0 82 12.5 163.5t42.5 167.5t75 161.5t114.5 143t156 115.5t204.5 76.5t256 28.5q97 0 188 -15.5t180 -47.5t162.5 -87t130 -128t88 -176.5t31.5 -227.5q0 -83 -13.5 -165.5t-44.5 -168t-77 -161t-116.5 -142.5t-158 -115t-206 -76t-255.5 -28q-121 0 -230.5 23 t-209 75.5t-172 130t-115.5 194t-43 259.5zM197 643q0 -160 58 -285t158.5 -201t226.5 -114.5t271 -38.5q147 0 272 35t213 96.5t154.5 140.5t105.5 171t58 183.5t19 182.5q-1 133 -42.5 242t-111 181t-164 121.5t-196.5 71t-213 21.5q-176 0 -317.5 -51.5t-231.5 -133 t-150 -190t-85 -216t-25 -216.5zM606 319l148 832h362q54 0 98.5 -9.5t85 -32t63.5 -66t23 -105.5q0 -37 -11 -71.5t-36.5 -71t-78.5 -63.5t-127 -38l163 -375h-61l-158 371h-348l-65 -371h-58zM737 739h322q76 0 130.5 17t83 46.5t40.5 62.5t12 71q0 164 -209 164h-315z " />
<glyph unicode="&#xaf;" horiz-adv-x="1228" d="M102 1294l11 52h688l-8 -52h-691z" />
<glyph unicode="&#xb0;" horiz-adv-x="911" d="M193 1051q0 71 24 141.5t71 133.5t128 102.5t184 39.5q147 0 237.5 -80.5t90.5 -220.5q0 -71 -24 -141.5t-71 -133.5t-128.5 -102.5t-184.5 -39.5q-148 0 -237.5 80t-89.5 221zM254 1053q0 -115 71 -181.5t195 -66.5q86 0 155 34t109 88.5t61 115.5t21 122 q0 111 -70 179.5t-194 68.5q-87 0 -156.5 -34t-109.5 -88.5t-61 -115.5t-21 -122z" />
<glyph unicode="&#xb1;" horiz-adv-x="1552" d="M164 0l10 57h1043l-11 -57h-1042zM279 657l10 54h489l70 399h63l-71 -399h491l-10 -54h-490l-69 -389h-62l68 389h-489z" />
<glyph unicode="&#xb4;" horiz-adv-x="1228" d="M100 1188l334 299h86l-346 -299h-74z" />
<glyph unicode="&#xb5;" horiz-adv-x="1447" d="M76 -399l248 1423h65l-88 -498q-18 -113 -18 -172q0 -80 22.5 -141t56.5 -96t82.5 -56.5t92.5 -28.5t94 -7q96 0 177.5 29.5t138 78.5t100 116.5t69 138t39.5 149.5l86 487h64l-181 -1024h-63l53 303q-30 -72 -69 -128t-97 -104.5t-142 -75t-188 -26.5q-307 0 -378 228 l-105 -596h-59z" />
<glyph unicode="&#xb6;" horiz-adv-x="1576" d="M219 1071q0 63 15.5 117.5t56.5 108.5t105 92.5t169.5 62t241.5 23.5h754l-9 -50h-256l-286 -1630h-60l289 1630h-358l-289 -1630h-57l165 944q-58 0 -116 7.5t-126 30t-119 58t-85.5 96.5t-34.5 140z" />
<glyph unicode="&#xb7;" horiz-adv-x="430" d="M190 610l35 195h82l-35 -195h-82z" />
<glyph unicode="&#xb8;" horiz-adv-x="1228" d="M94 -281l56 5q20 -82 126 -82q64 0 101 29t37 83q0 43 -29 67.5t-84 24.5q-63 0 -115 -41l-39 15l146 182h55l-125 -147q37 30 105 30q67 0 105 -34.5t38 -94.5q0 -74 -54.5 -118t-140.5 -44q-80 0 -127 33.5t-55 91.5z" />
<glyph unicode="&#xba;" horiz-adv-x="1044" d="M188 956q0 82 25 158t76 143t142 107.5t210 40.5q77 0 143 -17.5t123 -55.5t90 -107.5t33 -163.5q0 -82 -24.5 -158t-75 -143t-141 -107.5t-209.5 -40.5q-77 0 -143.5 17.5t-124 55.5t-91 107.5t-33.5 163.5zM252 956q0 -65 19 -117t50.5 -85t75 -55t90 -31t97.5 -9 q101 0 178.5 37t121 97.5t64.5 128t21 139.5q0 65 -19 117t-50.5 85t-75.5 55t-90.5 31t-98.5 9q-82 0 -148.5 -24.5t-109 -65t-71.5 -93.5t-41.5 -108t-12.5 -111z" />
<glyph unicode="&#xbb;" horiz-adv-x="1081" d="M37 137l489 430l-323 420h73l330 -426l-487 -424h-82zM420 137l489 430l-323 420h73l330 -426l-487 -424h-82z" />
<glyph unicode="&#xbc;" horiz-adv-x="1685" d="M106 -35l1287 1524h65l-1286 -1524h-66zM195 1253l6 50h30q85 0 149 39t91 112h49l-135 -768h-59l118 662q-31 -44 -88 -69.5t-127 -25.5h-34zM801 211l6 41l602 516h59l-92 -514h183l-7 -43h-182l-37 -211h-59l37 211h-510zM870 254h449l86 455z" />
<glyph unicode="&#xbd;" horiz-adv-x="1773" d="M106 -35l1287 1524h65l-1286 -1524h-66zM195 1253l6 50h30q85 0 149 39t91 112h49l-135 -768h-59l118 662q-31 -44 -88 -69.5t-127 -25.5h-34zM936 0l6 45q273 136 345 177q235 132 297 248q26 50 26 101q0 49 -20 84.5t-56 54t-76.5 27t-89.5 8.5q-135 0 -207 -66 t-53 -177l-57 4q-21 129 69 207t252 78q57 0 106 -10t94.5 -32.5t72 -66t26.5 -104.5q0 -54 -22.5 -104.5t-76.5 -100.5t-98.5 -85.5t-136.5 -86.5t-138 -74.5t-153 -75.5l-12 -6h568l-9 -45h-657z" />
<glyph unicode="&#xbe;" horiz-adv-x="2004" d="M160 907l59 4q14 -202 289 -202q133 0 199.5 52.5t66.5 139.5q0 78 -58 121t-169 43h-80l8 39h74q122 0 193 45t71 131q0 54 -39 90t-91.5 49t-115.5 13q-133 0 -202.5 -55t-79.5 -148l-58 4q11 111 96 177.5t246 66.5q57 0 107.5 -10t96 -31t72.5 -59.5t27 -90.5 q0 -87 -63 -139.5t-176 -61.5q90 -8 146.5 -54.5t56.5 -131.5q0 -101 -81.5 -167t-244.5 -66q-338 0 -350 241zM426 -35l1286 1524h66l-1286 -1524h-66zM1120 211l6 41l603 516h59l-92 -514h182l-6 -43h-182l-37 -211h-60l37 211h-510zM1190 254h448l86 455z" />
<glyph unicode="&#xbf;" horiz-adv-x="1157" d="M-8 37q0 125 69 230.5t209 176.5l164 84q42 21 72 44t48 43t30.5 49t18.5 51.5t13 60.5l11 62h67l-12 -68q-10 -53 -20.5 -85.5t-32.5 -71t-60.5 -70t-97.5 -60.5l-170 -84q-125 -64 -182.5 -157t-57.5 -199q0 -86 36 -148t99.5 -95t134 -47.5t154.5 -14.5q103 0 184 22 t131 57.5t82.5 84.5t45 97t12.5 101q0 38 -6 72l70 -4q4 -25 4 -74q0 -58 -15 -113.5t-53.5 -111.5t-96 -97.5t-150 -67.5t-208.5 -26q-102 0 -189 20.5t-156 62t-108.5 112t-39.5 164.5zM645 989l37 199h78l-35 -199h-80z" />
<glyph unicode="&#xc0;" horiz-adv-x="1515" d="M-27 0l916 1454h69l404 -1454h-70l-114 426h-861l-266 -426h-78zM354 487h805l-184 682q-49 189 -55 226h-5q-31 -57 -135 -226zM604 1737h94l283 -189h-84z" />
<glyph unicode="&#xc1;" horiz-adv-x="1515" d="M-27 0l916 1454h69l404 -1454h-70l-114 426h-861l-266 -426h-78zM354 487h805l-184 682q-49 189 -55 226h-5q-31 -57 -135 -226zM899 1548l283 189h94l-293 -189h-84z" />
<glyph unicode="&#xc2;" horiz-adv-x="1515" d="M-27 0l916 1454h69l404 -1454h-70l-114 426h-861l-266 -426h-78zM354 487h805l-184 682q-49 189 -55 226h-5q-31 -57 -135 -226zM645 1548l291 189h76l223 -189h-80l-182 154l-238 -154h-90z" />
<glyph unicode="&#xc3;" horiz-adv-x="1515" d="M-27 0l916 1454h69l404 -1454h-70l-114 426h-861l-266 -426h-78zM354 487h805l-184 682q-49 189 -55 226h-5q-31 -57 -135 -226zM588 1556q38 193 205 193q45 0 82.5 -16.5t64 -39.5t52.5 -46t59 -39.5t71 -16.5q61 0 98.5 31.5t51.5 110.5l53 -4q-38 -191 -203 -191 q-45 0 -82.5 16.5t-64.5 39.5t-53 46t-58.5 39.5t-70.5 16.5q-61 0 -98.5 -32t-53.5 -112z" />
<glyph unicode="&#xc4;" horiz-adv-x="1515" d="M-27 0l916 1454h69l404 -1454h-70l-114 426h-861l-266 -426h-78zM354 487h805l-184 682q-49 189 -55 226h-5q-31 -57 -135 -226zM647 1548l33 187h74l-35 -187h-72zM1163 1548l33 187h72l-33 -187h-72z" />
<glyph unicode="&#xc5;" horiz-adv-x="1515" d="M-27 0l916 1454h69l404 -1454h-70l-114 426h-861l-266 -426h-78zM354 487h805l-184 682q-49 189 -55 226h-5q-31 -57 -135 -226zM760 1675q0 93 67.5 155t163.5 62q81 0 128.5 -44.5t47.5 -118.5q0 -93 -66.5 -155.5t-162.5 -62.5q-82 0 -130 45t-48 119zM815 1677 q0 -53 33 -85.5t94 -32.5q77 0 123.5 48t46.5 119q0 53 -32 86t-93 33q-77 0 -124.5 -48.5t-47.5 -119.5z" />
<glyph unicode="&#xc6;" horiz-adv-x="2500" d="M41 0l1370 1454h1086l-11 -59h-1001l-109 -619h967l-10 -61h-967l-117 -656h1016l-10 -59h-1084l66 373h-766l-350 -373h-80zM526 432h721l168 946z" />
<glyph unicode="&#xc7;" horiz-adv-x="1634" d="M141 606q0 130 28 253.5t92 240.5t157 204t234.5 140t314.5 53q284 0 449.5 -131.5t174.5 -394.5l-71 -4q-5 122 -47.5 213t-116.5 146.5t-171.5 82.5t-219.5 27q-114 0 -213 -26t-174.5 -71t-137 -108.5t-103.5 -136.5t-70 -155.5t-41 -165.5t-13 -167q0 -130 32.5 -232 t87.5 -168t133 -109t162 -61t181 -18q244 0 398 111t227 342l71 -6q-80 -255 -250.5 -381.5t-445.5 -126.5h-33l-100 -119q39 31 104 31q67 0 105.5 -34.5t38.5 -94.5q0 -74 -54.5 -118t-140.5 -44q-80 0 -127 33.5t-55 91.5l55 4q20 -82 127 -82q64 0 100.5 29t36.5 84 q0 43 -28.5 67.5t-83.5 24.5q-63 0 -115 -41l-39 14l125 158q-101 8 -186.5 34t-160 77t-126.5 123t-81.5 177t-29.5 234z" />
<glyph unicode="&#xc8;" horiz-adv-x="1486" d="M164 0l256 1454h1061l-11 -59h-991l-108 -619h956l-10 -61h-959l-114 -656h1005l-10 -59h-1075zM651 1737h94l283 -189h-84z" />
<glyph unicode="&#xc9;" horiz-adv-x="1486" d="M164 0l256 1454h1061l-11 -59h-991l-108 -619h956l-10 -61h-959l-114 -656h1005l-10 -59h-1075zM946 1548l283 189h94l-293 -189h-84z" />
<glyph unicode="&#xca;" horiz-adv-x="1486" d="M164 0l256 1454h1061l-11 -59h-991l-108 -619h956l-10 -61h-959l-114 -656h1005l-10 -59h-1075zM692 1548l291 189h76l223 -189h-80l-182 154l-238 -154h-90z" />
<glyph unicode="&#xcb;" horiz-adv-x="1486" d="M164 0l256 1454h1061l-11 -59h-991l-108 -619h956l-10 -61h-959l-114 -656h1005l-10 -59h-1075zM694 1548l33 187h74l-35 -187h-72zM1210 1548l33 187h72l-33 -187h-72z" />
<glyph unicode="&#xcc;" horiz-adv-x="577" d="M164 0l256 1454h69l-256 -1454h-69zM248 1737h82l174 -189h-76z" />
<glyph unicode="&#xcd;" horiz-adv-x="577" d="M164 0l256 1454h69l-256 -1454h-69zM434 1548l174 189h82l-180 -189h-76z" />
<glyph unicode="&#xce;" horiz-adv-x="577" d="M164 0l256 1454h69l-256 -1454h-69zM272 1550l195 187h74l127 -187h-68l-98 152l-154 -152h-76z" />
<glyph unicode="&#xcf;" horiz-adv-x="577" d="M164 0l256 1454h69l-256 -1454h-69zM295 1548l33 187h71l-32 -187h-72zM575 1548l33 187h72l-33 -187h-72z" />
<glyph unicode="&#xd0;" horiz-adv-x="1703" d="M39 727l10 57h246l119 670h520q117 0 215.5 -19t186.5 -64t149.5 -115t97 -177t35.5 -245q0 -133 -31.5 -252.5t-103 -227t-177.5 -185.5t-265 -123.5t-355 -45.5h-528l129 727h-248zM238 61h456q184 0 331.5 44t243.5 117t159.5 173.5t90.5 208.5t27 227q0 562 -616 562 h-457l-108 -609h483l-8 -57h-484z" />
<glyph unicode="&#xd1;" horiz-adv-x="1724" d="M164 0l256 1454h80l757 -1245q37 -57 72 -123h2q2 9 10.5 61t14.5 82l215 1225h65l-256 -1454h-73l-762 1251q-17 26 -72 125h-4q-4 -50 -23 -141l-217 -1235h-65zM692 1556q38 193 205 193q45 0 82.5 -16.5t64.5 -39.5t52.5 -46t59 -39.5t71.5 -16.5q61 0 98 31.5 t51 110.5l54 -4q-38 -191 -203 -191q-45 0 -82.5 16.5t-65 39.5t-53 46t-58.5 39.5t-71 16.5q-61 0 -98.5 -32t-53.5 -112z" />
<glyph unicode="&#xd2;" horiz-adv-x="1712" d="M141 608q0 127 28 250t92 240t157 204.5t234 141t313 53.5q108 0 203.5 -19t185 -66.5t153 -120t102 -186.5t38.5 -259q0 -127 -28 -250t-92.5 -240t-157.5 -204.5t-234.5 -141t-313.5 -53.5q-108 0 -202.5 19t-184 66.5t-153 120t-102 186.5t-38.5 259zM213 606 q0 -132 35 -235.5t92.5 -168.5t138 -107.5t165.5 -59.5t181 -17q156 0 284 50.5t212.5 133t142.5 192t83.5 223.5t25.5 231q0 132 -34.5 235.5t-92 168.5t-137.5 107.5t-165 59.5t-181 17q-156 0 -284.5 -50.5t-213 -133.5t-143 -192.5t-84 -223t-25.5 -230.5zM688 1737h94 l283 -189h-84z" />
<glyph unicode="&#xd3;" horiz-adv-x="1712" d="M141 608q0 127 28 250t92 240t157 204.5t234 141t313 53.5q108 0 203.5 -19t185 -66.5t153 -120t102 -186.5t38.5 -259q0 -127 -28 -250t-92.5 -240t-157.5 -204.5t-234.5 -141t-313.5 -53.5q-108 0 -202.5 19t-184 66.5t-153 120t-102 186.5t-38.5 259zM213 606 q0 -132 35 -235.5t92.5 -168.5t138 -107.5t165.5 -59.5t181 -17q156 0 284 50.5t212.5 133t142.5 192t83.5 223.5t25.5 231q0 132 -34.5 235.5t-92 168.5t-137.5 107.5t-165 59.5t-181 17q-156 0 -284.5 -50.5t-213 -133.5t-143 -192.5t-84 -223t-25.5 -230.5zM983 1548 l283 189h94l-293 -189h-84z" />
<glyph unicode="&#xd4;" horiz-adv-x="1712" d="M141 608q0 127 28 250t92 240t157 204.5t234 141t313 53.5q108 0 203.5 -19t185 -66.5t153 -120t102 -186.5t38.5 -259q0 -127 -28 -250t-92.5 -240t-157.5 -204.5t-234.5 -141t-313.5 -53.5q-108 0 -202.5 19t-184 66.5t-153 120t-102 186.5t-38.5 259zM213 606 q0 -132 35 -235.5t92.5 -168.5t138 -107.5t165.5 -59.5t181 -17q156 0 284 50.5t212.5 133t142.5 192t83.5 223.5t25.5 231q0 132 -34.5 235.5t-92 168.5t-137.5 107.5t-165 59.5t-181 17q-156 0 -284.5 -50.5t-213 -133.5t-143 -192.5t-84 -223t-25.5 -230.5zM729 1548 l291 189h76l223 -189h-80l-182 154l-238 -154h-90z" />
<glyph unicode="&#xd5;" horiz-adv-x="1712" d="M141 608q0 127 28 250t92 240t157 204.5t234 141t313 53.5q108 0 203.5 -19t185 -66.5t153 -120t102 -186.5t38.5 -259q0 -127 -28 -250t-92.5 -240t-157.5 -204.5t-234.5 -141t-313.5 -53.5q-108 0 -202.5 19t-184 66.5t-153 120t-102 186.5t-38.5 259zM213 606 q0 -132 35 -235.5t92.5 -168.5t138 -107.5t165.5 -59.5t181 -17q156 0 284 50.5t212.5 133t142.5 192t83.5 223.5t25.5 231q0 132 -34.5 235.5t-92 168.5t-137.5 107.5t-165 59.5t-181 17q-156 0 -284.5 -50.5t-213 -133.5t-143 -192.5t-84 -223t-25.5 -230.5zM672 1556 q38 193 205 193q45 0 82.5 -16.5t64 -39.5t52.5 -46t59 -39.5t71 -16.5q61 0 98.5 31.5t51.5 110.5l53 -4q-38 -191 -203 -191q-45 0 -82.5 16.5t-64.5 39.5t-53 46t-58.5 39.5t-70.5 16.5q-61 0 -98.5 -32t-53.5 -112z" />
<glyph unicode="&#xd6;" horiz-adv-x="1712" d="M141 608q0 127 28 250t92 240t157 204.5t234 141t313 53.5q108 0 203.5 -19t185 -66.5t153 -120t102 -186.5t38.5 -259q0 -127 -28 -250t-92.5 -240t-157.5 -204.5t-234.5 -141t-313.5 -53.5q-108 0 -202.5 19t-184 66.5t-153 120t-102 186.5t-38.5 259zM213 606 q0 -132 35 -235.5t92.5 -168.5t138 -107.5t165.5 -59.5t181 -17q156 0 284 50.5t212.5 133t142.5 192t83.5 223.5t25.5 231q0 132 -34.5 235.5t-92 168.5t-137.5 107.5t-165 59.5t-181 17q-156 0 -284.5 -50.5t-213 -133.5t-143 -192.5t-84 -223t-25.5 -230.5zM731 1548 l33 187h74l-35 -187h-72zM1247 1548l33 187h72l-33 -187h-72z" />
<glyph unicode="&#xd7;" horiz-adv-x="1572" d="M250 250l520 418l-375 419l49 41l377 -419l520 419l39 -41l-522 -419l373 -416l-49 -43l-375 418l-522 -418z" />
<glyph unicode="&#xd8;" horiz-adv-x="1712" d="M111 23l161 153q-131 160 -131 432q0 127 28 250t92 240t157 204.5t234 141t313 53.5q339 0 516 -180l155 147l37 -37l-157 -149q131 -160 131 -432q0 -127 -28 -250t-92.5 -240t-157.5 -204.5t-234.5 -141t-313.5 -53.5q-337 0 -514 180l-160 -151zM213 606 q0 -236 111 -383l1106 1047q-158 166 -467 166q-156 0 -284.5 -50.5t-213 -133.5t-143 -192.5t-84 -223t-25.5 -230.5zM358 184q158 -166 467 -166q156 0 284 50.5t212.5 133t142.5 192t83.5 223.5t25.5 231q0 237 -109 381z" />
<glyph unicode="&#xd9;" horiz-adv-x="1628" d="M216 399q-4 96 15 217l148 838h70l-150 -848q-18 -110 -14.5 -197t32 -152t71.5 -110.5t104.5 -74t130 -41.5t149.5 -13q118 0 211.5 29.5t155.5 78t107 123t70.5 153t43.5 178.5l153 874h70l-156 -883q-16 -91 -39 -164.5t-58 -145.5t-85.5 -125t-117.5 -94t-157.5 -62 t-201.5 -21q-92 0 -170.5 15t-147.5 47.5t-117.5 84t-80.5 124.5t-36 169zM662 1737h94l282 -189h-84z" />
<glyph unicode="&#xda;" horiz-adv-x="1628" d="M216 399q-4 96 15 217l148 838h70l-150 -848q-18 -110 -14.5 -197t32 -152t71.5 -110.5t104.5 -74t130 -41.5t149.5 -13q118 0 211.5 29.5t155.5 78t107 123t70.5 153t43.5 178.5l153 874h70l-156 -883q-16 -91 -39 -164.5t-58 -145.5t-85.5 -125t-117.5 -94t-157.5 -62 t-201.5 -21q-92 0 -170.5 15t-147.5 47.5t-117.5 84t-80.5 124.5t-36 169zM956 1548l283 189h94l-293 -189h-84z" />
<glyph unicode="&#xdb;" horiz-adv-x="1628" d="M216 399q-4 96 15 217l148 838h70l-150 -848q-18 -110 -14.5 -197t32 -152t71.5 -110.5t104.5 -74t130 -41.5t149.5 -13q118 0 211.5 29.5t155.5 78t107 123t70.5 153t43.5 178.5l153 874h70l-156 -883q-16 -91 -39 -164.5t-58 -145.5t-85.5 -125t-117.5 -94t-157.5 -62 t-201.5 -21q-92 0 -170.5 15t-147.5 47.5t-117.5 84t-80.5 124.5t-36 169zM702 1548l291 189h76l223 -189h-80l-182 154l-237 -154h-91z" />
<glyph unicode="&#xdc;" horiz-adv-x="1628" d="M216 399q-4 96 15 217l148 838h70l-150 -848q-18 -110 -14.5 -197t32 -152t71.5 -110.5t104.5 -74t130 -41.5t149.5 -13q118 0 211.5 29.5t155.5 78t107 123t70.5 153t43.5 178.5l153 874h70l-156 -883q-16 -91 -39 -164.5t-58 -145.5t-85.5 -125t-117.5 -94t-157.5 -62 t-201.5 -21q-92 0 -170.5 15t-147.5 47.5t-117.5 84t-80.5 124.5t-36 169zM705 1548l32 187h74l-35 -187h-71zM1221 1548l32 187h72l-33 -187h-71z" />
<glyph unicode="&#xdd;" horiz-adv-x="1349" d="M180 1454h78l360 -670q57 -94 72 -143h4q30 47 123 143l598 670h86l-780 -872l-103 -582h-69l102 582zM815 1548l283 189h94l-293 -189h-84z" />
<glyph unicode="&#xde;" horiz-adv-x="1349" d="M158 0l256 1454h69l-49 -276h477q200 0 313 -86t113 -258q0 -101 -32 -183t-98 -144t-175 -96t-254 -34h-485l-66 -377h-69zM305 438h469q256 0 373 105t117 288q0 144 -94 214.5t-267 70.5h-479z" />
<glyph unicode="&#xdf;" horiz-adv-x="1425" d="M129 0l184 1038q15 85 38 151t64.5 128t99 102.5t144 65t197.5 24.5q73 0 136.5 -11t120.5 -36.5t97.5 -64t64 -96.5t23.5 -132q0 -151 -108.5 -251t-298.5 -107q172 -14 265 -107t93 -251q0 -78 -18 -145t-61 -128.5t-108.5 -104t-167 -68t-230.5 -25.5q-158 0 -265 36 l11 56q97 -37 256 -37q113 0 202 21t147.5 58t96.5 90t54 114t16 133q0 163 -108.5 246t-315.5 83h-185l9 56h194q223 0 338 87t115 242q0 80 -30 137.5t-83.5 89t-117.5 46t-142 14.5q-101 0 -178.5 -21.5t-128 -57.5t-86 -93t-55 -117.5t-33.5 -142.5l-180 -1022h-66z" />
<glyph unicode="&#xe0;" d="M98 254q0 119 80 199q116 113 412 129l485 24l6 39q33 189 -65.5 272.5t-298.5 83.5q-387 0 -436 -288h-68q27 164 151.5 254t350.5 90q114 0 199.5 -23t145 -71.5t82 -130t3.5 -193.5l-47 -266q-40 -228 -43 -373h-66q8 134 33 266q-72 -145 -212 -222t-329 -77 q-81 0 -147.5 15t-121 47.5t-84.5 89.5t-30 135zM166 252q0 -52 18 -92t48 -65.5t72.5 -42t87 -23t95.5 -6.5q226 0 376.5 115t183.5 302l22 115l-471 -23q-432 -22 -432 -280zM362 1487h87l333 -299h-73z" />
<glyph unicode="&#xe1;" d="M98 254q0 119 80 199q116 113 412 129l485 24l6 39q33 189 -65.5 272.5t-298.5 83.5q-387 0 -436 -288h-68q27 164 151.5 254t350.5 90q114 0 199.5 -23t145 -71.5t82 -130t3.5 -193.5l-47 -266q-40 -228 -43 -373h-66q8 134 33 266q-72 -145 -212 -222t-329 -77 q-81 0 -147.5 15t-121 47.5t-84.5 89.5t-30 135zM166 252q0 -52 18 -92t48 -65.5t72.5 -42t87 -23t95.5 -6.5q226 0 376.5 115t183.5 302l22 115l-471 -23q-432 -22 -432 -280zM715 1188l334 299h86l-347 -299h-73z" />
<glyph unicode="&#xe2;" d="M98 254q0 119 80 199q116 113 412 129l485 24l6 39q33 189 -65.5 272.5t-298.5 83.5q-387 0 -436 -288h-68q27 164 151.5 254t350.5 90q114 0 199.5 -23t145 -71.5t82 -130t3.5 -193.5l-47 -266q-40 -228 -43 -373h-66q8 134 33 266q-72 -145 -212 -222t-329 -77 q-81 0 -147.5 15t-121 47.5t-84.5 89.5t-30 135zM166 252q0 -52 18 -92t48 -65.5t72.5 -42t87 -23t95.5 -6.5q226 0 376.5 115t183.5 302l22 115l-471 -23q-432 -22 -432 -280zM422 1188l348 299h70l241 -299h-65l-213 262l-307 -262h-74z" />
<glyph unicode="&#xe3;" d="M98 254q0 119 80 199q116 113 412 129l485 24l6 39q33 189 -65.5 272.5t-298.5 83.5q-387 0 -436 -288h-68q27 164 151.5 254t350.5 90q114 0 199.5 -23t145 -71.5t82 -130t3.5 -193.5l-47 -266q-40 -228 -43 -373h-66q8 134 33 266q-72 -145 -212 -222t-329 -77 q-81 0 -147.5 15t-121 47.5t-84.5 89.5t-30 135zM166 252q0 -52 18 -92t48 -65.5t72.5 -42t87 -23t95.5 -6.5q226 0 376.5 115t183.5 302l22 115l-471 -23q-432 -22 -432 -280zM391 1227q20 100 76.5 151.5t140.5 51.5q47 0 85.5 -17.5t66 -42t53.5 -49t60.5 -42t74.5 -17.5 q68 0 108.5 35t57.5 116l51 -4q-20 -100 -76 -150.5t-141 -50.5q-48 0 -88 17.5t-67.5 42t-53.5 49t-59 42t-72 17.5q-65 0 -108 -37.5t-56 -115.5z" />
<glyph unicode="&#xe4;" d="M98 254q0 119 80 199q116 113 412 129l485 24l6 39q33 189 -65.5 272.5t-298.5 83.5q-387 0 -436 -288h-68q27 164 151.5 254t350.5 90q114 0 199.5 -23t145 -71.5t82 -130t3.5 -193.5l-47 -266q-40 -228 -43 -373h-66q8 134 33 266q-72 -145 -212 -222t-329 -77 q-81 0 -147.5 15t-121 47.5t-84.5 89.5t-30 135zM166 252q0 -52 18 -92t48 -65.5t72.5 -42t87 -23t95.5 -6.5q226 0 376.5 115t183.5 302l22 115l-471 -23q-432 -22 -432 -280zM467 1198l41 232h72l-41 -232h-72zM971 1198l39 232h71l-39 -232h-71z" />
<glyph unicode="&#xe5;" d="M98 254q0 119 80 199q116 113 412 129l485 24l6 39q33 189 -65.5 272.5t-298.5 83.5q-387 0 -436 -288h-68q27 164 151.5 254t350.5 90q114 0 199.5 -23t145 -71.5t82 -130t3.5 -193.5l-47 -266q-40 -228 -43 -373h-66q8 134 33 266q-72 -145 -212 -222t-329 -77 q-81 0 -147.5 15t-121 47.5t-84.5 89.5t-30 135zM166 252q0 -52 18 -92t48 -65.5t72.5 -42t87 -23t95.5 -6.5q226 0 376.5 115t183.5 302l22 115l-471 -23q-432 -22 -432 -280zM514 1325q0 94 69 153.5t187 59.5q99 0 156 -47t57 -121q0 -94 -68.5 -153.5t-185.5 -59.5 q-99 0 -157 47t-58 121zM567 1327q0 -54 43 -89.5t119 -35.5q99 0 151 48t52 120q0 53 -43 88t-119 35q-99 0 -151 -47t-52 -119z" />
<glyph unicode="&#xe6;" horiz-adv-x="2131" d="M96 236q0 116 72 188q104 104 426 121l436 18l12 84q56 352 -346 352q-186 0 -290.5 -75t-126.5 -217h-68q27 165 146 257.5t337 92.5q179 0 285.5 -64.5t124.5 -195.5q144 260 473 260q205 0 323.5 -102.5t118.5 -290.5q0 -62 -18 -148h-909q-2 -8 -2 -24l-9 -50 q-5 -113 27.5 -197t92.5 -130.5t130 -68t152 -21.5q70 0 131 17.5t105 45.5t80.5 67.5t60 80.5t41.5 88l59 -15q-126 -342 -481 -342q-81 0 -153 18.5t-136 58.5t-108 111t-58 167q-64 -167 -209.5 -261t-355.5 -94q-71 0 -132.5 14.5t-115 44.5t-84.5 84t-31 126zM164 238 q0 -59 27 -102.5t72.5 -67t97 -34.5t108.5 -11q223 0 366.5 112.5t174.5 302.5l14 76l-440 -18q-110 -5 -189.5 -23.5t-123 -42t-69 -58.5t-32 -65t-6.5 -69zM1096 569h850q10 62 10 97q0 162 -102.5 250t-280.5 88q-109 0 -195.5 -34t-143.5 -94t-91 -137t-47 -170z" />
<glyph unicode="&#xe7;" horiz-adv-x="1275" d="M100 436q0 87 18.5 171t63 166.5t110.5 144.5t169.5 100.5t232.5 38.5q99 0 182.5 -21.5t150.5 -65.5t107 -117t44 -169l-66 -4q-5 84 -40 147t-93 99.5t-129 54.5t-154 18q-118 0 -212 -36t-151.5 -93t-96 -133t-53.5 -149.5t-15 -149.5q0 -92 24.5 -164t65 -118t98 -76 t119 -42.5t131.5 -12.5q352 0 447 317l65 -6q-109 -366 -510 -369l-98 -117q39 31 104 31q67 0 105.5 -34.5t38.5 -94.5q0 -74 -54.5 -118t-140.5 -44q-80 0 -127 33.5t-55 91.5l55 4q20 -81 127 -81q64 0 100.5 28.5t36.5 83.5q0 43 -28.5 67.5t-83.5 24.5q-63 0 -115 -41 l-39 15l123 153q-97 5 -176.5 32.5t-144 81t-100.5 143.5t-36 210z" />
<glyph unicode="&#xe8;" horiz-adv-x="1282" d="M100 430q0 90 19 175.5t64 168.5t111 145t168.5 100t229.5 38q219 0 348 -104t129 -300q0 -64 -16 -139h-983q-4 -58 -4 -84q0 -95 27.5 -168t70.5 -117t103.5 -72t119 -38t123.5 -10q94 0 168.5 22.5t126 64.5t86.5 93t60 117l59 -13q-28 -75 -67 -133t-97.5 -107 t-144 -75.5t-193.5 -26.5q-74 0 -140 11.5t-135.5 43t-119 81.5t-81.5 134t-32 193zM178 567h920q8 47 8 90q0 169 -114 256.5t-302 87.5q-116 0 -208 -34.5t-153 -96t-98 -137.5t-53 -166zM362 1487h87l333 -299h-73z" />
<glyph unicode="&#xe9;" horiz-adv-x="1282" d="M100 430q0 90 19 175.5t64 168.5t111 145t168.5 100t229.5 38q219 0 348 -104t129 -300q0 -64 -16 -139h-983q-4 -58 -4 -84q0 -95 27.5 -168t70.5 -117t103.5 -72t119 -38t123.5 -10q94 0 168.5 22.5t126 64.5t86.5 93t60 117l59 -13q-28 -75 -67 -133t-97.5 -107 t-144 -75.5t-193.5 -26.5q-74 0 -140 11.5t-135.5 43t-119 81.5t-81.5 134t-32 193zM178 567h920q8 47 8 90q0 169 -114 256.5t-302 87.5q-116 0 -208 -34.5t-153 -96t-98 -137.5t-53 -166zM715 1188l334 299h86l-347 -299h-73z" />
<glyph unicode="&#xea;" horiz-adv-x="1282" d="M100 430q0 90 19 175.5t64 168.5t111 145t168.5 100t229.5 38q219 0 348 -104t129 -300q0 -64 -16 -139h-983q-4 -58 -4 -84q0 -95 27.5 -168t70.5 -117t103.5 -72t119 -38t123.5 -10q94 0 168.5 22.5t126 64.5t86.5 93t60 117l59 -13q-28 -75 -67 -133t-97.5 -107 t-144 -75.5t-193.5 -26.5q-74 0 -140 11.5t-135.5 43t-119 81.5t-81.5 134t-32 193zM178 567h920q8 47 8 90q0 169 -114 256.5t-302 87.5q-116 0 -208 -34.5t-153 -96t-98 -137.5t-53 -166zM422 1188l348 299h70l241 -299h-65l-213 262l-307 -262h-74z" />
<glyph unicode="&#xeb;" horiz-adv-x="1282" d="M100 430q0 90 19 175.5t64 168.5t111 145t168.5 100t229.5 38q219 0 348 -104t129 -300q0 -64 -16 -139h-983q-4 -58 -4 -84q0 -95 27.5 -168t70.5 -117t103.5 -72t119 -38t123.5 -10q94 0 168.5 22.5t126 64.5t86.5 93t60 117l59 -13q-28 -75 -67 -133t-97.5 -107 t-144 -75.5t-193.5 -26.5q-74 0 -140 11.5t-135.5 43t-119 81.5t-81.5 134t-32 193zM178 567h920q8 47 8 90q0 169 -114 256.5t-302 87.5q-116 0 -208 -34.5t-153 -96t-98 -137.5t-53 -166zM467 1198l41 232h72l-41 -232h-72zM971 1198l39 232h71l-39 -232h-71z" />
<glyph unicode="&#xec;" horiz-adv-x="530" d="M117 1487h71l213 -299h-63zM143 0l181 1024h63l-180 -1024h-64z" />
<glyph unicode="&#xed;" horiz-adv-x="530" d="M143 0l181 1024h63l-180 -1024h-64zM354 1188l213 299h72l-221 -299h-64z" />
<glyph unicode="&#xee;" horiz-adv-x="530" d="M143 0l181 1024h63l-180 -1024h-64zM182 1188l221 301h68l115 -301h-60l-92 262l-186 -262h-66z" />
<glyph unicode="&#xef;" horiz-adv-x="530" d="M143 0l181 1024h63l-180 -1024h-64zM221 1198l41 238h72l-41 -238h-72zM481 1198l43 238h72l-43 -238h-72z" />
<glyph unicode="&#xf0;" horiz-adv-x="1376" d="M121 432q0 87 17.5 169.5t61 165t108.5 143.5t167 99t230 38q81 0 152.5 -15t135 -47t110.5 -86.5t71 -128.5l4 4q3 295 -174 469l-422 -98l-9 45l390 92q-160 125 -402 152l27 49q282 -37 446 -185l238 56l6 -45l-207 -49q172 -187 172 -519q0 -94 -14 -183.5t-44 -178 t-80 -162t-117.5 -130t-162.5 -88.5t-209 -32q-77 0 -143.5 12t-133 44t-113.5 83t-76 134.5t-29 191.5zM188 438q0 -98 26 -173t67 -119.5t99.5 -72.5t115 -38t122.5 -10q117 0 212 37.5t155 97.5t100.5 138t57 154t16.5 152q0 101 -36 177.5t-99 121t-142.5 66.5 t-174.5 22q-114 0 -205.5 -34.5t-149 -90t-95.5 -129.5t-53.5 -148t-15.5 -151z" />
<glyph unicode="&#xf1;" horiz-adv-x="1421" d="M143 0l181 1024h63l-53 -295q141 326 491 326q60 0 112 -8.5t109.5 -35t97.5 -69.5t66.5 -117.5t26.5 -173.5q0 -80 -16 -168l-86 -483h-64l88 498q15 82 15 149q0 85 -23.5 149.5t-59 101.5t-85.5 60.5t-96 31t-97 7.5q-96 0 -176.5 -29.5t-136.5 -78t-99 -116 t-68.5 -138t-39.5 -148.5l-86 -487h-64zM528 1227q20 100 76.5 151.5t140.5 51.5q47 0 85.5 -17.5t66 -42t53.5 -49t60.5 -42t74.5 -17.5q68 0 108.5 35t57.5 116l52 -4q-20 -100 -76.5 -150.5t-141.5 -50.5q-48 0 -88 17.5t-67.5 42t-53.5 49t-59 42t-72 17.5 q-138 0 -163 -153z" />
<glyph unicode="&#xf2;" horiz-adv-x="1318" d="M102 442q0 89 19 173t64 165.5t111.5 142t169 97.5t228.5 37q82 0 155 -14.5t142 -49t118 -87.5t78.5 -136t29.5 -188q0 -89 -19 -173t-64 -165.5t-111.5 -142t-169 -97.5t-228.5 -37q-82 0 -155 14.5t-142 49t-118 87.5t-78.5 136t-29.5 188zM170 444q0 -116 39 -200.5 t106.5 -130.5t145 -67t168.5 -21q111 0 201.5 34t148.5 89.5t97.5 129t56 149t16.5 153.5q0 116 -39 200.5t-106.5 130.5t-145 67t-168.5 21q-111 0 -201.5 -34t-148.5 -89.5t-97.5 -129t-56 -149t-16.5 -153.5zM367 1487h86l333 -299h-73z" />
<glyph unicode="&#xf3;" horiz-adv-x="1318" d="M102 442q0 89 19 173t64 165.5t111.5 142t169 97.5t228.5 37q82 0 155 -14.5t142 -49t118 -87.5t78.5 -136t29.5 -188q0 -89 -19 -173t-64 -165.5t-111.5 -142t-169 -97.5t-228.5 -37q-82 0 -155 14.5t-142 49t-118 87.5t-78.5 136t-29.5 188zM170 444q0 -116 39 -200.5 t106.5 -130.5t145 -67t168.5 -21q111 0 201.5 34t148.5 89.5t97.5 129t56 149t16.5 153.5q0 116 -39 200.5t-106.5 130.5t-145 67t-168.5 21q-111 0 -201.5 -34t-148.5 -89.5t-97.5 -129t-56 -149t-16.5 -153.5zM719 1188l334 299h86l-346 -299h-74z" />
<glyph unicode="&#xf4;" horiz-adv-x="1318" d="M102 442q0 89 19 173t64 165.5t111.5 142t169 97.5t228.5 37q82 0 155 -14.5t142 -49t118 -87.5t78.5 -136t29.5 -188q0 -89 -19 -173t-64 -165.5t-111.5 -142t-169 -97.5t-228.5 -37q-82 0 -155 14.5t-142 49t-118 87.5t-78.5 136t-29.5 188zM170 444q0 -116 39 -200.5 t106.5 -130.5t145 -67t168.5 -21q111 0 201.5 34t148.5 89.5t97.5 129t56 149t16.5 153.5q0 116 -39 200.5t-106.5 130.5t-145 67t-168.5 21q-111 0 -201.5 -34t-148.5 -89.5t-97.5 -129t-56 -149t-16.5 -153.5zM426 1188l348 299h70l241 -299h-65l-213 262l-307 -262h-74z " />
<glyph unicode="&#xf5;" horiz-adv-x="1318" d="M102 442q0 89 19 173t64 165.5t111.5 142t169 97.5t228.5 37q82 0 155 -14.5t142 -49t118 -87.5t78.5 -136t29.5 -188q0 -89 -19 -173t-64 -165.5t-111.5 -142t-169 -97.5t-228.5 -37q-82 0 -155 14.5t-142 49t-118 87.5t-78.5 136t-29.5 188zM170 444q0 -116 39 -200.5 t106.5 -130.5t145 -67t168.5 -21q111 0 201.5 34t148.5 89.5t97.5 129t56 149t16.5 153.5q0 116 -39 200.5t-106.5 130.5t-145 67t-168.5 21q-111 0 -201.5 -34t-148.5 -89.5t-97.5 -129t-56 -149t-16.5 -153.5zM395 1227q20 100 76.5 151.5t140.5 51.5q47 0 85.5 -17.5 t66 -42t53.5 -49t60.5 -42t74.5 -17.5q68 0 108.5 35t57.5 116l51 -4q-20 -100 -76 -150.5t-141 -50.5q-48 0 -88 17.5t-67.5 42t-53.5 49t-59 42t-72 17.5q-138 0 -163 -153z" />
<glyph unicode="&#xf6;" horiz-adv-x="1318" d="M102 442q0 89 19 173t64 165.5t111.5 142t169 97.5t228.5 37q82 0 155 -14.5t142 -49t118 -87.5t78.5 -136t29.5 -188q0 -89 -19 -173t-64 -165.5t-111.5 -142t-169 -97.5t-228.5 -37q-82 0 -155 14.5t-142 49t-118 87.5t-78.5 136t-29.5 188zM170 444q0 -116 39 -200.5 t106.5 -130.5t145 -67t168.5 -21q111 0 201.5 34t148.5 89.5t97.5 129t56 149t16.5 153.5q0 116 -39 200.5t-106.5 130.5t-145 67t-168.5 21q-111 0 -201.5 -34t-148.5 -89.5t-97.5 -129t-56 -149t-16.5 -153.5zM471 1198l41 232h72l-41 -232h-72zM975 1198l39 232h71 l-38 -232h-72z" />
<glyph unicode="&#xf7;" horiz-adv-x="1300" d="M154 645l8 55h1042l-10 -55h-1040zM543 283q0 30 18.5 48.5t48.5 18.5t49 -18.5t19 -48.5t-19 -49t-49 -19t-48.5 18.5t-18.5 49.5zM659 1063q0 30 19.5 48.5t50.5 18.5q30 0 49 -18.5t19 -48.5t-19 -49t-49 -19q-31 0 -50.5 18.5t-19.5 49.5z" />
<glyph unicode="&#xf8;" horiz-adv-x="1318" d="M63 10l138 119q-99 120 -99 313q0 89 19 173t64 165.5t111.5 142t169 97.5t228.5 37q268 0 406 -144l153 134l35 -33l-158 -137q87 -118 87 -295q0 -89 -19 -173t-64 -165.5t-111.5 -142t-169 -97.5t-228.5 -37q-257 0 -394 129l-137 -119zM170 444q0 -169 82 -270 l799 696q-124 129 -361 129q-111 0 -201.5 -34t-148.5 -89.5t-97.5 -129t-56 -149t-16.5 -153.5zM283 141q119 -116 346 -116q111 0 201.5 34t148.5 89.5t97.5 129t56 149t16.5 153.5q0 151 -70 254z" />
<glyph unicode="&#xf9;" horiz-adv-x="1409" d="M180 346q0 66 21 195l84 483h65l-88 -498q-18 -113 -18 -172q0 -80 22.5 -141t56.5 -96t82.5 -56.5t92.5 -28.5t94 -7q96 0 177.5 29.5t138 78.5t100 116.5t69 138t39.5 149.5l86 487h64l-181 -1024h-63l53 303q-30 -72 -69 -128t-97 -105t-141.5 -75t-187.5 -26 q-58 0 -109 8t-106.5 32.5t-94.5 64.5t-64.5 109.5t-25.5 162.5zM424 1487h86l334 -299h-74z" />
<glyph unicode="&#xfa;" horiz-adv-x="1409" d="M180 346q0 66 21 195l84 483h65l-88 -498q-18 -113 -18 -172q0 -80 22.5 -141t56.5 -96t82.5 -56.5t92.5 -28.5t94 -7q96 0 177.5 29.5t138 78.5t100 116.5t69 138t39.5 149.5l86 487h64l-181 -1024h-63l53 303q-30 -72 -69 -128t-97 -105t-141.5 -75t-187.5 -26 q-58 0 -109 8t-106.5 32.5t-94.5 64.5t-64.5 109.5t-25.5 162.5zM776 1188l334 299h86l-346 -299h-74z" />
<glyph unicode="&#xfb;" horiz-adv-x="1409" d="M180 346q0 66 21 195l84 483h65l-88 -498q-18 -113 -18 -172q0 -80 22.5 -141t56.5 -96t82.5 -56.5t92.5 -28.5t94 -7q96 0 177.5 29.5t138 78.5t100 116.5t69 138t39.5 149.5l86 487h64l-181 -1024h-63l53 303q-30 -72 -69 -128t-97 -105t-141.5 -75t-187.5 -26 q-58 0 -109 8t-106.5 32.5t-94.5 64.5t-64.5 109.5t-25.5 162.5zM483 1188l348 299h70l242 -299h-66l-213 262l-307 -262h-74z" />
<glyph unicode="&#xfc;" horiz-adv-x="1409" d="M180 346q0 66 21 195l84 483h65l-88 -498q-18 -113 -18 -172q0 -80 22.5 -141t56.5 -96t82.5 -56.5t92.5 -28.5t94 -7q96 0 177.5 29.5t138 78.5t100 116.5t69 138t39.5 149.5l86 487h64l-181 -1024h-63l53 303q-30 -72 -69 -128t-97 -105t-141.5 -75t-187.5 -26 q-58 0 -109 8t-106.5 32.5t-94.5 64.5t-64.5 109.5t-25.5 162.5zM528 1198l41 232h72l-41 -232h-72zM1032 1198l39 232h72l-39 -232h-72z" />
<glyph unicode="&#xfd;" horiz-adv-x="1118" d="M-92 -393l10 57q42 -22 123 -22q116 0 188.5 57t167.5 209l49 80l-329 1036h67l248 -784q41 -125 55 -197h5q36 69 116 195l504 786h70l-719 -1116q-84 -134 -148 -202.5t-127 -95t-153 -26.5q-76 0 -127 23zM641 1188l334 299h86l-346 -299h-74z" />
<glyph unicode="&#xfe;" horiz-adv-x="1447" d="M78 -399l332 1884h65l-133 -754q67 142 196.5 234t315.5 92q68 0 131 -12.5t127.5 -45.5t112 -82.5t77 -130.5t29.5 -184q0 -73 -14.5 -145.5t-44 -144.5t-79 -133.5t-113.5 -109.5t-154 -75t-195 -27q-190 0 -313 80.5t-156 233.5l-2 -5l-119 -675h-63zM303 500 q-45 -214 73 -344.5t351 -130.5q112 0 204.5 36.5t152.5 95t101 135.5t59 154.5t18 155.5q0 92 -26.5 163.5t-68 114.5t-98 70.5t-110.5 38t-111 10.5q-202 0 -345.5 -121.5t-183.5 -302.5z" />
<glyph unicode="&#xff;" horiz-adv-x="1118" d="M-92 -393l10 57q42 -22 123 -22q116 0 188.5 57t167.5 209l49 80l-329 1036h67l248 -784q41 -125 55 -197h5q36 69 116 195l504 786h70l-719 -1116q-84 -134 -148 -202.5t-127 -95t-153 -26.5q-76 0 -127 23zM393 1198l41 232h72l-41 -232h-72zM897 1198l39 232h72 l-39 -232h-72z" />
<glyph unicode="&#x152;" horiz-adv-x="2471" d="M137 606q0 87 14.5 171.5t47.5 169.5t82.5 159t124 138.5t167.5 110.5t218 72.5t270 26.5h1411l-10 -59h-971v-2h-21l-108 -617h956l-10 -61h-958l-115 -654h22v-2h984l-11 -59h-1370q-119 0 -219.5 16.5t-195.5 59t-161.5 109t-106.5 174t-40 247.5zM211 608 q0 -547 649 -547h305l236 1332h-338q-135 0 -251 -25t-202 -67.5t-154.5 -103t-113.5 -129t-75 -147.5t-43 -156t-13 -157z" />
<glyph unicode="&#x153;" horiz-adv-x="2318" d="M102 442q0 88 19.5 172.5t65 166t112 142t168.5 97.5t227 37q88 0 165.5 -18.5t147 -58.5t118.5 -111.5t67 -168.5q59 160 192.5 258.5t346.5 98.5q217 0 346 -104t129 -300q0 -59 -17 -139h-983q-4 -58 -4 -84q0 -95 27.5 -168t71 -117t103.5 -72t119 -38t124 -10 q94 0 168 22.5t125.5 64.5t86.5 93t60 117l59 -13q-28 -75 -66.5 -133t-97 -107t-144 -75.5t-193.5 -26.5q-64 0 -123 9t-121 33t-110 62t-85 101t-51 145q-62 -158 -193.5 -254t-338.5 -96q-82 0 -154.5 14.5t-141 49t-117.5 87.5t-78.5 136t-29.5 188zM168 444 q0 -93 26.5 -166.5t69.5 -120t104 -77t125 -43t136 -12.5q109 0 198 34t147 89.5t97.5 129t56.5 149t17 153.5q0 93 -26 166.5t-69 120t-103.5 77t-123.5 43t-135 12.5q-109 0 -199 -34t-148.5 -89.5t-98.5 -129t-57 -149t-17 -153.5zM1214 567h920q8 47 8 90 q0 169 -114 256.5t-302 87.5q-116 0 -208 -34.5t-153 -96t-98 -137.5t-53 -166z" />
<glyph unicode="&#x178;" horiz-adv-x="1349" d="M180 1454h78l360 -670q57 -94 72 -143h4q30 47 123 143l598 670h86l-780 -872l-103 -582h-69l102 582zM563 1548l33 187h74l-35 -187h-72zM1079 1548l33 187h72l-33 -187h-72z" />
<glyph unicode="&#x2c6;" horiz-adv-x="1228" d="M55 1188l348 299h70l242 -299h-66l-213 262l-307 -262h-74z" />
<glyph unicode="&#x2dc;" horiz-adv-x="1228" d="M119 1227q20 100 76.5 151.5t140.5 51.5q47 0 85.5 -17.5t66 -42t53.5 -49t60.5 -42t74.5 -17.5q68 0 108.5 35t57.5 116l51 -4q-20 -100 -76 -150.5t-141 -50.5q-48 0 -88 17.5t-67.5 42t-53.5 49t-59 42t-72 17.5q-65 0 -108 -37.5t-56 -115.5z" />
<glyph unicode="&#x2000;" horiz-adv-x="946" />
<glyph unicode="&#x2001;" horiz-adv-x="1892" />
<glyph unicode="&#x2002;" horiz-adv-x="946" />
<glyph unicode="&#x2003;" horiz-adv-x="1892" />
<glyph unicode="&#x2004;" horiz-adv-x="630" />
<glyph unicode="&#x2005;" horiz-adv-x="473" />
<glyph unicode="&#x2006;" horiz-adv-x="315" />
<glyph unicode="&#x2007;" horiz-adv-x="315" />
<glyph unicode="&#x2008;" horiz-adv-x="236" />
<glyph unicode="&#x2009;" horiz-adv-x="378" />
<glyph unicode="&#x200a;" horiz-adv-x="105" />
<glyph unicode="&#x2010;" horiz-adv-x="1005" d="M135 541l10 59h748l-10 -59h-748z" />
<glyph unicode="&#x2011;" horiz-adv-x="1005" d="M135 541l10 59h748l-10 -59h-748z" />
<glyph unicode="&#x2012;" horiz-adv-x="1005" d="M135 541l10 59h748l-10 -59h-748z" />
<glyph unicode="&#x2013;" horiz-adv-x="1320" d="M137 545l8 51h1061l-10 -51h-1059z" />
<glyph unicode="&#x2014;" horiz-adv-x="1892" d="M137 545l8 51h1633l-11 -51h-1630z" />
<glyph unicode="&#x2018;" horiz-adv-x="440" d="M268 1042l35 195q11 59 27.5 101.5t37.5 67.5t39.5 38t43.5 24l12 -30q-44 -21 -72.5 -59t-42.5 -119l-4 -19h45l-35 -199h-86z" />
<glyph unicode="&#x2019;" horiz-adv-x="440" d="M238 1059q44 21 72 59t42 119l4 18h-45l35 199h86l-35 -194q-21 -112 -57.5 -160.5t-89.5 -71.5z" />
<glyph unicode="&#x201a;" horiz-adv-x="440" d="M16 -197q44 21 72.5 59.5t42.5 119.5l4 18h-45l35 199h86l-35 -195q-11 -59 -27 -101.5t-37 -67.5t-39.5 -38t-43.5 -24z" />
<glyph unicode="&#x201c;" horiz-adv-x="671" d="M268 1042l35 195q11 59 27.5 101.5t37.5 67.5t39.5 38t43.5 24l12 -30q-44 -21 -72.5 -59t-42.5 -119l-4 -19h45l-35 -199h-86zM500 1042l35 195q11 59 27 101.5t37 67.5t39.5 38t43.5 24l12 -30q-44 -21 -72 -59t-42 -119l-5 -19h46l-35 -199h-86z" />
<glyph unicode="&#x201d;" horiz-adv-x="671" d="M238 1057q44 21 72 59t42 119l4 18h-45l35 199h86l-35 -195q-11 -59 -27 -101.5t-37 -67.5t-39.5 -38t-43.5 -24zM469 1057q44 21 72.5 59t42.5 119l4 18h-45l35 199h86l-35 -195q-11 -59 -27.5 -101.5t-37.5 -67.5t-39.5 -38t-43.5 -24z" />
<glyph unicode="&#x201e;" horiz-adv-x="671" d="M16 -199q44 21 72.5 59.5t42.5 119.5l4 18h-45l35 199h86l-35 -195q-11 -59 -27 -101.5t-37 -67.5t-39.5 -38t-43.5 -24zM248 -199q44 20 72 59t42 120l5 18h-45l34 199h86l-34 -195q-11 -59 -27.5 -101.5t-37.5 -67.5t-39.5 -38t-43.5 -24z" />
<glyph unicode="&#x2022;" horiz-adv-x="518" d="M211 709q0 38 23 60t59 22q37 0 60.5 -22t23.5 -60t-23.5 -60t-60.5 -22q-36 0 -59 22t-23 60z" />
<glyph unicode="&#x2026;" horiz-adv-x="1607" d="M84 0l35 188h82l-35 -188h-82zM674 0l35 188h82l-35 -188h-82zM1262 0l34 188h82l-35 -188h-81z" />
<glyph unicode="&#x202f;" horiz-adv-x="378" />
<glyph unicode="&#x2039;" horiz-adv-x="696" d="M109 563l487 424h82l-490 -430l324 -420h-74z" />
<glyph unicode="&#x203a;" horiz-adv-x="698" d="M37 137l489 430l-323 420h73l330 -426l-487 -424h-82z" />
<glyph unicode="&#x205f;" horiz-adv-x="473" />
<glyph unicode="&#x20ac;" horiz-adv-x="1617" d="M41 592l10 51h152q7 104 22 176h-143l10 53h146q31 122 90 223.5t150 185.5t226 131.5t302 47.5q225 0 374.5 -85.5t200.5 -264.5l-70 -16q-46 157 -178.5 232t-328.5 75q-149 0 -270.5 -42.5t-204 -117.5t-136.5 -167t-84 -202h899l-10 -53h-901q-16 -80 -23 -176h893 l-10 -51h-883q1 -129 34 -229.5t86.5 -164.5t129.5 -105.5t156.5 -58t173.5 -16.5q391 0 547 332l63 -16q-173 -375 -612 -375q-107 0 -199.5 19.5t-176.5 66t-143 118t-94 181t-36 248.5h-162z" />
<glyph unicode="&#x2122;" horiz-adv-x="1918" d="M168 1409l8 47h772l-10 -47h-367l-139 -784h-53l137 784h-348zM901 625l148 831h69l207 -649q30 -107 35 -131h4q39 68 82 131l436 649h78l-148 -831h-53l115 651q9 60 22 110h-4q-9 -16 -63 -98l-447 -663h-53l-211 663l-31 98h-2q-2 -18 -16 -110l-115 -651h-53z" />
<glyph unicode="&#x25fc;" horiz-adv-x="1024" d="M0 0v1024h1024v-1024h-1024z" />
</font>
</defs>
</svg>
