<?xml version="1.0" standalone="no"?>
<!DOCTYPE svg PUBLIC "-//W3C//DTD SVG 1.1//EN" "http://www.w3.org/Graphics/SVG/1.1/DTD/svg11.dtd" >
<svg xmlns="http://www.w3.org/2000/svg" xmlns:xlink="http://www.w3.org/1999/xlink" version="1.1">
<metadata></metadata>
<defs>
<font id="gt_americaExultraLt" horiz-adv-x="1300" >
<font-face units-per-em="2048" ascent="1638" descent="-410" />
<missing-glyph horiz-adv-x="718" />
<glyph unicode="&#xfb01;" horiz-adv-x="1325" d="M68 969v55h249v170q0 307 304 307q67 0 129 -16v-55q-68 14 -127 14q-124 0 -183 -61.5t-59 -190.5v-168h369v-55h-369v-969h-64v969h-249zM1026 1192v244h70v-244h-70zM1028 0v1024h64v-1024h-64z" />
<glyph unicode="&#xfb02;" horiz-adv-x="1345" d="M68 969v55h249v170q0 307 304 307q67 0 129 -16v-55q-68 14 -127 14q-124 0 -183 -61.5t-59 -190.5v-168h369v-55h-369v-969h-64v969h-249zM1038 0v1485h64v-1485h-64z" />
<glyph horiz-adv-x="0" />
<glyph horiz-adv-x="0" />
<glyph horiz-adv-x="682" />
<glyph unicode="&#xd;" horiz-adv-x="0" />
<glyph unicode=" "  horiz-adv-x="718" />
<glyph unicode="&#x09;" horiz-adv-x="718" />
<glyph unicode="&#xa0;" horiz-adv-x="718" />
<glyph unicode="!" horiz-adv-x="589" d="M254 0v195h82v-195h-82zM256 1485h78l-15 -1100h-51z" />
<glyph unicode="&#x22;" horiz-adv-x="634" d="M174 1454h70l-15 -453h-41zM391 1454h70l-15 -453h-40z" />
<glyph unicode="#" horiz-adv-x="1386" d="M39 457v51h309l76 407h-303v54h313l84 448h62l-84 -448h489l84 448h59l-84 -448h302v-54h-312l-76 -407h318v-51h-328l-86 -457h-59l86 457h-490l-86 -457h-61l86 457h-299zM410 508h489l76 407h-490z" />
<glyph unicode="$" horiz-adv-x="1460" d="M111 438l69 6q11 -190 142.5 -297.5t371.5 -119.5v692l-133 18q-204 35 -301.5 125.5t-97.5 239.5q0 166 140.5 260.5t391.5 97.5v176h54v-176q261 -6 399 -111.5t151 -318.5l-67 -8q-13 190 -131 281.5t-352 97.5v-629l153 -22q229 -40 329.5 -131.5t100.5 -262.5 q0 -188 -153 -289.5t-430 -101.5v-182h-54v184q-269 10 -418.5 131.5t-164.5 339.5zM231 1106q0 -128 86 -202.5t277 -108.5l100 -15v621q-221 -3 -342 -80t-121 -215zM748 25h6q243 0 375.5 84.5t132.5 244.5q0 149 -88.5 225t-313.5 115l-112 17v-686z" />
<glyph unicode="%" horiz-adv-x="1732" d="M80 1106q0 165 97.5 262.5t258.5 97.5q159 0 259 -99.5t100 -264.5q0 -163 -99.5 -261t-257.5 -98q-162 0 -260 97.5t-98 265.5zM139 1106q0 -148 81 -229.5t218 -81.5q135 0 215 81t80 226q0 146 -80.5 229.5t-216.5 83.5q-135 0 -216 -82.5t-81 -226.5zM309 -31 l1041 1520h69l-1040 -1520h-70zM940 340q0 165 97.5 262.5t258.5 97.5q159 0 259 -99.5t100 -264.5q0 -163 -99.5 -261t-257.5 -98q-162 0 -260 97.5t-98 265.5zM999 340q0 -148 81 -229.5t218 -81.5q135 0 215 81t80 226q0 146 -80.5 229.5t-216.5 83.5q-135 0 -216 -82.5 t-81 -226.5z" />
<glyph unicode="&#x26;" horiz-adv-x="1521" d="M92 342q0 66 20 121t64 104.5t98 90.5t136 92l41 24q-128 128 -183 221t-55 203q0 144 89.5 227.5t248.5 83.5q151 0 242.5 -84t91.5 -223q0 -238 -234 -377l-102 -61l526 -522q174 206 195 534l63 -4q-15 -349 -213 -575q90 -87 154 -121.5t131 -34.5q46 0 90 14v-61 q-39 -14 -102 -14q-145 0 -318 170q-201 -195 -489 -195q-235 0 -364.5 107t-129.5 280zM162 346q0 -103 58 -179.5t154 -114.5t216 -38q255 0 440 179l-536 536l-54 -31q-143 -88 -210.5 -168t-67.5 -184zM281 1200q0 -95 52 -183t173 -210l112 65q99 57 149 142t50 186 q0 116 -70.5 184t-195.5 68q-132 0 -201 -65t-69 -187z" />
<glyph unicode="'" horiz-adv-x="417" d="M174 1454h70l-15 -453h-41z" />
<glyph unicode="(" horiz-adv-x="624" d="M145 678q0 246 101 482t282 405l60 -15q-375 -372 -375 -874q0 -254 90.5 -478.5t284.5 -435.5l-60 -14q-183 178 -283 427t-100 503z" />
<glyph unicode=")" horiz-adv-x="624" d="M37 -238q194 211 284.5 435.5t90.5 478.5q0 502 -375 874l59 15q181 -169 282 -405t101 -482q0 -254 -100 -503t-283 -427z" />
<glyph unicode="*" horiz-adv-x="716" d="M66 1251l18 58l256 -92l-10 258h59l-10 -258l254 92l18 -58l-260 -69l180 -219l-45 -39l-168 235l-165 -235l-48 39l183 217z" />
<glyph unicode="+" d="M129 647v53h489v439h62v-439h491v-53h-491v-461h-62v461h-489z" />
<glyph unicode="," horiz-adv-x="440" d="M141 -197q48 37 63 80.5t15 112.5v4h-37v199h84v-187q0 -95 -23 -149.5t-81 -89.5z" />
<glyph unicode="-" horiz-adv-x="1005" d="M129 541v59h748v-59h-748z" />
<glyph unicode="." horiz-adv-x="430" d="M174 0v195h82v-195h-82z" />
<glyph unicode="/" horiz-adv-x="1009" d="M106 -240l734 1796h65l-735 -1796h-64z" />
<glyph unicode="0" horiz-adv-x="1443" d="M131 715q0 354 158 551.5t434 197.5q275 0 432.5 -199t157.5 -556q0 -356 -156.5 -553t-433.5 -197q-278 0 -435 198t-157 558zM199 715q0 -335 138.5 -516t385.5 -181q245 0 383.5 180.5t138.5 510.5q0 332 -138.5 514t-383.5 182q-244 0 -384 -180.5t-140 -509.5z" />
<glyph unicode="1" horiz-adv-x="825" d="M72 1079v60h26q135 0 240.5 78.5t134.5 205.5h55v-1423h-65v1270q-50 -86 -144.5 -138.5t-201.5 -52.5h-45z" />
<glyph unicode="2" horiz-adv-x="1290" d="M102 0v61q358 233 492 329q146 107 246 198q118 109 170.5 217t52.5 235q0 164 -110 264.5t-316 100.5q-92 0 -170.5 -22t-140 -65t-96.5 -113.5t-35 -160.5q0 -58 10 -104l-68 4q-8 44 -8 105q0 195 141 305t367 110q230 0 361.5 -114t131.5 -308q0 -143 -61 -256.5 t-184 -232.5q-185 -174 -688 -492h979v-61h-1074z" />
<glyph unicode="3" horiz-adv-x="1351" d="M123 403l65 5q9 -178 137 -284t347 -106q223 0 351 92t128 273q0 150 -107.5 240t-320.5 90h-145v57h127q82 0 153 18.5t126.5 55.5t87.5 96.5t32 136.5q0 160 -117 244t-321 84q-219 0 -339 -104.5t-122 -288.5l-66 6q3 205 142.5 325.5t386.5 120.5q235 0 369 -101 t134 -286q0 -144 -95 -228.5t-236 -100.5q171 -12 275 -108.5t104 -254.5q0 -202 -145 -314t-402 -112q-247 0 -392.5 121.5t-156.5 322.5z" />
<glyph unicode="4" horiz-adv-x="1331" d="M41 403v52l852 968h68v-964h301v-56h-301v-403h-64v403h-856zM115 459h782v774q0 84 4 121h-4q-25 -43 -84 -105l-604 -698q-47 -52 -94 -92z" />
<glyph unicode="5" d="M127 344l66 6q31 -158 151.5 -245t306.5 -87q220 0 345.5 118.5t125.5 328.5q0 206 -117 317t-333 111q-169 0 -293.5 -81.5t-161.5 -215.5l-67 8l75 819h899v-59h-845l-62 -662q65 122 185.5 185t287.5 63q236 0 368 -127t132 -358q0 -232 -146.5 -369t-392.5 -137 q-214 0 -353.5 102t-170.5 283z" />
<glyph unicode="6" horiz-adv-x="1359" d="M125 702q0 376 150 569t434 193q212 0 342 -97t163 -286l-67 -6q-68 332 -440 332q-254 0 -385.5 -178t-131.5 -529v-8q0 -26 5 -119q41 176 181 274.5t345 98.5q241 0 381.5 -131t140.5 -360q0 -226 -143.5 -361t-384.5 -135q-294 0 -442 182t-148 561zM209 469 q77 -453 506 -453q214 0 337.5 117.5t123.5 321.5q0 206 -122.5 320t-338.5 114q-205 0 -338.5 -111t-167.5 -309z" />
<glyph unicode="7" horiz-adv-x="1200" d="M72 1364v59h1071v-59q-633 -569 -633 -1325v-39h-72v29q0 387 164.5 722t462.5 613h-993z" />
<glyph unicode="8" horiz-adv-x="1353" d="M119 356q0 320 422 389q-197 37 -289 122t-92 239q0 166 139 262t375 96q238 0 378 -95.5t140 -264.5q0 -154 -96 -235.5t-308 -112.5l29 -4q218 -42 318 -133.5t100 -260.5q0 -192 -146.5 -295.5t-412.5 -103.5q-264 0 -410.5 103.5t-146.5 293.5zM186 360 q0 -163 130 -253.5t360 -90.5q233 0 362 88.5t129 253.5q0 147 -88.5 226.5t-279.5 115.5l-160 27q-233 -42 -343 -129.5t-110 -237.5zM227 1104q0 -130 81.5 -201.5t258.5 -107.5l131 -23q246 50 336 119t90 211q0 146 -120.5 226.5t-329.5 80.5q-206 0 -326.5 -81 t-120.5 -224z" />
<glyph unicode="9" horiz-adv-x="1359" d="M117 993q0 214 145.5 342.5t390.5 128.5q285 0 433.5 -172.5t148.5 -539.5q0 -793 -578 -793q-214 0 -342.5 100t-162.5 293l65 8q30 -167 140 -255.5t302 -88.5q260 0 385 184.5t125 549.5v10q0 55 -2 80q-50 -144 -191 -228t-337 -84q-237 0 -379.5 122t-142.5 343z M184 993q0 -197 125.5 -302t341.5 -105q194 0 332 97t174 263q-33 229 -155.5 345t-344.5 116q-219 0 -346 -110.5t-127 -303.5z" />
<glyph unicode=":" horiz-adv-x="430" d="M174 0v195h82v-195h-82zM174 829v195h82v-195h-82z" />
<glyph unicode=";" horiz-adv-x="512" d="M176 -197q48 37 63 80.5t15 112.5v4h-37v199h84v-187q0 -95 -23 -149.5t-81 -89.5zM256 829v195h82v-195h-82z" />
<glyph unicode="&#x3c;" horiz-adv-x="1427" d="M137 645v47l1030 469v-61l-956 -430l956 -432v-64z" />
<glyph unicode="=" d="M129 471v57h1042v-57h-1042zM129 819v58h1042v-58h-1042z" />
<glyph unicode="&#x3e;" horiz-adv-x="1427" d="M260 174v64l957 432l-957 430v61l1030 -469v-47z" />
<glyph unicode="?" horiz-adv-x="1144" d="M68 1094q0 192 137 303.5t373 111.5q223 0 358 -104.5t135 -278.5q0 -228 -211 -374l-137 -93q-80 -57 -111.5 -117t-31.5 -145v-47h-68v53q0 94 38.5 163.5t129.5 131.5l137 95q182 127 182 331q0 150 -117.5 238t-303.5 88q-202 0 -321.5 -92.5t-119.5 -267.5 q0 -34 6 -74l-69 4q-6 38 -6 74zM508 0v199h78v-199h-78z" />
<glyph unicode="@" horiz-adv-x="1890" d="M104 567q0 177 62 324t174 248.5t272 158t351 56.5q381 0 601 -202.5t220 -545.5q0 -212 -78 -332t-215 -120q-94 0 -149.5 55.5t-65.5 161.5q-41 -107 -157 -171.5t-267 -64.5q-145 0 -234.5 65.5t-89.5 172.5q0 112 73.5 166.5t252.5 74.5l412 43v29q0 155 -76 225 t-244 70q-140 0 -224 -62t-97 -178h-64q9 137 113.5 214t273.5 77q194 0 287.5 -86t93.5 -268v-240q0 -121 41.5 -177t130.5 -56q103 0 163 106.5t60 290.5q0 324 -202 511t-561 187t-577 -200t-218 -533q0 -335 216.5 -529t584.5 -194q233 0 446 88l10 -49 q-198 -92 -475 -92q-387 0 -615.5 208.5t-228.5 567.5zM594 377q0 -87 73 -138t199 -51q171 0 286.5 93.5t115.5 234.5v92l-416 -41q-138 -15 -198 -59t-60 -131z" />
<glyph unicode="A" horiz-adv-x="1515" d="M63 0l660 1454h70l659 -1454h-74l-190 426h-860l-191 -426h-74zM356 487h803l-305 682q-75 173 -94 226h-4q-19 -53 -94 -226z" />
<glyph unicode="B" horiz-adv-x="1570" d="M248 0v1454h684q126 0 217.5 -31t140.5 -85t70.5 -115t21.5 -133q0 -62 -16 -116t-49 -100.5t-90.5 -77.5t-134.5 -42q163 -17 242 -112t79 -247q0 -65 -13 -120.5t-46.5 -107.5t-85.5 -88t-134.5 -57.5t-189.5 -21.5h-696zM317 61h621q405 0 405 334q0 326 -389 326 h-637v-660zM317 780h631q89 0 156.5 19t106 49t62.5 72t32 81t8 84q0 62 -17 113t-57.5 97t-119 72t-189.5 26h-613v-613z" />
<glyph unicode="C" horiz-adv-x="1609" d="M104 729q0 352 196.5 560t530.5 208q275 0 447.5 -140.5t206.5 -385.5l-74 -4q-31 221 -185 345t-399 124q-300 0 -474.5 -189t-174.5 -516q0 -328 172.5 -520.5t478.5 -192.5q234 0 388 118t200 335l70 -6q-52 -239 -221.5 -373.5t-440.5 -134.5q-341 0 -531 210 t-190 562z" />
<glyph unicode="D" horiz-adv-x="1667" d="M248 0v1454h581q334 0 533 -190t199 -527q0 -223 -95.5 -391.5t-262.5 -257t-382 -88.5h-573zM317 61h510q297 0 479.5 185t182.5 491q0 312 -179 484t-483 172h-510v-1332z" />
<glyph unicode="E" horiz-adv-x="1486" d="M254 0v1454h1061v-59h-991v-619h956v-61h-956v-656h1005v-59h-1075z" />
<glyph unicode="F" horiz-adv-x="1423" d="M254 0v1454h1061v-59h-991v-619h956v-61h-956v-715h-70z" />
<glyph unicode="G" horiz-adv-x="1662" d="M104 729q0 352 193.5 560t531.5 208q125 0 229 -29.5t172.5 -75.5t118.5 -108.5t76 -122.5t37 -123l-69 -6q-12 59 -36 113t-69.5 108.5t-107 94t-154.5 64t-205 24.5q-299 0 -472 -191t-173 -520q0 -154 41.5 -282.5t120.5 -223.5t201.5 -148t277.5 -53 q114 0 209.5 27.5t158.5 74t109.5 103t72 119.5t37 117.5t11.5 103.5v111h-608v61h674v-735h-58l-6 342q-65 -183 -223 -284t-391 -101q-216 0 -375.5 98.5t-241.5 272t-82 401.5z" />
<glyph unicode="H" horiz-adv-x="1736" d="M254 0v1454h70v-678h1089v678h70v-1454h-70v715h-1089v-715h-70z" />
<glyph unicode="I" horiz-adv-x="577" d="M254 0v1454h70v-1454h-70z" />
<glyph unicode="J" horiz-adv-x="851" d="M47 -10v63q98 -20 191 -20q57 0 103.5 9t90.5 32.5t73.5 62t47.5 101t18 145.5v1071h68v-1079q0 -406 -401 -406q-114 0 -191 21z" />
<glyph unicode="K" horiz-adv-x="1533" d="M254 0v1454h70v-950l997 950h92l-594 -565l629 -889h-82l-596 840l-446 -418v-422h-70z" />
<glyph unicode="L" horiz-adv-x="1323" d="M254 0v1454h70v-1393h931v-61h-1001z" />
<glyph unicode="M" horiz-adv-x="2031" d="M254 0v1454h96l631 -1298q24 -50 31 -76h6q7 26 31 76l630 1298h99v-1454h-66v1274q0 71 2 106h-2q-15 -43 -45 -104l-620 -1276h-64l-621 1276q-30 62 -43 104h-4q4 -35 4 -106v-1274h-65z" />
<glyph unicode="N" horiz-adv-x="1724" d="M254 0v1454h82l979 -1243q40 -51 90 -125h2q-2 47 -2 143v1225h65v-1454h-77l-983 1251q-47 59 -91 125h-2q2 -47 2 -141v-1235h-65z" />
<glyph unicode="O" horiz-adv-x="1675" d="M104 727q0 181 55.5 327.5t154 242.5t232.5 148t292 52t292 -52t232 -148t153.5 -242.5t55.5 -327.5q0 -180 -55.5 -326t-153.5 -243t-232 -149t-292 -52t-292 52.5t-232.5 149.5t-154 243t-55.5 325zM178 727q0 -163 49.5 -297.5t137.5 -224t209 -138.5t264 -49t264 48 t209.5 137.5t138 224t49.5 299.5t-49.5 299.5t-138 224t-209.5 137.5t-264 48t-264 -48t-209 -137.5t-137.5 -224t-49.5 -299.5z" />
<glyph unicode="P" horiz-adv-x="1441" d="M248 0v1454h686q211 0 328.5 -103t117.5 -286q0 -193 -119 -304.5t-325 -111.5h-619v-649h-69zM317 709h627q167 0 265 96t98 260q0 157 -98 242.5t-277 85.5h-615v-684z" />
<glyph unicode="Q" horiz-adv-x="1675" d="M104 727q0 181 55.5 327.5t154 242.5t232.5 148t292 52t292 -52t232 -148t153.5 -242.5t55.5 -327.5q0 -288 -134.5 -479.5t-363.5 -257.5q69 -97 148.5 -141t197.5 -44q45 0 129 13v-62q-75 -14 -135 -14q-141 0 -241.5 62.5t-159.5 168.5q-88 -16 -174 -16 q-158 0 -292 52.5t-232.5 149.5t-154 243t-55.5 325zM178 727q0 -163 49.5 -297.5t137.5 -224t209 -138.5t264 -49t264 48t209.5 137.5t138 224t49.5 299.5t-49.5 299.5t-138 224t-209.5 137.5t-264 48t-264 -48t-209 -137.5t-137.5 -224t-49.5 -299.5z" />
<glyph unicode="R" horiz-adv-x="1548" d="M248 0v1454h690q229 0 335.5 -106t106.5 -287q0 -159 -94.5 -264.5t-284.5 -126.5l422 -670h-84l-415 662h-607v-662h-69zM317 723h625q180 0 273.5 91t93.5 247q0 159 -90.5 245.5t-278.5 86.5h-623v-670z" />
<glyph unicode="S" horiz-adv-x="1470" d="M111 453l71 4q11 -206 160.5 -322.5t421.5 -116.5q245 0 376.5 86t131.5 252q0 161 -88 235.5t-297 106.5l-326 47q-387 62 -387 368q0 183 144 283q144 102 403 101q568 0 594 -457l-70 -8q-13 211 -143 308.5t-381 97.5q-227 0 -351 -84t-124 -238q0 -133 84.5 -208 t265.5 -103l324 -45q219 -33 321 -124.5t102 -273.5q0 -200 -153 -302.5t-432 -102.5q-300 0 -464.5 129.5t-182.5 366.5z" />
<glyph unicode="T" horiz-adv-x="1277" d="M20 1395v59h1237v-59h-585v-1395h-68v1395h-584z" />
<glyph unicode="U" horiz-adv-x="1626" d="M211 537v917h70v-915q0 -240 138.5 -380.5t393.5 -140.5q253 0 393 141t140 380v915h69v-917q0 -265 -158 -421.5t-444 -156.5q-288 0 -445 156t-157 422z" />
<glyph unicode="V" horiz-adv-x="1400" d="M14 1454h76l539 -1202q58 -142 69 -178h4q8 25 70 178l537 1202h75l-647 -1454h-73z" />
<glyph unicode="W" horiz-adv-x="2174" d="M53 1454h74l414 -1315q4 -12 9 -28t7.5 -25.5t3.5 -11.5h2q0 4 21 65l467 1315h71l469 -1315q4 -12 9 -28t8 -25.5t4 -11.5h2q0 2 2.5 11t7.5 26t8 28l414 1315h74l-467 -1454h-80l-463 1303q-18 49 -20 75h-5q-7 -39 -22 -75l-461 -1303h-82z" />
<glyph unicode="X" horiz-adv-x="1417" d="M39 0l627 756l-586 698h88l475 -567q49 -57 68 -88h2q12 20 67 88l473 567h86l-583 -702l622 -752h-88l-491 596q-64 79 -88 115h-4q-40 -56 -89 -115l-493 -596h-86z" />
<glyph unicode="Y" horiz-adv-x="1349" d="M14 1454h82l479 -670q80 -103 97 -141h4q16 34 98 141l479 670h82l-626 -872v-582h-70v582z" />
<glyph unicode="Z" horiz-adv-x="1370" d="M94 0v61l1084 1334h-1045v59h1133v-59l-1088 -1336h1120v-59h-1204z" />
<glyph unicode="[" horiz-adv-x="739" d="M254 -240v1796h414v-53h-353v-1689h353v-54h-414z" />
<glyph unicode="\" horiz-adv-x="1009" d="M104 1556h66l733 -1796h-63z" />
<glyph unicode="]" horiz-adv-x="739" d="M72 -186h352v1689h-352v53h413v-1796h-413v54z" />
<glyph unicode="^" horiz-adv-x="876" d="M41 899l375 553h45l375 -553h-66l-332 492l-332 -492h-65z" />
<glyph unicode="_" horiz-adv-x="1024" d="M0 -213h1024v-49h-1024v49z" />
<glyph unicode="`" horiz-adv-x="1228" d="M70 1487h86l280 -299h-74z" />
<glyph unicode="a" horiz-adv-x="1314" d="M137 256q0 124 84 199q93 86 352 110l476 43v33q0 189 -92.5 274.5t-301.5 85.5q-183 0 -289.5 -72t-123.5 -222h-68q15 168 144.5 259t336.5 91q236 0 346.5 -99t110.5 -309v-276q0 -235 23 -373h-68q-14 154 -14 266q-55 -141 -187 -220t-323 -79q-182 0 -294 78.5 t-112 210.5zM205 258q0 -111 95.5 -173t256.5 -62q214 0 354 116.5t140 290.5v127l-469 -43q-208 -20 -292.5 -79.5t-84.5 -176.5z" />
<glyph unicode="b" horiz-adv-x="1435" d="M238 0v1485h63v-756q47 151 178 239.5t312 88.5q246 0 385 -144.5t139 -398.5q0 -253 -143.5 -400t-391.5 -147q-178 0 -303 85t-176 231l-10 -283h-53zM299 487q0 -199 131 -330.5t342 -131.5q222 0 347.5 129.5t125.5 359.5q0 231 -121 358t-344 127 q-213 0 -347 -132.5t-134 -329.5v-50z" />
<glyph unicode="c" horiz-adv-x="1269" d="M106 512q0 259 144.5 402t398.5 143q207 0 336 -97.5t154 -275.5l-68 -4q-25 155 -135.5 237t-292.5 82q-221 0 -346 -126.5t-125 -358.5t126.5 -360.5t350.5 -128.5q178 0 289 82.5t137 234.5l66 -6q-32 -177 -160.5 -273t-331.5 -96q-254 0 -398.5 144t-144.5 401z" />
<glyph unicode="d" horiz-adv-x="1435" d="M121 512q0 252 141 398.5t393 146.5q176 0 302.5 -84.5t177.5 -237.5v750h63v-1485h-63v285q-52 -145 -181 -231.5t-301 -86.5q-251 0 -391.5 147.5t-140.5 397.5zM190 512q0 -228 124.5 -357.5t347.5 -129.5q214 0 344.5 133t130.5 329v48q0 128 -56.5 232.5t-166 168 t-252.5 63.5q-227 0 -349.5 -128t-122.5 -359z" />
<glyph unicode="e" horiz-adv-x="1275" d="M106 518q0 256 140 397.5t381 141.5q245 0 381.5 -130t136.5 -374v-39h-975q1 -238 126 -363.5t345 -125.5q176 2 290 78.5t146 218.5l60 -13q-38 -162 -168.5 -252t-327.5 -90q-253 0 -394 143.5t-141 407.5zM170 567h907v2q0 208 -120 320t-330 112q-204 0 -329 -116 t-128 -318z" />
<glyph unicode="f" horiz-adv-x="794" d="M68 969v55h249v170q0 307 304 307q67 0 129 -16v-55q-68 14 -127 14q-124 0 -183 -61.5t-59 -190.5v-168h369v-55h-369v-969h-64v969h-249z" />
<glyph unicode="g" horiz-adv-x="1286" d="M102 -141q0 84 55.5 143.5t149.5 85.5q-70 20 -107.5 65t-37.5 105q0 67 44 114.5t126 67.5q-142 93 -142 269q0 160 122.5 254t326.5 94q165 0 281 -64q23 84 91.5 129t159.5 45q15 0 39 -4v-57q-5 0 -18 1t-23 1q-75 0 -135 -34t-80 -103q133 -97 133 -262 q0 -160 -123 -254.5t-325 -94.5q-152 0 -268 58q-68 -13 -107 -53t-39 -93q0 -64 47 -102t142 -39l473 -2q323 -6 323 -252q0 -148 -135.5 -228.5t-421.5 -80.5q-289 0 -420 74.5t-131 216.5zM166 -135q0 -121 117.5 -180.5t371.5 -59.5q490 0 490 250q0 98 -64.5 147 t-201.5 50l-467 2q-27 0 -37 2q-95 -21 -152 -75t-57 -136zM254 709q0 -139 105.5 -217t279.5 -78q172 0 277.5 78.5t105.5 216.5t-105 215t-278 77q-174 0 -279.5 -77t-105.5 -215z" />
<glyph unicode="h" horiz-adv-x="1429" d="M244 0v1485h63v-762q50 161 172.5 247.5t302.5 86.5q222 0 337.5 -123.5t115.5 -362.5v-571h-64v569q0 211 -102.5 321.5t-298.5 110.5q-206 0 -334.5 -132.5t-128.5 -344.5v-524h-63z" />
<glyph unicode="i" horiz-adv-x="530" d="M231 1192v244h70v-244h-70zM233 0v1024h64v-1024h-64z" />
<glyph unicode="j" horiz-adv-x="528" d="M-82 -346q62 -12 115 -12q92 0 145 53t53 164v1165h64v-1174q0 -127 -69 -196.5t-185 -69.5q-72 0 -123 13v57zM229 1192v244h70v-244h-70z" />
<glyph unicode="k" horiz-adv-x="1273" d="M244 0v1485h63v-1092l737 631h93l-430 -375l469 -649h-78l-441 608l-350 -286v-322h-63z" />
<glyph unicode="l" horiz-adv-x="550" d="M244 0v1485h63v-1485h-63z" />
<glyph unicode="m" horiz-adv-x="2080" d="M233 0v1024h62v-283q35 149 140.5 231.5t260.5 82.5t253 -78t126 -221q41 143 147.5 221t258.5 78q199 0 301 -116t102 -339v-600h-63v596q0 197 -88.5 300t-259.5 103q-169 0 -276 -108.5t-107 -278.5v-612h-62v614q0 186 -88 285.5t-254 99.5q-173 0 -281 -123.5 t-108 -322.5v-553h-64z" />
<glyph unicode="n" horiz-adv-x="1419" d="M233 0v1024h64v-301q47 161 168.5 246.5t304.5 85.5q223 0 339 -123t116 -359v-573h-64v567q0 211 -102.5 321.5t-298.5 110.5q-211 0 -337 -129t-126 -346v-524h-64z" />
<glyph unicode="o" d="M106 512q0 256 147 400.5t396 144.5q250 0 397.5 -144t147.5 -401t-147.5 -401t-397.5 -144q-249 0 -396 144.5t-147 400.5zM172 512q0 -231 129 -359t348 -128t349 128t130 359t-130 359t-349 128t-348 -128t-129 -359z" />
<glyph unicode="p" horiz-adv-x="1425" d="M227 -399v1423h64v-297q48 152 177.5 241t317.5 89q240 0 379.5 -144t139.5 -399q0 -253 -143.5 -400t-383.5 -147q-179 0 -307 84.5t-178 227.5v-678h-66zM291 487q0 -201 132 -331.5t347 -130.5t341 129t126 360t-121.5 358t-335.5 127q-220 0 -354.5 -132t-134.5 -330 v-50z" />
<glyph unicode="q" horiz-adv-x="1425" d="M121 512q0 254 141.5 399.5t382.5 145.5q186 0 314.5 -85t175.5 -239l12 291h51v-1423h-63v682q-52 -146 -181 -231t-309 -85q-240 0 -382 147t-142 398zM190 512q0 -229 124.5 -358t338.5 -129q146 0 257 61.5t169 166t58 234.5v50q0 200 -132.5 331t-353.5 131 q-214 0 -337.5 -127.5t-123.5 -359.5z" />
<glyph unicode="r" horiz-adv-x="829" d="M233 0v1024h62v-344q37 173 141.5 271t257.5 98q40 0 84 -9v-59q-35 8 -84 8q-149 0 -243 -94q-73 -72 -113.5 -182.5t-40.5 -239.5v-473h-64z" />
<glyph unicode="s" horiz-adv-x="1191" d="M109 322l63 10q49 -309 461 -309q181 0 277 63.5t96 181.5q0 91 -54.5 146t-185.5 73l-332 31q-143 19 -213.5 83t-70.5 177q0 131 116 205t320 74q425 0 469 -334l-66 -8q-27 150 -120.5 218t-284.5 68q-180 0 -274.5 -59t-94.5 -162q0 -87 54.5 -138.5t179.5 -68.5 l333 -30q156 -21 222.5 -90t66.5 -179q0 -146 -113 -226.5t-329 -80.5q-466 0 -520 355z" />
<glyph unicode="t" horiz-adv-x="837" d="M61 969v55h246v279l64 30v-309h377v-55h-377v-701q0 -227 233 -227q70 0 144 18v-55q-70 -20 -156 -20q-135 0 -210 71t-75 209v705h-246z" />
<glyph unicode="u" horiz-adv-x="1406" d="M195 438v586h63v-584q0 -111 29.5 -193t83.5 -129.5t122 -70t152 -22.5q111 0 201 37.5t146.5 101.5t87 146t30.5 173v541h64v-1024h-62v289q-48 -149 -170.5 -234.5t-302.5 -85.5q-221 0 -332.5 121.5t-111.5 347.5z" />
<glyph unicode="v" horiz-adv-x="1140" d="M27 1024h71l412 -834q41 -81 57 -127h6q14 40 58 127l413 834h70l-508 -1024h-71z" />
<glyph unicode="w" horiz-adv-x="1794" d="M57 1024h66l317 -825q36 -104 41 -127h6q12 44 45 127l334 825h62l334 -825q33 -84 45 -127h4q2 9 43 127l317 825h66l-394 -1024h-67l-340 848q-25 59 -37 108h-4q-5 -19 -37 -108l-340 -848h-67z" />
<glyph unicode="x" horiz-adv-x="1142" d="M57 0l473 535l-446 489h82l305 -330q98 -120 100 -123h4q36 46 101 123l301 330h80l-443 -492l469 -532h-79l-338 379q-71 84 -93 115h-4q-37 -53 -96 -121l-336 -373h-80z" />
<glyph unicode="y" horiz-adv-x="1118" d="M27 1024h71l387 -784q46 -90 88 -195h5q27 77 81 195l365 784h68l-508 -1090q-88 -189 -180 -269.5t-248 -80.5q-40 0 -84 8v56q43 -6 78 -6q61 0 112 15.5t86 39t67 63t52.5 76t44.5 88.5l31 66z" />
<glyph unicode="z" horiz-adv-x="1167" d="M119 0v55l837 914h-804v55h888v-51l-837 -918h860v-55h-944z" />
<glyph unicode="{" horiz-adv-x="727" d="M70 647v53q64 1 102 10.5t56 31.5t23 46t5 68v412q0 76 20.5 132t52.5 88.5t79.5 52t92.5 26t101 6.5h47v-53h-43q-47 0 -83.5 -4.5t-77 -19.5t-67 -40.5t-44 -72t-17.5 -109.5v-430q0 -70 -27.5 -111t-103.5 -57q76 -20 103.5 -65t27.5 -115v-463q0 -43 9.5 -77.5 t24.5 -57.5t39.5 -39.5t48 -25.5t56 -14t57 -6t58.5 -1h45v-54h-51q-56 0 -100 5t-92 21t-80 42.5t-53 74.5t-21 113v469q0 42 -5 67t-23 49t-57.5 35.5t-102.5 12.5z" />
<glyph unicode="|" horiz-adv-x="546" d="M244 -240v1796h59v-1796h-59z" />
<glyph unicode="}" horiz-adv-x="727" d="M72 -188h45q34 0 58.5 1t57 6t56 14t48 25.5t39.5 39.5t24.5 57.5t9.5 77.5v463q0 70 27.5 115t103.5 65q-76 16 -103.5 57t-27.5 111v430q0 63 -17.5 109.5t-44 72t-67 40.5t-77 19.5t-83.5 4.5h-43v53h47q56 0 101 -6.5t92.5 -26t79.5 -52t52.5 -88.5t20.5 -132v-412 q0 -44 5 -68t23 -46t56 -31.5t102 -10.5v-53q-63 -1 -102.5 -12.5t-57.5 -35.5t-23 -49t-5 -67v-469q0 -65 -21 -113t-53 -74.5t-80 -42.5t-92 -21t-100 -5h-51v54z" />
<glyph unicode="~" horiz-adv-x="1427" d="M248 479q10 119 74.5 182.5t171.5 63.5q55 0 105.5 -21t89 -51t75.5 -60.5t81.5 -51.5t90.5 -21q166 0 190 199l54 -4q-10 -120 -74.5 -184t-169.5 -64q-55 0 -106 21t-89.5 51.5t-75.5 60.5t-81 51t-90 21q-170 0 -191 -195z" />
<glyph unicode="&#xa1;" horiz-adv-x="589" d="M254 993v195h82v-195h-82zM256 -297l12 1100h51l15 -1100h-78z" />
<glyph unicode="&#xa2;" horiz-adv-x="1280" d="M106 516q0 249 134.5 389.5t377.5 151.5v160h52v-160q203 -5 329 -101t152 -270l-66 -4q-23 151 -130 232.5t-285 86.5v-978q175 5 283.5 86.5t133.5 230.5l64 -4q-29 -173 -154.5 -268.5t-326.5 -100.5v-151h-52v151q-243 11 -377.5 153.5t-134.5 395.5zM172 518 q0 -227 117 -355.5t329 -139.5v978q-212 -9 -329 -134t-117 -349z" />
<glyph unicode="&#xa3;" horiz-adv-x="1396" d="M66 41q150 40 235.5 152t85.5 268q0 112 -35 256h-256v53h244q-41 168 -41 283q0 198 121 304.5t344 106.5q205 0 323.5 -95t133.5 -279l-66 -9q-10 158 -113.5 243t-279.5 85q-192 0 -293.5 -90t-101.5 -262q0 -123 45 -287h493v-53h-481q29 -127 29 -248 q0 -149 -64 -254t-184 -152q135 29 254 29q112 0 274 -33.5t252 -33.5q126 0 194.5 69.5t71.5 200.5l60 -6q-5 -157 -89 -240.5t-239 -83.5q-81 0 -253.5 36t-297.5 36q-81 0 -152.5 -10.5t-195.5 -36.5z" />
<glyph unicode="&#xa4;" horiz-adv-x="1269" d="M111 1044l36 37l127 -114q143 118 363 118q217 0 358 -116l125 112l39 -37l-125 -112q121 -124 121 -311q0 -188 -123 -314l123 -110l-37 -39l-125 112q-142 -114 -356 -114q-217 0 -361 116l-124 -114l-37 37l123 112q-123 126 -123 314q0 185 121 309zM176 621 q0 -183 131 -295.5t330 -112.5q198 0 327.5 112.5t129.5 295.5t-129.5 295t-327.5 112q-199 0 -330 -112t-131 -295z" />
<glyph unicode="&#xa5;" horiz-adv-x="1374" d="M14 1423h80l461 -592q83 -105 131 -180h4q48 75 131 180l461 592h80l-631 -807h522v-51h-532v-170h532v-51h-532v-344h-68v344h-532v51h532v170h-532v51h522z" />
<glyph unicode="&#xa6;" horiz-adv-x="546" d="M244 -240v775h59v-775h-59zM244 782v774h59v-774h-59z" />
<glyph unicode="&#xa7;" horiz-adv-x="1214" d="M111 100l61 6q53 -276 418 -276q190 0 290.5 64t100.5 186q0 93 -54 147.5t-194 104.5l-342 88q-140 43 -201 107.5t-61 172.5q0 173 205 238q-86 40 -125 97.5t-39 144.5q0 134 112 209t314 75q201 0 314.5 -77t133.5 -224l-63 -6q-23 130 -118 191t-269 61t-266 -57.5 t-92 -167.5q0 -88 52.5 -142.5t178.5 -93.5l332 -84q156 -51 221 -121t65 -174q0 -175 -174 -254q72 -43 104 -97t32 -134q0 -148 -121 -228.5t-344 -80.5q-205 0 -325 82.5t-146 242.5zM193 705q0 -88 51 -142t180 -96l321 -78q76 -28 117 -47q160 69 160 219 q0 90 -55.5 148t-196.5 106l-332 84l-37 12q-102 -23 -155 -76t-53 -130z" />
<glyph unicode="&#xa8;" horiz-adv-x="1228" d="M106 1198v232h72v-232h-72zM610 1198v232h72v-232h-72z" />
<glyph unicode="&#xa9;" horiz-adv-x="1857" d="M104 727q0 177 62 323t171.5 243.5t259 150.5t323.5 53t323 -53t258 -150.5t170.5 -243t61.5 -323.5t-61.5 -323.5t-170.5 -243t-258 -150.5t-323 -53t-323.5 53t-259 150.5t-171.5 243.5t-62 323zM160 727q0 -167 58 -304.5t160 -228.5t241 -140.5t301 -49.5t301 49.5 t240.5 140.5t159.5 228.5t58 304.5t-58 304.5t-159.5 228.5t-240.5 140.5t-301 49.5t-301 -49.5t-241 -140.5t-160 -228.5t-58 -304.5zM498 725q0 198 119 318t315 120q167 0 272.5 -78.5t114.5 -203.5l-59 -4q-12 104 -101.5 169.5t-228.5 65.5q-169 0 -270 -106t-101 -283 q0 -172 102 -275.5t269 -103.5q130 0 221.5 61t112.5 158l59 -2q-20 -119 -129 -194.5t-264 -75.5q-197 0 -314.5 118.5t-117.5 315.5z" />
<glyph unicode="&#xaa;" horiz-adv-x="1032" d="M125 823q0 57 24 99t70 67t101.5 38.5t130.5 19.5l348 30v13q0 143 -67 207.5t-220 64.5q-132 0 -210.5 -53.5t-88.5 -157.5h-61q10 121 107 187.5t253 66.5q179 0 261.5 -75t82.5 -234v-185q0 -174 18 -276h-61q-10 117 -10 194q-40 -103 -137.5 -160t-237.5 -57 q-136 0 -219.5 57.5t-83.5 153.5zM184 827q0 -81 70.5 -126.5t187.5 -45.5q157 0 258 86t101 213v86l-334 -30q-153 -15 -218 -58.5t-65 -124.5z" />
<glyph unicode="&#xab;" horiz-adv-x="1073" d="M100 563l414 424h74l-408 -422l404 -428h-78zM483 563l414 424h74l-408 -422l404 -428h-78z" />
<glyph unicode="&#xac;" horiz-adv-x="1427" d="M209 655v60h997v-447h-63v387h-934z" />
<glyph unicode="&#xad;" horiz-adv-x="1005" d="M129 541v59h748v-59h-748z" />
<glyph unicode="&#xae;" horiz-adv-x="1857" d="M104 727q0 177 62 323t171.5 243.5t259 150.5t323.5 53t323 -53t258 -150.5t170.5 -243t61.5 -323.5t-61.5 -323.5t-170.5 -243t-258 -150.5t-323 -53t-323.5 53t-259 150.5t-171.5 243.5t-62 323zM160 727q0 -167 58 -304.5t160 -228.5t241 -140.5t301 -49.5t301 49.5 t240.5 140.5t159.5 228.5t58 304.5t-58 304.5t-159.5 228.5t-240.5 140.5t-301 49.5t-301 -49.5t-241 -140.5t-160 -228.5t-58 -304.5zM629 319v832h397q137 0 205.5 -62.5t68.5 -168.5q0 -83 -49.5 -143t-152.5 -81l227 -377h-68l-221 371h-350v-371h-57zM686 739h322 q124 0 177.5 46.5t53.5 134.5q0 180 -207 180h-346v-361z" />
<glyph unicode="&#xaf;" horiz-adv-x="1228" d="M102 1294v52h691v-52h-691z" />
<glyph unicode="&#xb0;" horiz-adv-x="899" d="M88 1110q0 155 102.5 256.5t258.5 101.5t259 -101.5t103 -256.5q0 -156 -103 -258t-259 -102q-155 0 -258 102t-103 258zM150 1110q0 -132 85 -218.5t214 -86.5q130 0 215.5 86.5t85.5 218.5q0 133 -84.5 218t-216.5 85q-130 0 -214.5 -85.5t-84.5 -217.5z" />
<glyph unicode="&#xb1;" horiz-adv-x="1427" d="M193 0v57h1042v-57h-1042zM193 657v54h487v399h63v-399h492v-54h-492v-389h-63v389h-487z" />
<glyph unicode="&#xb4;" horiz-adv-x="1228" d="M100 1188l281 299h86l-293 -299h-74z" />
<glyph unicode="&#xb5;" horiz-adv-x="1445" d="M233 -399v1423h64v-584q0 -111 29.5 -193t83.5 -129.5t122 -70t152 -22.5q111 0 201 37.5t146.5 101.5t87 146t30.5 173v541h63v-1024h-61v289q-48 -149 -170.5 -234.5t-302.5 -85.5q-279 0 -385 195v-563h-60z" />
<glyph unicode="&#xb6;" horiz-adv-x="1568" d="M113 1104q0 99 44 173t122 116t174 62t211 20h718v-50h-256v-1630h-57v1630h-358v-1630h-58v944q-540 0 -540 365z" />
<glyph unicode="&#xb7;" horiz-adv-x="430" d="M174 610v195h82v-195h-82z" />
<glyph unicode="&#xb8;" horiz-adv-x="1228" d="M94 -281l56 5q22 -82 131 -82q61 0 94 26.5t33 77.5q0 44 -33 70t-90 26q-68 0 -115 -37l-41 15l113 182h57l-100 -147q38 30 106 30q71 0 115.5 -37.5t44.5 -101.5q0 -68 -50 -110t-134 -42q-76 0 -125.5 33.5t-61.5 91.5z" />
<glyph unicode="&#xba;" horiz-adv-x="1028" d="M102 1010q0 182 112.5 288.5t299.5 106.5t298.5 -106.5t111.5 -288.5q0 -184 -111.5 -291t-298.5 -107t-299.5 107.5t-112.5 290.5zM162 1010q0 -163 96 -257t256 -94t256 94t96 257q0 161 -96 254.5t-256 93.5t-256 -93.5t-96 -254.5z" />
<glyph unicode="&#xbb;" horiz-adv-x="1073" d="M102 987h74l414 -424l-406 -426h-78l404 428zM485 987h74l414 -424l-406 -426h-78l404 428z" />
<glyph unicode="&#xbc;" horiz-adv-x="1677" d="M61 1253v50h17q83 0 145.5 41.5t81.5 109.5h47v-768h-57v668q-31 -46 -87 -73.5t-118 -27.5h-29zM211 -35l1018 1524h67l-1017 -1524h-68zM866 211v41l508 516h60v-514h182v-43h-182v-211h-56v211h-512zM922 254h456v461z" />
<glyph unicode="&#xbd;" horiz-adv-x="1789" d="M61 1253v50h17q83 0 145.5 41.5t81.5 109.5h47v-768h-57v668q-31 -46 -87 -73.5t-118 -27.5h-29zM211 -35l1018 1524h67l-1017 -1524h-68zM1042 0v45q88 47 145.5 79.5t132 78t121 84t90.5 84t64.5 92t20.5 94.5q0 85 -64.5 136.5t-181.5 51.5q-112 0 -184 -47.5 t-72 -138.5q0 -23 6 -57l-57 4q-6 24 -6 57q0 108 87.5 168t227.5 60q139 0 221 -62t82 -170q0 -60 -34 -121.5t-85 -112t-129 -104.5t-146 -92.5t-155 -83.5h574v-45h-658z" />
<glyph unicode="&#xbe;" horiz-adv-x="1994" d="M90 907l57 4q5 -93 79 -147.5t202 -54.5q127 0 202 48t75 138q0 77 -63 122.5t-189 45.5h-88v43h75q104 0 171 41t67 115q0 81 -68.5 125.5t-185.5 44.5q-127 0 -196.5 -53.5t-71.5 -149.5l-58 4q2 112 88.5 178t239.5 66q142 0 225.5 -56.5t83.5 -156.5 q0 -74 -57.5 -120t-142.5 -54q103 -8 166 -60t63 -135q0 -108 -90.5 -168.5t-245.5 -60.5q-154 0 -243.5 65.5t-94.5 175.5zM528 -35l1018 1524h68l-1018 -1524h-68zM1184 211v41l508 516h59v-514h182v-43h-182v-211h-55v211h-512zM1239 254h457v461z" />
<glyph unicode="&#xbf;" horiz-adv-x="1136" d="M66 61q0 229 210 375l138 92q80 57 111.5 117t31.5 146v47h68v-54q0 -94 -38.5 -163.5t-129.5 -131.5l-138 -94q-182 -127 -182 -332q0 -150 117.5 -237.5t304.5 -87.5q202 0 321 92.5t119 267.5q0 34 -6 74l70 -4q6 -37 6 -74q0 -192 -137 -304t-373 -112 q-223 0 -358 104.5t-135 278.5zM551 989v199h78v-199h-78z" />
<glyph unicode="&#xc0;" horiz-adv-x="1515" d="M63 0l660 1454h70l659 -1454h-74l-190 426h-860l-191 -426h-74zM356 487h803l-305 682q-75 173 -94 226h-4q-19 -53 -94 -226zM451 1737h92l250 -189h-84z" />
<glyph unicode="&#xc1;" horiz-adv-x="1515" d="M63 0l660 1454h70l659 -1454h-74l-190 426h-860l-191 -426h-74zM356 487h803l-305 682q-75 173 -94 226h-4q-19 -53 -94 -226zM715 1548l250 189h92l-258 -189h-84z" />
<glyph unicode="&#xc2;" horiz-adv-x="1515" d="M63 0l660 1454h70l659 -1454h-74l-190 426h-860l-191 -426h-74zM356 487h803l-305 682q-75 173 -94 226h-4q-19 -53 -94 -226zM463 1548l258 189h74l258 -189h-84l-211 154l-211 -154h-84z" />
<glyph unicode="&#xc3;" horiz-adv-x="1515" d="M63 0l660 1454h70l659 -1454h-74l-190 426h-860l-191 -426h-74zM356 487h803l-305 682q-75 173 -94 226h-4q-19 -53 -94 -226zM403 1556q6 91 54 142t131 51q42 0 81.5 -16.5t69.5 -39.5t58.5 -46t63 -39.5t69.5 -16.5q57 0 90 36.5t37 105.5l53 -4q-6 -90 -54 -140.5 t-130 -50.5q-42 0 -81 16.5t-69 39.5t-58.5 46t-62.5 39.5t-69 16.5q-59 0 -92 -37t-37 -107z" />
<glyph unicode="&#xc4;" horiz-adv-x="1515" d="M63 0l660 1454h70l659 -1454h-74l-190 426h-860l-191 -426h-74zM356 487h803l-305 682q-75 173 -94 226h-4q-19 -53 -94 -226zM465 1548v187h72v-187h-72zM981 1548v187h72v-187h-72z" />
<glyph unicode="&#xc5;" horiz-adv-x="1515" d="M63 0l660 1454h70l659 -1454h-74l-190 426h-860l-191 -426h-74zM356 487h803l-305 682q-75 173 -94 226h-4q-19 -53 -94 -226zM555 1702q0 84 56.5 137t144.5 53q89 0 144.5 -52.5t55.5 -137.5t-55.5 -138t-144.5 -53q-88 0 -144.5 53.5t-56.5 137.5zM610 1702 q0 -62 39.5 -102.5t106.5 -40.5q68 0 106.5 40.5t38.5 102.5t-38.5 102.5t-106.5 40.5q-67 0 -106.5 -40.5t-39.5 -102.5z" />
<glyph unicode="&#xc6;" horiz-adv-x="2410" d="M41 0l1114 1454h1086v-59h-1002v-619h967v-61h-967v-656h1016v-59h-1084v373h-765l-285 -373h-80zM451 432h720v946z" />
<glyph unicode="&#xc7;" horiz-adv-x="1609" d="M104 729q0 352 196.5 560t530.5 208q275 0 447.5 -140.5t206.5 -385.5l-74 -4q-31 221 -185 345t-399 124q-300 0 -474.5 -189t-174.5 -516q0 -328 172.5 -520.5t478.5 -192.5q234 0 388 118t200 335l70 -6q-51 -234 -214 -368t-423 -140l-82 -119q39 31 106 31 q71 0 115.5 -37.5t44.5 -101.5q0 -68 -50 -110t-134 -42q-76 0 -125 33.5t-61 91.5l55 4q22 -82 131 -82q60 0 93.5 27t33.5 78q0 44 -33 70t-90 26q-68 0 -115 -37l-41 14l95 154q-217 7 -373.5 105.5t-236 269.5t-79.5 397z" />
<glyph unicode="&#xc8;" horiz-adv-x="1486" d="M254 0v1454h1061v-59h-991v-619h956v-61h-956v-656h1005v-59h-1075zM479 1737h92l250 -189h-84z" />
<glyph unicode="&#xc9;" horiz-adv-x="1486" d="M254 0v1454h1061v-59h-991v-619h956v-61h-956v-656h1005v-59h-1075zM743 1548l250 189h92l-258 -189h-84z" />
<glyph unicode="&#xca;" horiz-adv-x="1486" d="M254 0v1454h1061v-59h-991v-619h956v-61h-956v-656h1005v-59h-1075zM492 1548l258 189h73l258 -189h-84l-211 154l-211 -154h-83z" />
<glyph unicode="&#xcb;" horiz-adv-x="1486" d="M254 0v1454h1061v-59h-991v-619h956v-61h-956v-656h1005v-59h-1075zM494 1548v187h71v-187h-71zM1010 1548v187h71v-187h-71z" />
<glyph unicode="&#xcc;" horiz-adv-x="577" d="M104 1737h80l142 -189h-76zM254 0v1454h70v-1454h-70z" />
<glyph unicode="&#xcd;" horiz-adv-x="577" d="M250 1548l141 189h80l-145 -189h-76zM254 0v1454h70v-1454h-70z" />
<glyph unicode="&#xce;" horiz-adv-x="577" d="M90 1550l162 187h74l159 -187h-71l-125 152l-127 -152h-72zM254 0v1454h70v-1454h-70z" />
<glyph unicode="&#xcf;" horiz-adv-x="577" d="M113 1548v187h71v-187h-71zM254 0v1454h70v-1454h-70zM393 1548v187h72v-187h-72z" />
<glyph unicode="&#xd0;" horiz-adv-x="1689" d="M53 727v57h195v670h581q334 0 533 -190t199 -527q0 -223 -95.5 -391.5t-262.5 -257t-382 -88.5h-573v727h-195zM317 61h510q297 0 479.5 185t182.5 491q0 312 -179 484t-483 172h-510v-609h537v-57h-537v-666z" />
<glyph unicode="&#xd1;" horiz-adv-x="1724" d="M254 0v1454h82l979 -1243q40 -51 90 -125h2q-2 47 -2 143v1225h65v-1454h-77l-983 1251q-47 59 -91 125h-2q2 -47 2 -141v-1235h-65zM508 1556q6 92 53.5 142.5t130.5 50.5q42 0 81.5 -16.5t69.5 -39.5t58.5 -46t63 -39.5t69.5 -16.5q57 0 90 36.5t37 105.5l53 -4 q-6 -90 -54 -140.5t-130 -50.5q-42 0 -81 16.5t-69 39.5t-58.5 46t-62.5 39.5t-69 16.5q-59 0 -92 -37t-37 -107z" />
<glyph unicode="&#xd2;" horiz-adv-x="1675" d="M104 727q0 181 55.5 327.5t154 242.5t232.5 148t292 52t292 -52t232 -148t153.5 -242.5t55.5 -327.5q0 -180 -55.5 -326t-153.5 -243t-232 -149t-292 -52t-292 52.5t-232.5 149.5t-154 243t-55.5 325zM178 727q0 -163 49.5 -297.5t137.5 -224t209 -138.5t264 -49t264 48 t209.5 137.5t138 224t49.5 299.5t-49.5 299.5t-138 224t-209.5 137.5t-264 48t-264 -48t-209 -137.5t-137.5 -224t-49.5 -299.5zM530 1737h93l249 -189h-84z" />
<glyph unicode="&#xd3;" horiz-adv-x="1675" d="M104 727q0 181 55.5 327.5t154 242.5t232.5 148t292 52t292 -52t232 -148t153.5 -242.5t55.5 -327.5q0 -180 -55.5 -326t-153.5 -243t-232 -149t-292 -52t-292 52.5t-232.5 149.5t-154 243t-55.5 325zM178 727q0 -163 49.5 -297.5t137.5 -224t209 -138.5t264 -49t264 48 t209.5 137.5t138 224t49.5 299.5t-49.5 299.5t-138 224t-209.5 137.5t-264 48t-264 -48t-209 -137.5t-137.5 -224t-49.5 -299.5zM795 1548l249 189h93l-258 -189h-84z" />
<glyph unicode="&#xd4;" horiz-adv-x="1675" d="M104 727q0 181 55.5 327.5t154 242.5t232.5 148t292 52t292 -52t232 -148t153.5 -242.5t55.5 -327.5q0 -180 -55.5 -326t-153.5 -243t-232 -149t-292 -52t-292 52.5t-232.5 149.5t-154 243t-55.5 325zM178 727q0 -163 49.5 -297.5t137.5 -224t209 -138.5t264 -49t264 48 t209.5 137.5t138 224t49.5 299.5t-49.5 299.5t-138 224t-209.5 137.5t-264 48t-264 -48t-209 -137.5t-137.5 -224t-49.5 -299.5zM543 1548l258 189h73l259 -189h-84l-211 154l-211 -154h-84z" />
<glyph unicode="&#xd5;" horiz-adv-x="1675" d="M104 727q0 181 55.5 327.5t154 242.5t232.5 148t292 52t292 -52t232 -148t153.5 -242.5t55.5 -327.5q0 -180 -55.5 -326t-153.5 -243t-232 -149t-292 -52t-292 52.5t-232.5 149.5t-154 243t-55.5 325zM178 727q0 -163 49.5 -297.5t137.5 -224t209 -138.5t264 -49t264 48 t209.5 137.5t138 224t49.5 299.5t-49.5 299.5t-138 224t-209.5 137.5t-264 48t-264 -48t-209 -137.5t-137.5 -224t-49.5 -299.5zM483 1556q6 91 54 142t131 51q42 0 81.5 -16.5t69.5 -39.5t58.5 -46t63 -39.5t69.5 -16.5q57 0 90 36.5t37 105.5l53 -4q-6 -90 -54 -140.5 t-130 -50.5q-42 0 -81 16.5t-69 39.5t-58.5 46t-62.5 39.5t-69 16.5q-59 0 -92 -37t-37 -107z" />
<glyph unicode="&#xd6;" horiz-adv-x="1675" d="M104 727q0 181 55.5 327.5t154 242.5t232.5 148t292 52t292 -52t232 -148t153.5 -242.5t55.5 -327.5q0 -180 -55.5 -326t-153.5 -243t-232 -149t-292 -52t-292 52.5t-232.5 149.5t-154 243t-55.5 325zM178 727q0 -163 49.5 -297.5t137.5 -224t209 -138.5t264 -49t264 48 t209.5 137.5t138 224t49.5 299.5t-49.5 299.5t-138 224t-209.5 137.5t-264 48t-264 -48t-209 -137.5t-137.5 -224t-49.5 -299.5zM545 1548v187h71v-187h-71zM1061 1548v187h72v-187h-72z" />
<glyph unicode="&#xd7;" horiz-adv-x="1427" d="M221 1087l43 41l449 -419l448 419l45 -41l-448 -417l446 -418l-41 -43l-448 420l-451 -420l-41 41l447 418z" />
<glyph unicode="&#xd8;" horiz-adv-x="1675" d="M104 727q0 181 55.5 327.5t154 242.5t232.5 148t292 52q298 0 491 -172l123 139l43 -37l-125 -141q201 -207 201 -559q0 -180 -55.5 -326t-153.5 -243t-232 -149t-292 -52q-295 0 -490 170l-125 -141l-43 37l127 143q-203 209 -203 561zM178 727q0 -315 174 -508 l932 1057q-177 160 -446 160q-143 0 -264 -48t-209 -137.5t-137.5 -224t-49.5 -299.5zM393 178q177 -160 445 -160q143 0 264 48t209.5 137.5t138 224t49.5 299.5q0 315 -174 508z" />
<glyph unicode="&#xd9;" horiz-adv-x="1626" d="M211 537v917h70v-915q0 -240 138.5 -380.5t393.5 -140.5q253 0 393 141t140 380v915h69v-917q0 -265 -158 -421.5t-444 -156.5q-288 0 -445 156t-157 422zM506 1737h92l250 -189h-84z" />
<glyph unicode="&#xda;" horiz-adv-x="1626" d="M211 537v917h70v-915q0 -240 138.5 -380.5t393.5 -140.5q253 0 393 141t140 380v915h69v-917q0 -265 -158 -421.5t-444 -156.5q-288 0 -445 156t-157 422zM770 1548l250 189h92l-258 -189h-84z" />
<glyph unicode="&#xdb;" horiz-adv-x="1626" d="M211 537v917h70v-915q0 -240 138.5 -380.5t393.5 -140.5q253 0 393 141t140 380v915h69v-917q0 -265 -158 -421.5t-444 -156.5q-288 0 -445 156t-157 422zM518 1548l258 189h74l258 -189h-84l-211 154l-211 -154h-84z" />
<glyph unicode="&#xdc;" horiz-adv-x="1626" d="M211 537v917h70v-915q0 -240 138.5 -380.5t393.5 -140.5q253 0 393 141t140 380v915h69v-917q0 -265 -158 -421.5t-444 -156.5q-288 0 -445 156t-157 422zM520 1548v187h72v-187h-72zM1036 1548v187h72v-187h-72z" />
<glyph unicode="&#xdd;" horiz-adv-x="1349" d="M14 1454h82l479 -670q80 -103 97 -141h4q16 34 98 141l479 670h82l-626 -872v-582h-70v582zM631 1548l250 189h92l-258 -189h-84z" />
<glyph unicode="&#xde;" horiz-adv-x="1347" d="M248 0v1454h69v-276h531q206 0 323 -103.5t117 -288.5q0 -191 -116.5 -299t-321.5 -108h-533v-379h-69zM317 438h537q168 0 264 93t96 255q0 155 -96 242.5t-266 87.5h-535v-678z" />
<glyph unicode="&#xdf;" horiz-adv-x="1415" d="M219 0v1055q0 221 125 337.5t363 116.5q219 0 345 -94.5t126 -261.5q0 -149 -88.5 -238.5t-247.5 -101.5q198 -12 306.5 -115.5t108.5 -283.5q0 -214 -138 -323t-400 -109q-106 0 -230 22v55q116 -22 226 -22q477 0 477 375q0 370 -475 370h-193v56h195q192 0 291.5 80 t99.5 233q0 146 -106 224.5t-299 78.5q-420 0 -420 -412v-1042h-66z" />
<glyph unicode="&#xe0;" horiz-adv-x="1314" d="M137 256q0 124 84 199q93 86 352 110l476 43v33q0 189 -92.5 274.5t-301.5 85.5q-183 0 -289.5 -72t-123.5 -222h-68q15 168 144.5 259t336.5 91q236 0 346.5 -99t110.5 -309v-276q0 -235 23 -373h-68q-14 154 -14 266q-55 -141 -187 -220t-323 -79q-182 0 -294 78.5 t-112 210.5zM205 258q0 -111 95.5 -173t256.5 -62q214 0 354 116.5t140 290.5v127l-469 -43q-208 -20 -292.5 -79.5t-84.5 -176.5zM311 1487h86l281 -299h-74z" />
<glyph unicode="&#xe1;" horiz-adv-x="1314" d="M137 256q0 124 84 199q93 86 352 110l476 43v33q0 189 -92.5 274.5t-301.5 85.5q-183 0 -289.5 -72t-123.5 -222h-68q15 168 144.5 259t336.5 91q236 0 346.5 -99t110.5 -309v-276q0 -235 23 -373h-68q-14 154 -14 266q-55 -141 -187 -220t-323 -79q-182 0 -294 78.5 t-112 210.5zM205 258q0 -111 95.5 -173t256.5 -62q214 0 354 116.5t140 290.5v127l-469 -43q-208 -20 -292.5 -79.5t-84.5 -176.5zM606 1188l281 299h86l-293 -299h-74z" />
<glyph unicode="&#xe2;" horiz-adv-x="1314" d="M137 256q0 124 84 199q93 86 352 110l476 43v33q0 189 -92.5 274.5t-301.5 85.5q-183 0 -289.5 -72t-123.5 -222h-68q15 168 144.5 259t336.5 91q236 0 346.5 -99t110.5 -309v-276q0 -235 23 -373h-68q-14 154 -14 266q-55 -141 -187 -220t-323 -79q-182 0 -294 78.5 t-112 210.5zM205 258q0 -111 95.5 -173t256.5 -62q214 0 354 116.5t140 290.5v127l-469 -43q-208 -20 -292.5 -79.5t-84.5 -176.5zM313 1188l295 299h70l295 -299h-70l-260 262l-260 -262h-70z" />
<glyph unicode="&#xe3;" horiz-adv-x="1314" d="M137 256q0 124 84 199q93 86 352 110l476 43v33q0 189 -92.5 274.5t-301.5 85.5q-183 0 -289.5 -72t-123.5 -222h-68q15 168 144.5 259t336.5 91q236 0 346.5 -99t110.5 -309v-276q0 -235 23 -373h-68q-14 154 -14 266q-55 -141 -187 -220t-323 -79q-182 0 -294 78.5 t-112 210.5zM205 258q0 -111 95.5 -173t256.5 -62q214 0 354 116.5t140 290.5v127l-469 -43q-208 -20 -292.5 -79.5t-84.5 -176.5zM279 1227q6 96 56 149.5t136 53.5q45 0 86 -17.5t72.5 -42t61.5 -49t66 -42t74 -17.5q62 0 98 39t40 112l53 -4q-6 -95 -56.5 -148 t-136.5 -53q-45 0 -86.5 17.5t-72.5 42t-61.5 49t-66 42t-73.5 17.5q-62 0 -97.5 -39t-39.5 -114z" />
<glyph unicode="&#xe4;" horiz-adv-x="1314" d="M137 256q0 124 84 199q93 86 352 110l476 43v33q0 189 -92.5 274.5t-301.5 85.5q-183 0 -289.5 -72t-123.5 -222h-68q15 168 144.5 259t336.5 91q236 0 346.5 -99t110.5 -309v-276q0 -235 23 -373h-68q-14 154 -14 266q-55 -141 -187 -220t-323 -79q-182 0 -294 78.5 t-112 210.5zM205 258q0 -111 95.5 -173t256.5 -62q214 0 354 116.5t140 290.5v127l-469 -43q-208 -20 -292.5 -79.5t-84.5 -176.5zM356 1198v232h72v-232h-72zM860 1198v232h72v-232h-72z" />
<glyph unicode="&#xe5;" horiz-adv-x="1314" d="M137 256q0 124 84 199q93 86 352 110l476 43v33q0 189 -92.5 274.5t-301.5 85.5q-183 0 -289.5 -72t-123.5 -222h-68q15 168 144.5 259t336.5 91q236 0 346.5 -99t110.5 -309v-276q0 -235 23 -373h-68q-14 154 -14 266q-55 -141 -187 -220t-323 -79q-182 0 -294 78.5 t-112 210.5zM205 258q0 -111 95.5 -173t256.5 -62q214 0 354 116.5t140 290.5v127l-469 -43q-208 -20 -292.5 -79.5t-84.5 -176.5zM412 1348q0 86 62.5 138t168.5 52t168.5 -52t62.5 -138t-62.5 -138.5t-168.5 -52.5t-168.5 52.5t-62.5 138.5zM465 1348q0 -64 47 -105 t131 -41q85 0 132.5 41t47.5 105t-47.5 104.5t-132.5 40.5q-84 0 -131 -40.5t-47 -104.5z" />
<glyph unicode="&#xe6;" horiz-adv-x="2127" d="M137 244q0 130 93.5 197.5t306.5 86.5l477 39v74q0 182 -89.5 270t-281.5 88q-367 0 -401 -294h-66q17 170 139.5 261t327.5 91q355 0 418 -273q58 130 174.5 201.5t277.5 71.5q229 0 356.5 -130t127.5 -366v-45h-916v-16q0 -223 116 -349.5t321 -125.5q164 2 272 80 t139 219l62 -15q-37 -163 -161 -252.5t-312 -89.5q-186 0 -309 87t-167 249q-53 -160 -189.5 -248t-336.5 -88q-170 0 -274.5 75t-104.5 202zM205 246q0 -105 87 -164t240 -59q207 0 345.5 116.5t138.5 296.5v82l-477 -41q-177 -13 -255.5 -69t-78.5 -162zM1081 569h848v17 q0 194 -111.5 306t-304.5 112q-194 0 -313 -119t-119 -312v-4z" />
<glyph unicode="&#xe7;" horiz-adv-x="1269" d="M106 512q0 259 144.5 402t398.5 143q207 0 336 -97.5t154 -275.5l-68 -4q-25 155 -135.5 237t-292.5 82q-221 0 -346 -126.5t-125 -358.5t126.5 -360.5t350.5 -128.5q178 0 289 82.5t137 234.5l66 -6q-31 -170 -152 -266.5t-313 -102.5l-78 -114q38 30 107 30 q71 0 115 -37.5t44 -101.5q0 -68 -50 -110t-134 -42q-76 0 -125 33.5t-61 91.5l55 4q21 -81 131 -81q61 0 94 26.5t33 77.5q0 44 -33 70t-90 26q-68 0 -115 -37l-41 15l93 149q-242 9 -378.5 152t-136.5 393z" />
<glyph unicode="&#xe8;" horiz-adv-x="1275" d="M106 518q0 256 140 397.5t381 141.5q245 0 381.5 -130t136.5 -374v-39h-975q1 -238 126 -363.5t345 -125.5q176 2 290 78.5t146 218.5l60 -13q-38 -162 -168.5 -252t-327.5 -90q-253 0 -394 143.5t-141 407.5zM170 567h907v2q0 208 -120 320t-330 112q-204 0 -329 -116 t-128 -318zM295 1487h86l281 -299h-74z" />
<glyph unicode="&#xe9;" horiz-adv-x="1275" d="M106 518q0 256 140 397.5t381 141.5q245 0 381.5 -130t136.5 -374v-39h-975q1 -238 126 -363.5t345 -125.5q176 2 290 78.5t146 218.5l60 -13q-38 -162 -168.5 -252t-327.5 -90q-253 0 -394 143.5t-141 407.5zM170 567h907v2q0 208 -120 320t-330 112q-204 0 -329 -116 t-128 -318zM590 1188l280 299h86l-292 -299h-74z" />
<glyph unicode="&#xea;" horiz-adv-x="1275" d="M106 518q0 256 140 397.5t381 141.5q245 0 381.5 -130t136.5 -374v-39h-975q1 -238 126 -363.5t345 -125.5q176 2 290 78.5t146 218.5l60 -13q-38 -162 -168.5 -252t-327.5 -90q-253 0 -394 143.5t-141 407.5zM170 567h907v2q0 208 -120 320t-330 112q-204 0 -329 -116 t-128 -318zM297 1188l295 299h70l294 -299h-69l-260 262l-260 -262h-70z" />
<glyph unicode="&#xeb;" horiz-adv-x="1275" d="M106 518q0 256 140 397.5t381 141.5q245 0 381.5 -130t136.5 -374v-39h-975q1 -238 126 -363.5t345 -125.5q176 2 290 78.5t146 218.5l60 -13q-38 -162 -168.5 -252t-327.5 -90q-253 0 -394 143.5t-141 407.5zM170 567h907v2q0 208 -120 320t-330 112q-204 0 -329 -116 t-128 -318zM340 1198v232h72v-232h-72zM844 1198v232h71v-232h-71z" />
<glyph unicode="&#xec;" horiz-adv-x="530" d="M63 1487h72l162 -299h-64zM233 0v1024h64v-1024h-64z" />
<glyph unicode="&#xed;" horiz-adv-x="530" d="M233 0v1024h64v-1024h-64zM236 1188l161 299h72l-170 -299h-63z" />
<glyph unicode="&#xee;" horiz-adv-x="530" d="M63 1188l168 301h68l168 -301h-61l-140 262l-141 -262h-62zM233 0v1024h64v-1024h-64z" />
<glyph unicode="&#xef;" horiz-adv-x="530" d="M100 1198v238h72v-238h-72zM233 0v1024h64v-1024h-64zM360 1198v238h72v-238h-72z" />
<glyph unicode="&#xf0;" horiz-adv-x="1357" d="M123 510q0 245 146.5 391t394.5 146q164 0 279 -68t173 -195h2q-46 283 -254 463l-407 -104l-15 45l377 94q-174 126 -411 156l18 47q271 -37 457 -185l223 56l12 -45l-190 -49q135 -126 205 -311t69 -419q-1 -262 -147 -412.5t-391 -150.5q-249 0 -395 145.5t-146 395.5 zM190 510q0 -224 127 -353.5t345 -129.5q217 0 346 129.5t129 353.5q0 229 -123.5 355t-345.5 126q-224 0 -351 -128t-127 -353z" />
<glyph unicode="&#xf1;" horiz-adv-x="1419" d="M233 0v1024h64v-301q47 161 168.5 246.5t304.5 85.5q223 0 339 -123t116 -359v-573h-64v567q0 211 -102.5 321.5t-298.5 110.5q-211 0 -337 -129t-126 -346v-524h-64zM410 1227q6 96 56 149.5t136 53.5q45 0 86 -17.5t72.5 -42t62 -49t66.5 -42t74 -17.5q62 0 97.5 39 t39.5 112l53 -4q-6 -96 -56 -148.5t-136 -52.5q-45 0 -86.5 17.5t-73 42t-61.5 49t-66 42t-74 17.5q-62 0 -97.5 -39t-39.5 -114z" />
<glyph unicode="&#xf2;" d="M106 512q0 256 147 400.5t396 144.5q250 0 397.5 -144t147.5 -401t-147.5 -401t-397.5 -144q-249 0 -396 144.5t-147 400.5zM172 512q0 -231 129 -359t348 -128t349 128t130 359t-130 359t-349 128t-348 -128t-129 -359zM317 1487h86l281 -299h-74z" />
<glyph unicode="&#xf3;" d="M106 512q0 256 147 400.5t396 144.5q250 0 397.5 -144t147.5 -401t-147.5 -401t-397.5 -144q-249 0 -396 144.5t-147 400.5zM172 512q0 -231 129 -359t348 -128t349 128t130 359t-130 359t-349 128t-348 -128t-129 -359zM612 1188l281 299h86l-293 -299h-74z" />
<glyph unicode="&#xf4;" d="M106 512q0 256 147 400.5t396 144.5q250 0 397.5 -144t147.5 -401t-147.5 -401t-397.5 -144q-249 0 -396 144.5t-147 400.5zM172 512q0 -231 129 -359t348 -128t349 128t130 359t-130 359t-349 128t-348 -128t-129 -359zM319 1188l295 299h70l295 -299h-70l-260 262 l-260 -262h-70z" />
<glyph unicode="&#xf5;" d="M106 512q0 256 147 400.5t396 144.5q250 0 397.5 -144t147.5 -401t-147.5 -401t-397.5 -144q-249 0 -396 144.5t-147 400.5zM172 512q0 -231 129 -359t348 -128t349 128t130 359t-130 359t-349 128t-348 -128t-129 -359zM285 1227q6 96 56 149.5t136 53.5q45 0 86 -17.5 t72.5 -42t62 -49t66.5 -42t74 -17.5q62 0 97.5 39t39.5 112l53 -4q-6 -96 -56 -148.5t-136 -52.5q-45 0 -86.5 17.5t-73 42t-61.5 49t-66 42t-74 17.5q-62 0 -97.5 -39t-39.5 -114z" />
<glyph unicode="&#xf6;" d="M106 512q0 256 147 400.5t396 144.5q250 0 397.5 -144t147.5 -401t-147.5 -401t-397.5 -144q-249 0 -396 144.5t-147 400.5zM172 512q0 -231 129 -359t348 -128t349 128t130 359t-130 359t-349 128t-348 -128t-129 -359zM362 1198v232h72v-232h-72zM866 1198v232h72v-232 h-72z" />
<glyph unicode="&#xf7;" d="M129 645v55h1042v-55h-1042zM578 283q0 31 18 49t49 18q30 0 49 -18.5t19 -48.5t-19 -49t-49 -19q-31 0 -49 18.5t-18 49.5zM578 1063q0 31 18 49t49 18q30 0 49 -18.5t19 -48.5t-19 -49t-49 -19q-31 0 -49 18.5t-18 49.5z" />
<glyph unicode="&#xf8;" d="M106 512q0 256 147 400.5t396 144.5q230 0 375 -123l109 113l38 -33l-110 -115q133 -146 133 -387q0 -257 -147.5 -401t-397.5 -144q-235 0 -375 125l-112 -115l-37 33l113 117q-132 145 -132 385zM172 512q0 -214 111 -340l696 717q-125 110 -330 110q-219 0 -348 -128 t-129 -359zM317 137q124 -112 332 -112q219 0 349 128t130 359q0 214 -112 342z" />
<glyph unicode="&#xf9;" horiz-adv-x="1406" d="M195 438v586h63v-584q0 -111 29.5 -193t83.5 -129.5t122 -70t152 -22.5q111 0 201 37.5t146.5 101.5t87 146t30.5 173v541h64v-1024h-62v289q-48 -149 -170.5 -234.5t-302.5 -85.5q-221 0 -332.5 121.5t-111.5 347.5zM352 1487h86l281 -299h-74z" />
<glyph unicode="&#xfa;" horiz-adv-x="1406" d="M195 438v586h63v-584q0 -111 29.5 -193t83.5 -129.5t122 -70t152 -22.5q111 0 201 37.5t146.5 101.5t87 146t30.5 173v541h64v-1024h-62v289q-48 -149 -170.5 -234.5t-302.5 -85.5q-221 0 -332.5 121.5t-111.5 347.5zM647 1188l281 299h86l-293 -299h-74z" />
<glyph unicode="&#xfb;" horiz-adv-x="1406" d="M195 438v586h63v-584q0 -111 29.5 -193t83.5 -129.5t122 -70t152 -22.5q111 0 201 37.5t146.5 101.5t87 146t30.5 173v541h64v-1024h-62v289q-48 -149 -170.5 -234.5t-302.5 -85.5q-221 0 -332.5 121.5t-111.5 347.5zM354 1188l295 299h70l295 -299h-70l-260 262 l-260 -262h-70z" />
<glyph unicode="&#xfc;" horiz-adv-x="1406" d="M195 438v586h63v-584q0 -111 29.5 -193t83.5 -129.5t122 -70t152 -22.5q111 0 201 37.5t146.5 101.5t87 146t30.5 173v541h64v-1024h-62v289q-48 -149 -170.5 -234.5t-302.5 -85.5q-221 0 -332.5 121.5t-111.5 347.5zM397 1198v232h72v-232h-72zM901 1198v232h72v-232 h-72z" />
<glyph unicode="&#xfd;" horiz-adv-x="1118" d="M27 1024h71l387 -784q46 -90 88 -195h5q27 77 81 195l365 784h68l-508 -1090q-88 -189 -180 -269.5t-248 -80.5q-40 0 -84 8v56q43 -6 78 -6q61 0 112 15.5t86 39t67 63t52.5 76t44.5 88.5l31 66zM522 1188l281 299h86l-293 -299h-74z" />
<glyph unicode="&#xfe;" horiz-adv-x="1435" d="M238 -399v1884h63v-756q50 151 181 239.5t306 88.5q245 0 386 -144t141 -397q0 -254 -144 -401.5t-389 -147.5q-169 0 -299 84t-182 228v-678h-63zM299 487q0 -201 132 -331.5t341 -130.5q222 0 347.5 130t125.5 361q0 230 -122 356.5t-345 126.5q-105 0 -195 -36 t-152 -98t-97 -147t-35 -181v-50z" />
<glyph unicode="&#xff;" horiz-adv-x="1118" d="M27 1024h71l387 -784q46 -90 88 -195h5q27 77 81 195l365 784h68l-508 -1090q-88 -189 -180 -269.5t-248 -80.5q-40 0 -84 8v56q43 -6 78 -6q61 0 112 15.5t86 39t67 63t52.5 76t44.5 88.5l31 66zM272 1198v232h72v-232h-72zM776 1198v232h72v-232h-72z" />
<glyph unicode="&#x152;" horiz-adv-x="2547" d="M104 735q0 340 202.5 529.5t549.5 189.5h1526v-59h-991v-619h956v-61h-956v-656h1005v-59h-1550q-217 0 -385 90t-262.5 257.5t-94.5 387.5zM178 737q0 -306 184 -491t478 -185h481v1332h-467q-315 0 -495.5 -173t-180.5 -483z" />
<glyph unicode="&#x153;" horiz-adv-x="2297" d="M106 512q0 253 147 399t396 146q189 0 321.5 -86.5t186.5 -243.5q51 159 179 244.5t313 85.5q245 0 381.5 -130t136.5 -374v-39h-975q1 -238 126 -363.5t345 -125.5q176 2 290 78.5t146 218.5l60 -13q-38 -162 -168.5 -252t-327.5 -90q-194 0 -323.5 85.5t-180.5 246.5 q-54 -159 -187 -245.5t-323 -86.5q-249 0 -396 146t-147 399zM172 512q0 -230 128.5 -358.5t348.5 -128.5t349.5 128.5t129.5 358.5q0 228 -129.5 357.5t-349.5 129.5q-219 0 -348 -129t-129 -358zM1192 567h907v2q0 208 -120 320t-330 112q-204 0 -329 -116t-128 -318z" />
<glyph unicode="&#x178;" horiz-adv-x="1349" d="M14 1454h82l479 -670q80 -103 97 -141h4q16 34 98 141l479 670h82l-626 -872v-582h-70v582zM381 1548v187h72v-187h-72zM897 1548v187h72v-187h-72z" />
<glyph unicode="&#x2c6;" horiz-adv-x="1228" d="M55 1188l295 299h70l295 -299h-70l-260 262l-260 -262h-70z" />
<glyph unicode="&#x2dc;" horiz-adv-x="1228" d="M119 1227q6 96 56 149.5t136 53.5q45 0 86 -17.5t72.5 -42t62 -49t66.5 -42t74 -17.5q62 0 97.5 39t39.5 112l53 -4q-6 -96 -56 -148.5t-136 -52.5q-45 0 -86.5 17.5t-73 42t-61.5 49t-66 42t-74 17.5q-62 0 -97.5 -39t-39.5 -114z" />
<glyph unicode="&#x2000;" horiz-adv-x="946" />
<glyph unicode="&#x2001;" horiz-adv-x="1892" />
<glyph unicode="&#x2002;" horiz-adv-x="946" />
<glyph unicode="&#x2003;" horiz-adv-x="1892" />
<glyph unicode="&#x2004;" horiz-adv-x="630" />
<glyph unicode="&#x2005;" horiz-adv-x="473" />
<glyph unicode="&#x2006;" horiz-adv-x="315" />
<glyph unicode="&#x2007;" horiz-adv-x="315" />
<glyph unicode="&#x2008;" horiz-adv-x="236" />
<glyph unicode="&#x2009;" horiz-adv-x="378" />
<glyph unicode="&#x200a;" horiz-adv-x="105" />
<glyph unicode="&#x2010;" horiz-adv-x="1005" d="M129 541v59h748v-59h-748z" />
<glyph unicode="&#x2011;" horiz-adv-x="1005" d="M129 541v59h748v-59h-748z" />
<glyph unicode="&#x2012;" horiz-adv-x="1005" d="M129 541v59h748v-59h-748z" />
<glyph unicode="&#x2013;" horiz-adv-x="1318" d="M129 545v51h1061v-51h-1061z" />
<glyph unicode="&#x2014;" horiz-adv-x="1892" d="M129 545v51h1632v-51h-1632z" />
<glyph unicode="&#x2018;" horiz-adv-x="440" d="M174 1042v187q0 95 23.5 149.5t81.5 89.5l20 -30q-48 -37 -63 -80.5t-15 -112.5v-4h37v-199h-84z" />
<glyph unicode="&#x2019;" horiz-adv-x="440" d="M141 1059q48 37 63 80t15 112v4h-37v199h84v-186q0 -95 -23 -150t-81 -90z" />
<glyph unicode="&#x201a;" horiz-adv-x="440" d="M141 -197q48 37 63 80.5t15 112.5v4h-37v199h84v-187q0 -95 -23 -149.5t-81 -89.5z" />
<glyph unicode="&#x201c;" horiz-adv-x="671" d="M174 1042v187q0 95 23.5 149.5t81.5 89.5l20 -30q-48 -37 -63 -80.5t-15 -112.5v-4h37v-199h-84zM406 1042v187q0 95 23 149.5t81 89.5l20 -30q-48 -36 -62.5 -79.5t-14.5 -113.5v-4h36v-199h-83z" />
<glyph unicode="&#x201d;" horiz-adv-x="671" d="M141 1057q48 37 63 80t15 112v4h-37v199h84v-186q0 -95 -23 -150t-81 -90zM373 1057q48 37 63 80t15 112v4h-37v199h84v-186q0 -95 -23.5 -150t-81.5 -90z" />
<glyph unicode="&#x201e;" horiz-adv-x="671" d="M141 -199q48 37 63 80.5t15 112.5v4h-37v199h84v-187q0 -95 -23 -149.5t-81 -89.5zM373 -199q48 37 63 80.5t15 112.5v4h-37v199h84v-187q0 -95 -23.5 -149.5t-81.5 -89.5z" />
<glyph unicode="&#x2022;" horiz-adv-x="514" d="M174 709q0 38 22.5 60t59.5 22t60.5 -22t23.5 -60t-23.5 -60t-60.5 -22t-59.5 22t-22.5 60z" />
<glyph unicode="&#x2026;" horiz-adv-x="1607" d="M174 0v188h82v-188h-82zM764 0v188h82v-188h-82zM1352 0v188h82v-188h-82z" />
<glyph unicode="&#x202f;" horiz-adv-x="378" />
<glyph unicode="&#x2039;" horiz-adv-x="690" d="M100 563l414 424h74l-408 -422l404 -428h-78z" />
<glyph unicode="&#x203a;" horiz-adv-x="690" d="M102 987h74l414 -424l-406 -426h-78l404 428z" />
<glyph unicode="&#x205f;" horiz-adv-x="473" />
<glyph unicode="&#x20ac;" horiz-adv-x="1607" d="M25 567v51h163q-4 74 -4 111q0 59 6 115h-165v51h172q41 267 220 417t484 150q216 0 370.5 -90t205.5 -258l-64 -16q-44 144 -183.5 225.5t-330.5 81.5q-277 0 -435.5 -133.5t-197.5 -376.5h877v-51h-883q-6 -56 -6 -115t6 -111h883v-51h-877q39 -253 199.5 -397.5 t421.5 -144.5q83 0 162.5 18t153 55.5t132 102t88.5 149.5l60 -14q-58 -179 -219 -274t-377 -95q-307 0 -480 161.5t-212 438.5h-170z" />
<glyph unicode="&#x2122;" horiz-adv-x="1918" d="M10 1409v47h772v-47h-368v-784h-56v784h-348zM881 625v831h73l322 -649q38 -74 59 -131h4q18 50 60 131l321 649h74v-831h-55v651q0 71 4 110h-2q-8 -17 -24.5 -48.5t-24.5 -49.5l-328 -663h-53l-328 663q-8 18 -24.5 49.5t-24.5 48.5h-2q2 -39 2 -110v-651h-53z" />
<glyph unicode="&#x25fc;" horiz-adv-x="1024" d="M0 0v1024h1024v-1024h-1024z" />
</font>
</defs>
</svg>
